Subcategories

Mentol Nomad - Mentallica...And It's Inhabitants (2002) {Wordsound} **[RE-UP]**

Posted By: TestTickles
Mentol Nomad - Mentallica...And It's Inhabitants (2002) {Wordsound} **[RE-UP]**

Mentol Nomad - Mentallica…And It's Inhabitants (2002) {Wordsound}
EAC Rip | FLAC with CUE and log | no scans | 310 mb
EAC Rip | FLAC with CUE and log | no scans | 310 mb
MP3 CBR 320kbps | RAR | 122 mb
Genre: electronica, dub, instrumental hip-hop, trip-hop

The first album by instrumental musical genius Mentol Nomad is called Mentallica…And It's Inhabitants. The label responsible: Wordsound.

Mentol Nomad - Mentallica...And It's Inhabitants (2002) {Wordsound} **[RE-UP]**

1. Begotten Entry To Mentallica (Intro)
2. 12 Tribes
3. Holy Mountain (Gatherings Of The Trinity)
4. Sexorzism
5. Urantia (Hall Of Souls)
6. Family Of Flesh
7. 3rd Vizionz
8. Deity
9. Illstramentol (Interlude)
10. Fallen Angels
11. Hybrid-In-Humanz
12. Night Breed
13. Savior (Hidden Messages)
14. Electric Forest
15. Mental Masturbation
16. Seemen (Voyagers Of The Oshins)
17. Last Sights (Outro)

EAC extraction logfile from 25. October 2011, 8:24 for CD
Mentol Nomad / Mentallica…And Its Inhabitants

Used drive : TSSTcorpDVD+-RW TS-H653B Adapter: 2 ID: 0
Read mode : Secure with NO C2, accurate stream, disable cache
Read offset correction : 6
Overread into Lead-In and Lead-Out : No

Used output format : Internal WAV Routines
44.100 Hz; 16 Bit; Stereo

Other options :
Fill up missing offset samples with silence : Yes
Delete leading and trailing silent blocks : No
Native Win32 interface for Win NT & 2000


Track 1
Filename C:\FLAC\Mentol Nomad - Mentallica…And Its Inhabitants (2002) [FLAC] {Wordsound}\01 - Begotten Entry To Mentallica (Intro).wav

Pre-gap length 0:00:02.00

Peak level 98.8 %
Track quality 100.0 %
Test CRC 73BCFE9A
Copy CRC 73BCFE9A
Copy OK

Track 2
Filename C:\FLAC\Mentol Nomad - Mentallica…And Its Inhabitants (2002) [FLAC] {Wordsound}\02 - 12 Tribes.wav

Peak level 98.8 %
Track quality 100.0 %
Test CRC 87478A72
Copy CRC 87478A72
Copy OK

Track 3
Filename C:\FLAC\Mentol Nomad - Mentallica…And Its Inhabitants (2002) [FLAC] {Wordsound}\03 - Holy Mountain (Gatherings Of The Trinity).wav

Peak level 98.8 %
Track quality 100.0 %
Test CRC 69070B5E
Copy CRC 69070B5E
Copy OK

Track 4
Filename C:\FLAC\Mentol Nomad - Mentallica…And Its Inhabitants (2002) [FLAC] {Wordsound}\04 - Sexorsizm.wav

Peak level 98.8 %
Track quality 100.0 %
Test CRC EDA78B46
Copy CRC EDA78B46
Copy OK

Track 5
Filename C:\FLAC\Mentol Nomad - Mentallica…And Its Inhabitants (2002) [FLAC] {Wordsound}\05 - Urantia (Hall Of Souls).wav

Pre-gap length 0:00:00.90

Peak level 98.8 %
Track quality 100.0 %
Test CRC E6410D33
Copy CRC E6410D33
Copy OK

Track 6
Filename C:\FLAC\Mentol Nomad - Mentallica…And Its Inhabitants (2002) [FLAC] {Wordsound}\06 - Family Of Flash.wav

Pre-gap length 0:00:00.90

Peak level 98.8 %
Track quality 100.0 %
Test CRC 0FBB117B
Copy CRC 0FBB117B
Copy OK

Track 7
Filename C:\FLAC\Mentol Nomad - Mentallica…And Its Inhabitants (2002) [FLAC] {Wordsound}\07 - 3Rd Vizionz.wav

Peak level 98.8 %
Track quality 99.9 %
Test CRC E7B7B2D0
Copy CRC E7B7B2D0
Copy OK

Track 8
Filename C:\FLAC\Mentol Nomad - Mentallica…And Its Inhabitants (2002) [FLAC] {Wordsound}\08 - Deity.wav

Pre-gap length 0:00:00.90

Peak level 98.8 %
Track quality 100.0 %
Test CRC 9AFE7189
Copy CRC 9AFE7189
Copy OK

Track 9
Filename C:\FLAC\Mentol Nomad - Mentallica…And Its Inhabitants (2002) [FLAC] {Wordsound}\09 - Illstramentol.wav

Peak level 98.8 %
Track quality 100.0 %
Test CRC 049E52BC
Copy CRC 049E52BC
Copy OK

Track 10
Filename C:\FLAC\Mentol Nomad - Mentallica…And Its Inhabitants (2002) [FLAC] {Wordsound}\10 - Fallen Angels.wav

Pre-gap length 0:00:00.90

Peak level 98.8 %
Track quality 100.0 %
Test CRC 5FB3FFD5
Copy CRC 5FB3FFD5
Copy OK

Track 11
Filename C:\FLAC\Mentol Nomad - Mentallica…And Its Inhabitants (2002) [FLAC] {Wordsound}\11 - Hybrid-In-Humanz.wav

Peak level 98.8 %
Track quality 100.0 %
Test CRC C6C328DC
Copy CRC C6C328DC
Copy OK

Track 12
Filename C:\FLAC\Mentol Nomad - Mentallica…And Its Inhabitants (2002) [FLAC] {Wordsound}\12 - Night Breed.wav

Peak level 98.8 %
Track quality 100.0 %
Test CRC 230EE5E8
Copy CRC 230EE5E8
Copy OK

Track 13
Filename C:\FLAC\Mentol Nomad - Mentallica…And Its Inhabitants (2002) [FLAC] {Wordsound}\13 - Savior (Hidden Messages).wav

Peak level 98.8 %
Track quality 100.0 %
Test CRC 48CFD466
Copy CRC 48CFD466
Copy OK

Track 14
Filename C:\FLAC\Mentol Nomad - Mentallica…And Its Inhabitants (2002) [FLAC] {Wordsound}\14 - Electric Forest.wav

Peak level 98.8 %
Track quality 100.0 %
Test CRC EC41269C
Copy CRC EC41269C
Copy OK

Track 15
Filename C:\FLAC\Mentol Nomad - Mentallica…And Its Inhabitants (2002) [FLAC] {Wordsound}\15 - Mental Masturbation.wav

Pre-gap length 0:00:00.90

Peak level 98.8 %
Track quality 100.0 %
Test CRC 4889B996
Copy CRC 4889B996
Copy OK

Track 16
Filename C:\FLAC\Mentol Nomad - Mentallica…And Its Inhabitants (2002) [FLAC] {Wordsound}\16 - Seemen (Voyagers Of The Oshins).wav

Pre-gap length 0:00:00.90

Peak level 98.8 %
Track quality 100.0 %
Test CRC 53643BFB
Copy CRC 53643BFB
Copy OK

Track 17
Filename C:\FLAC\Mentol Nomad - Mentallica…And Its Inhabitants (2002) [FLAC] {Wordsound}\17 - Last Sights (Outro).wav

Peak level 98.8 %
Track quality 100.0 %
Test CRC 2D381008
Copy CRC 2D381008
Copy OK

No errors occured


End of status report


Mentol Nomad - Mentallica...And It's Inhabitants (2002) {Wordsound} **[RE-UP]**

Mentol Nomad - Mentallica...And It's Inhabitants (2002) {Wordsound} **[RE-UP]**