Tags
Language
Tags

KISS - Kiss (1974) [Japanese Ed. 1997]

Posted By: Andi_Deris
KISS - Kiss (1974) [Japanese Ed. 1997]

KISS - Kiss (1974) [Japanese Ed. 1997]
EAC Rip | FLAC: Image+Cue+Log | MP3 CBR 320 kbps | Scans
249 Mb | 82 Mb | 28 Mb | Time: 35:24
Mercury Music Entertainment Co., Ltd./PolyGram K.K. | PHCR-4315
Hard Rock, Heavy Metal, Glam

Kiss is the debut studio album by American rock band KISS, released on February 18, 1974. Much of the material on the album was written by Gene Simmons and Paul Stanley, as members of their pre-Kiss band Wicked Lester. Simmons estimated that the entire process of recording and mixing took three weeks, while co-producer Richie Wise has stated it took just 13 days. The album was re-released in 1997 (along with most of Kiss' earlier albums) in a remastered version. In 2003, Kiss was included in the Spin list of essential glam rock albums.

KISS - Kiss (1974) [Japanese Ed. 1997]




Track Listing

01. Strutter (03:14)
02. Nothin' To Lose (03:27)
03. Firehouse (03:19)
04. Cold Gin (04:23)
05. Let Me Know (03:00)
06. Kissin' Time (03:54)
07. Deuce (03:06)
08. Love Theme From Kiss (02:25)
09. 100,000 Years (03:24)
10. Black Diamond (05:14)

Produced by Kenny Kerner and Richie Wise

The Band

• Paul Stanley - vocals, rhythm guitar
• Ace Frehley - lead guitar
• Gene Simmons - vocals, bass guitar
• Peter Criss - drums, percussion, vocals

*****
• Bruce Foster - piano on "Nothin' to Lose"
• Warren Dewey - fire engine on "Firehouse"

Exact Audio Copy V1.1 from 23. June 2015

EAC extraction logfile from 18. February 2016, 18:33

Kiss / Kiss (PHCR-4315)

Used drive : HL-DT-STDVDRAM GH20NS10 Adapter: 1 ID: 0

Read mode : Secure
Utilize accurate stream : Yes
Defeat audio cache : Yes
Make use of C2 pointers : No

Read offset correction : 667
Overread into Lead-In and Lead-Out : No
Fill up missing offset samples with silence : Yes
Delete leading and trailing silent blocks : No
Null samples used in CRC calculations : Yes
Used interface : Native Win32 interface for Win NT & 2000

Used output format : User Defined Encoder
Selected bitrate : 128 kBit/s
Quality : High
Add ID3 tag : No
Command line compressor : C:\Program Files (x86)\Exact Audio Copy\FLAC\FLAC.EXE
Additional command line options : -V -8 -T "Date=%year%" -T "Genre=%genre%" %source%


TOC of the extracted CD

Track | Start | Length | Start sector | End sector
––––––––––––––––––––––––––––-
1 | 0:00.00 | 3:13.38 | 0 | 14512
2 | 3:13.38 | 3:26.72 | 14513 | 30034
3 | 6:40.35 | 3:18.48 | 30035 | 44932
4 | 9:59.08 | 4:22.52 | 44933 | 64634
5 | 14:21.60 | 2:59.65 | 64635 | 78124
6 | 17:21.50 | 3:53.45 | 78125 | 95644
7 | 21:15.20 | 3:06.03 | 95645 | 109597
8 | 24:21.23 | 2:24.52 | 109598 | 120449
9 | 26:46.00 | 3:23.38 | 120450 | 135712
10 | 30:09.38 | 5:13.52 | 135713 | 159239


Range status and errors

Selected range

Filename F:\ЕАС\fan24\Kiss - Kiss (PHCR-4315).wav

Peak level 100.0 %
Extraction speed 6.9 X
Range quality 100.0 %
Test CRC CF95F457
Copy CRC CF95F457
Copy OK

No errors occurred


AccurateRip summary

Track 1 cannot be verified as accurate (confidence 3) [B551C6C5], AccurateRip returned [98BDDFCF] (AR v2)
Track 2 cannot be verified as accurate (confidence 3) [8B182227], AccurateRip returned [5697C652] (AR v2)
Track 3 cannot be verified as accurate (confidence 3) [C3574AFF], AccurateRip returned [DBCF8C74] (AR v2)
Track 4 cannot be verified as accurate (confidence 3) [9EE020F3], AccurateRip returned [37C0D891] (AR v2)
Track 5 cannot be verified as accurate (confidence 3) [81B8F850], AccurateRip returned [A2D7B5AA] (AR v2)
Track 6 cannot be verified as accurate (confidence 3) [ED6943DF], AccurateRip returned [D85B4417] (AR v2)
Track 7 cannot be verified as accurate (confidence 3) [CA21C64A], AccurateRip returned [71912ECC] (AR v2)
Track 8 cannot be verified as accurate (confidence 3) [A366B31F], AccurateRip returned [67D6E68E] (AR v2)
Track 9 cannot be verified as accurate (confidence 3) [11420D48], AccurateRip returned [F7B07A10] (AR v2)
Track 10 cannot be verified as accurate (confidence 3) [717294F9], AccurateRip returned [1DD68FB8] (AR v2)

No tracks could be verified as accurate
You may have a different pressing from the one(s) in the database

End of status report

–– CUETools DB Plugin V2.1.6

[CTDB TOCID: nBo7uDpHX7Eg3Y_1T973amNjqrU-] found
Submit result: nBo7uDpHX7Eg3Y_1T973amNjqrU- has been confirmed
Track | CTDB Status
1 | (13/13) Accurately ripped
2 | (13/13) Accurately ripped
3 | (13/13) Accurately ripped
4 | (13/13) Accurately ripped
5 | (13/13) Accurately ripped
6 | (13/13) Accurately ripped
7 | (13/13) Accurately ripped
8 | (13/13) Accurately ripped
9 | (13/13) Accurately ripped
10 | (13/13) Accurately ripped


==== Log checksum 60458E03BE7F9D653400DD0501D659DD2A550A19AA6FE355257970C337636840 ====


Many thanks to the original uploader: fan24





Password: pass