Subcategories
Tags
Language
Tags

Jean-Louis Charbonnier - Marin Marais: Pièces de Viole, Troisième Livre (1711) - Deuxième Partie (2006)

Posted By: ArlegZ
Jean-Louis Charbonnier - Marin Marais: Pièces de Viole, Troisième Livre (1711) - Deuxième Partie (2006)

Jean-Louis Charbonnier, Paul Rousseau, Mauricio Buraglia, Pierre Trocellier - Marin Marais: Pièces de Viole: Troisième Livre (1711) - Deuxième Partie (2006)
EAC | FLAC | Image (Cue & Log) ~ 620 Mb | Total time: 71:24+50:49 | Scans included
Classical | Label: Pierre Verany | # PV706011/12 | Recorded: 2004

Le Troisième Livre de Pièces de Viole (1711) « composées par M. Marais, Ordinaire de la musique de la Chambre du Roy » outre le fait qu’elles sont composées pendant les dix années les plus prolifiques de son compositeur, montre parfaitement le style français du début du XVIIIe siècle. Reconnu, il est joué dans toutes les cours d’Europe, où l’on s’imprègne du « goût français ». Si la majorité des morceaux sont issus de la danse, avec des sarabandes, menuets, gigues, allemandes, préludes ou fantaisies, s’y ajoutent des pièces plus originales ne provenant pas de ce domaine : une Fugue gay, le Moulinet, la Saillie du Café, les Contrefaiseurs…
Jean-Louis Charbonnier, spécialiste et passionné du répertoire des XVIIe et XVIIIe siècles, excelle ici en gambiste. Instigateur du projet de l’enregistrement de l’œuvre réunissant la majorité des pièces de viole de Marin Marais, outre le travail de recherche afin de restaurer ce patrimoine, les enregistrements se sont échelonnés entre 1992 et 2004. C’est d’ailleurs suite au tournage du film d’Alain Corneau Tous les matins du monde auquel Jean-Louis Charbonnier et Mauricio Buraglia ont participé qu’a été entreprise cette série d’enregistrement. Ce ne sont pas des morceaux, des rondeaux, ou l’écoute de motifs repris alternant tonalités majeures et mineures, mais la recherche du ressenti et du sensible. La maîtrise des instruments est parfaite, la sobriété au rendez-vous sans pour autant perdre de charme. L’écoute notamment des gigues et préludes fait parfaitement ressortir sonorité, sensation, expressivité. On peut définitivement parler d’Esthétique.

Performer:
Jean-Louis Charbonnier, basse de viole
Paul Rousseau, besse de viole
Mauricio Buragia, théorbe
Pierre Trocelier, clavecin

Track List:
CD1:
01-13. Suite in G minor
14-27. Suite in G major
CD2:
01-11. Suite in C major
12-21. Suite in C minor


Exact Audio Copy V1.3 from 2. September 2016

EAC extraction logfile from 1. November 2019, 14:20

Jean-Louis Charbonnier / Marais - Pièces de Viole - Troisième Livre, Deuxième Partie CD1

Used drive : HL-DT-STBD-RE WH16NS40 Adapter: 1 ID: 0

Read mode : Secure
Utilize accurate stream : Yes
Defeat audio cache : Yes
Make use of C2 pointers : No

Read offset correction : 6
Overread into Lead-In and Lead-Out : No
Fill up missing offset samples with silence : Yes
Delete leading and trailing silent blocks : No
Null samples used in CRC calculations : Yes
Used interface : Native Win32 interface for Win NT & 2000

Used output format : User Defined Encoder
Selected bitrate : 1024 kBit/s
Quality : High
Add ID3 tag : No
Command line compressor : C:\Program Files (x86)\Exact Audio Copy\FLAC\FLAC.EXE
Additional command line options : -6 -V -T "ARTIST=%artist%" -T "TITLE=%title%" -T "ALBUM=%albumtitle%" -T "DATE=%year%" -T "TRACKNUMBER=%tracknr%" -T "GENRE=%genre%" -T "COMMENT=%comment%" -T "BAND=%albuminterpret%" -T "ALBUMARTIST=%albuminterpret%" -T "COMPOSER=%composer%" %haslyrics%–tag-from-file=LYRICS="%lyricsfile%"%haslyrics% -T "DISCNUMBER=%cdnumber%" -T "TOTALDISCS=%totalcds%" -T "TOTALTRACKS=%numtracks%" %hascover%–picture="%coverfile%"%hascover% %source% -o %dest%


TOC of the extracted CD

Track | Start | Length | Start sector | End sector
––––––––––––––––––––––––––––-
1 | 0:00.00 | 2:10.17 | 0 | 9766
2 | 2:10.17 | 2:15.28 | 9767 | 19919
3 | 4:25.45 | 5:28.30 | 19920 | 44549
4 | 9:54.00 | 1:29.45 | 44550 | 51269
5 | 11:23.45 | 3:10.00 | 51270 | 65519
6 | 14:33.45 | 2:24.07 | 65520 | 76326
7 | 16:57.52 | 1:30.45 | 76327 | 83121
8 | 18:28.22 | 4:12.13 | 83122 | 102034
9 | 22:40.35 | 1:17.67 | 102035 | 107876
10 | 23:58.27 | 2:56.00 | 107877 | 121076
11 | 26:54.27 | 3:20.55 | 121077 | 136131
12 | 30:15.07 | 3:32.10 | 136132 | 152041
13 | 33:47.17 | 4:44.05 | 152042 | 173346
14 | 38:31.22 | 2:10.12 | 173347 | 183108
15 | 40:41.34 | 1:16.33 | 183109 | 188841
16 | 41:57.67 | 4:26.23 | 188842 | 208814
17 | 46:24.15 | 2:39.25 | 208815 | 220764
18 | 49:03.40 | 2:13.52 | 220765 | 230791
19 | 51:17.17 | 2:51.45 | 230792 | 243661
20 | 54:08.62 | 1:31.40 | 243662 | 250526
21 | 55:40.27 | 1:11.40 | 250527 | 255891
22 | 56:51.67 | 1:12.70 | 255892 | 261361
23 | 58:04.62 | 0:53.25 | 261362 | 265361
24 | 58:58.12 | 2:00.65 | 265362 | 274426
25 | 60:59.02 | 3:39.53 | 274427 | 290904
26 | 64:38.55 | 2:52.17 | 290905 | 303821
27 | 67:30.72 | 3:53.38 | 303822 | 321334


Range status and errors

Selected range

Filename C:\Users\Grant\Desktop\Jean-Louis Charbonnier - Marais - Pièces de Viole - Troisième Livre, Deuxième Partie CD1.wav

Peak level 100.0 %
Extraction speed 8.1 X
Range quality 99.9 %
Test CRC 26710508
Copy CRC 26710508
Copy OK

No errors occurred


AccurateRip summary

Track 1 accurately ripped (confidence 4) [4C00CBC4] (AR v2)
Track 2 accurately ripped (confidence 4) [3C40160C] (AR v2)
Track 3 accurately ripped (confidence 4) [8CB4E973] (AR v2)
Track 4 accurately ripped (confidence 4) [71896756] (AR v2)
Track 5 accurately ripped (confidence 4) [F611B67E] (AR v2)
Track 6 accurately ripped (confidence 4) [8DCBCDD5] (AR v2)
Track 7 accurately ripped (confidence 4) [8DED4A9B] (AR v2)
Track 8 accurately ripped (confidence 4) [2DB8028C] (AR v2)
Track 9 accurately ripped (confidence 4) [A2F90A17] (AR v2)
Track 10 accurately ripped (confidence 4) [B9B19FE4] (AR v2)
Track 11 accurately ripped (confidence 4) [33FB385F] (AR v2)
Track 12 accurately ripped (confidence 4) [0743EEDE] (AR v2)
Track 13 accurately ripped (confidence 4) [D483A603] (AR v2)
Track 14 accurately ripped (confidence 4) [FDCC66E4] (AR v2)
Track 15 accurately ripped (confidence 4) [F9390D6E] (AR v2)
Track 16 accurately ripped (confidence 4) [B508879B] (AR v2)
Track 17 accurately ripped (confidence 4) [94EAEFCF] (AR v2)
Track 18 accurately ripped (confidence 4) [70BEFCC4] (AR v2)
Track 19 accurately ripped (confidence 4) [60D5982D] (AR v2)
Track 20 accurately ripped (confidence 4) [2838B749] (AR v2)
Track 21 accurately ripped (confidence 4) [85976F7F] (AR v2)
Track 22 accurately ripped (confidence 4) [0E7D610A] (AR v2)
Track 23 accurately ripped (confidence 4) [E7CF3606] (AR v2)
Track 24 accurately ripped (confidence 4) [1776F5EE] (AR v2)
Track 25 accurately ripped (confidence 4) [FD1516AA] (AR v2)
Track 26 accurately ripped (confidence 4) [5232595C] (AR v2)
Track 27 accurately ripped (confidence 4) [5CA332AA] (AR v2)

All tracks accurately ripped

End of status report

–– CUETools DB Plugin V2.1.6

[CTDB TOCID: 1yjqKyLzKH9_37chiJc28ENV2rM-] found
Submit result: 1yjqKyLzKH9_37chiJc28ENV2rM- has been confirmed
Track | CTDB Status
1 | (4/4) Accurately ripped
2 | (4/4) Accurately ripped
3 | (4/4) Accurately ripped
4 | (4/4) Accurately ripped
5 | (4/4) Accurately ripped
6 | (4/4) Accurately ripped
7 | (4/4) Accurately ripped
8 | (4/4) Accurately ripped
9 | (4/4) Accurately ripped
10 | (4/4) Accurately ripped
11 | (4/4) Accurately ripped
12 | (4/4) Accurately ripped
13 | (4/4) Accurately ripped
14 | (4/4) Accurately ripped
15 | (4/4) Accurately ripped
16 | (4/4) Accurately ripped
17 | (4/4) Accurately ripped
18 | (4/4) Accurately ripped
19 | (4/4) Accurately ripped
20 | (4/4) Accurately ripped
21 | (4/4) Accurately ripped
22 | (4/4) Accurately ripped
23 | (4/4) Accurately ripped
24 | (4/4) Accurately ripped
25 | (4/4) Accurately ripped
26 | (4/4) Accurately ripped
27 | (4/4) Accurately ripped


==== Log checksum FC32C2745E47D1D75D452F1302FE05B0DCEDEDB5F216E37E0A02B365A532DD8D ====


Exact Audio Copy V1.3 from 2. September 2016

EAC extraction logfile from 1. November 2019, 14:40

Jean-Louis Charbonnier / Marais - Pièces de Viole - Troisième Livre, Deuxième Partie CD2

Used drive : HL-DT-STBD-RE WH16NS40 Adapter: 1 ID: 0

Read mode : Secure
Utilize accurate stream : Yes
Defeat audio cache : Yes
Make use of C2 pointers : No

Read offset correction : 6
Overread into Lead-In and Lead-Out : No
Fill up missing offset samples with silence : Yes
Delete leading and trailing silent blocks : No
Null samples used in CRC calculations : Yes
Used interface : Native Win32 interface for Win NT & 2000

Used output format : User Defined Encoder
Selected bitrate : 1024 kBit/s
Quality : High
Add ID3 tag : No
Command line compressor : C:\Program Files (x86)\Exact Audio Copy\FLAC\FLAC.EXE
Additional command line options : -6 -V -T "ARTIST=%artist%" -T "TITLE=%title%" -T "ALBUM=%albumtitle%" -T "DATE=%year%" -T "TRACKNUMBER=%tracknr%" -T "GENRE=%genre%" -T "COMMENT=%comment%" -T "BAND=%albuminterpret%" -T "ALBUMARTIST=%albuminterpret%" -T "COMPOSER=%composer%" %haslyrics%–tag-from-file=LYRICS="%lyricsfile%"%haslyrics% -T "DISCNUMBER=%cdnumber%" -T "TOTALDISCS=%totalcds%" -T "TOTALTRACKS=%numtracks%" %hascover%–picture="%coverfile%"%hascover% %source% -o %dest%


TOC of the extracted CD

Track | Start | Length | Start sector | End sector
––––––––––––––––––––––––––––-
1 | 0:00.00 | 1:56.15 | 0 | 8714
2 | 1:56.15 | 1:02.12 | 8715 | 13376
3 | 2:58.27 | 4:57.53 | 13377 | 35704
4 | 7:56.05 | 2:21.05 | 35705 | 46284
5 | 10:17.10 | 2:44.47 | 46285 | 58631
6 | 13:01.57 | 1:38.20 | 58632 | 66001
7 | 14:40.02 | 1:31.70 | 66002 | 72896
8 | 16:11.72 | 3:07.13 | 72897 | 86934
9 | 19:19.10 | 1:23.20 | 86935 | 93179
10 | 20:42.30 | 2:25.62 | 93180 | 104116
11 | 23:08.17 | 4:23.05 | 104117 | 123846
12 | 27:31.22 | 1:57.30 | 123847 | 132651
13 | 29:28.52 | 1:57.13 | 132652 | 141439
14 | 31:25.65 | 3:02.60 | 141440 | 155149
15 | 34:28.50 | 1:32.35 | 155150 | 162084
16 | 36:01.10 | 3:11.40 | 162085 | 176449
17 | 39:12.50 | 1:38.27 | 176450 | 183826
18 | 40:51.02 | 4:16.13 | 183827 | 203039
19 | 45:07.15 | 1:32.40 | 203040 | 209979
20 | 46:39.55 | 3:02.47 | 209980 | 223676
21 | 49:42.27 | 1:06.50 | 223677 | 228676


Range status and errors

Selected range

Filename C:\Users\Grant\Desktop\Jean-Louis Charbonnier - Marais - Pièces de Viole - Troisième Livre, Deuxième Partie CD2.wav

Peak level 87.2 %
Extraction speed 7.3 X
Range quality 100.0 %
Test CRC 36AF08AB
Copy CRC 36AF08AB
Copy OK

No errors occurred


AccurateRip summary

Track 1 accurately ripped (confidence 4) [C1A13B18] (AR v2)
Track 2 accurately ripped (confidence 4) [F46BCDCE] (AR v2)
Track 3 accurately ripped (confidence 4) [6850FEAC] (AR v2)
Track 4 accurately ripped (confidence 4) [308CEA65] (AR v2)
Track 5 accurately ripped (confidence 4) [0675A1F8] (AR v2)
Track 6 accurately ripped (confidence 4) [867CDFC5] (AR v2)
Track 7 accurately ripped (confidence 4) [73A26169] (AR v2)
Track 8 accurately ripped (confidence 4) [CC57F800] (AR v2)
Track 9 accurately ripped (confidence 4) [FCAC1ADE] (AR v2)
Track 10 accurately ripped (confidence 4) [01BFEFAF] (AR v2)
Track 11 accurately ripped (confidence 4) [05E4B01B] (AR v2)
Track 12 accurately ripped (confidence 4) [E058472D] (AR v2)
Track 13 accurately ripped (confidence 4) [53CAA313] (AR v2)
Track 14 accurately ripped (confidence 4) [7D962CA7] (AR v2)
Track 15 accurately ripped (confidence 4) [F9A41BAF] (AR v2)
Track 16 accurately ripped (confidence 4) [F9908E41] (AR v2)
Track 17 accurately ripped (confidence 4) [1DED10EE] (AR v2)
Track 18 accurately ripped (confidence 4) [AF892037] (AR v2)
Track 19 accurately ripped (confidence 4) [08E8D60B] (AR v2)
Track 20 accurately ripped (confidence 4) [52E5E7C9] (AR v2)
Track 21 accurately ripped (confidence 4) [A0ADC23E] (AR v2)

All tracks accurately ripped

End of status report

–– CUETools DB Plugin V2.1.6

[CTDB TOCID: 81NawuLB5lkUwzT9h.OXlR06IbU-] found
Submit result: 81NawuLB5lkUwzT9h.OXlR06IbU- has been confirmed
Track | CTDB Status
1 | (4/4) Accurately ripped
2 | (4/4) Accurately ripped
3 | (4/4) Accurately ripped
4 | (4/4) Accurately ripped
5 | (4/4) Accurately ripped
6 | (4/4) Accurately ripped
7 | (4/4) Accurately ripped
8 | (4/4) Accurately ripped
9 | (4/4) Accurately ripped
10 | (4/4) Accurately ripped
11 | (4/4) Accurately ripped
12 | (4/4) Accurately ripped
13 | (4/4) Accurately ripped
14 | (4/4) Accurately ripped
15 | (4/4) Accurately ripped
16 | (4/4) Accurately ripped
17 | (4/4) Accurately ripped
18 | (4/4) Accurately ripped
19 | (4/4) Accurately ripped
20 | (4/4) Accurately ripped
21 | (4/4) Accurately ripped


==== Log checksum E68209A2A8DE91D6150E557EEEC0543E24DE29373D1D700FEB862FB5700AE097 ====

Jean-Louis Charbonnier - Marin Marais: Pièces de Viole, Troisième Livre (1711) - Deuxième Partie (2006)

Thanks to the original releaser