Subcategories
Tags
Language
Tags

Max Richter - Hostiles (Original Motion Picture Soundtrack) (2018)

Posted By: aasana
Max Richter - Hostiles (Original Motion Picture Soundtrack) (2018)

Max Richter - Hostiles (Original Motion Picture Soundtrack) (2018)
EAC Rip | FLAC (tracks+.cue+.log+.m3u) & booklet | 1:13:25 | 265 MB
Soundtracks | Label: Deutsche Grammophon Classics

Blending classical, electronic, and rock influences into a style he calls "post-classical," composer/programmer Max Richter ignores boundaries in favor of haunting, strangely familiar sounds. This approach made him an in-demand composer for film and other types of performing arts, as well as an acclaimed artist in his own right. Born in Germany in the mid-'60s, Richter and his family moved to the U.K. when he was still a little boy; by his early teens, he was listening to the canon of classical music as well as modern composers including Philip Glass, whose sound was a major influence on Richter. The Clash, the Beatles, and Pink Floyd were also important, along with the early electronic music scene; inspired by artists such as Kraftwerk, Richter built his own analog instruments. He studied composition and piano at Edinburgh University, the Royal Academy of Music, and in Florence with Luciano Berio. Richter then became a founding member of the Piano Circus, a contemporary classical group that played works by Glass, Brian Eno, Steve Reich, Arvo Pärt, and Julia Wolfe, and also incorporated found sounds and video into their performances.

After ten years and five albums, Richter left the group and became more involved in the U.K.'s thriving electronica scene, collaborating with the Future Sound of London on Dead Cities (which features a track named after him) and Isness; he also contributed orchestrations to Roni Size's In the Mode. Richter's own work evolved from the Xenakis-inspired music of his early days into something that included his electronic and pop influences: 2002's Memoryhouse introduced his mix of modern composition, electronica, and field recordings, and the following year's stunning Blue Notebooks – inspired by Kafka's Blue Octavo Notebooks – showed off a more streamlined, and more affecting, version of this sound. Released in 2006, Songs from Before paired Richter's plaintive sound with texts written by Haruki Murakami and delivered by Robert Wyatt. Two years later, 24 Postcards in Full Colour, a collection of elaborate ringtones, was released, and 2008 also saw the release of Richter's score for the film Waltz with Bashir.

Richter worked on several other film scores, including music for Benedek Fliegauf's Womb, Alex Gibney's My Trip to Al Qaeda, and David MacKenzie's The Last Word. Another scoring project was Infra, which Richter was commissioned to compose in 2008. A ballet inspired by T.S. Eliot's classic poem "The Wasteland," Infra premiered that November at London's Royal Opera House. Richter re-recorded and expanded his music for the 2010 album Infra, his fourth release for Fat Cat Records. Throughout the 2010s, Richter alternated between soundtrack work and other projects, including the award-winning scores to Die Fremde, Lore, and Recomposed by Max Richter: Vivaldi - The Four Seasons, the latter an avant-garde reworking of the composer's timeless set of violin concertos. Disconnect, the score to Henry-Alex Rubin's film about the impact of technology on relationships, was released in 2013. His score for Wadjda, which revolved around an 11-year-old girl and was the first feature-length film made by a Saudi Arabian woman (director Haifaa Al-Mansour), arrived that July. Richter issued three more film scores that year, including the music to Ritesh Batra's Lunchbox and Ruairí Robinson's sci-fi excursion The Last Days on Mars.

In 2014, Richter launched an ongoing mentorship program for aspiring young composers. The following year saw the arrival of Sleep, an eight-hour ambient piece scored for piano, strings, electronics, and vocals, which Richter described as a "lullaby for a frenetic world and a manifesto for a slower pace of existence." The piece premiered at a Berlin performance where the audience was given beds instead of seats. Sleep and From Sleep, a one-hour adaptation, were released in September 2015. Richter returned in 2016 with the music for an episode of Black Mirror. It was soon followed by 2017's Three Worlds: Music from Woolf Works, which drew from his score for Wayne McGregor's three-act Royal Ballet production inspired by three of Virginia Woolf's most acclaimed novels. A compilation of Richter's soundtrack work, Out of the Dark Room, also appeared in 2017. A handful of new scores, this time for the films Return to Montauk and Hostiles, and for the television series Taboo, appeared over the next year, as well as a deluxe reissue of his landmark second album, The Blue Notebooks. ~ Heather Phares

Tracklist:
7:24 | 01. Max Richter - The First Scalp
1:50 | 02. Max Richter - A Woman Alone
4:29 | 03. Max Richter - Leaving the Compound
4:11 | 04. Max Richter - Cradle to the Grave
6:05 | 05. Max Richter - Scream at the Sky
4:45 | 06. Max Richter - Camanche Ambush
2:56 | 07. Max Richter - Where We Belong
2:53 | 08. Max Richter - River Crossing
2:43 | 09. Max Richter - A New Introduction
1:48 | 10. Max Richter - Leaving Fort Winslow
3:46 | 11. Ryan Bingham - How Shall a Sparrow Fly
3:57 | 12. Max Richter feat. London Voices - What Did They Die For?
3:22 | 13. Max Richter - The Lord's Rough Ways
2:18 | 14. Max Richter feat. London Voices - Something to Give
3:52 | 15. Max Richter - The Last of Them
2:42 | 16. Max Richter - Appeasing the Chief
2:35 | 17. Max Richter - Yellow Hawk's Warning
7:35 | 18. Max Richter feat. London Voices - Never Goodbye
4:14 | 19. Max Richter - Rosalee Theme

Exact Audio Copy V1.0 beta 4 from 7. December 2014

EAC extraction logfile from 10. March 2018, 0:14

Max Richter / Hostiles (Original Motion Picture Soundtrack)

Used drive : ASUS SDR-08B1-U A Adapter: 1 ID: 0

Read mode : Secure
Utilize accurate stream : Yes
Defeat audio cache : Yes
Make use of C2 pointers : No

Read offset correction : 6
Overread into Lead-In and Lead-Out : No
Fill up missing offset samples with silence : Yes
Delete leading and trailing silent blocks : No
Null samples used in CRC calculations : Yes
Used interface : Native Win32 interface for Win NT & 2000
Gap handling : Appended to previous track

Used output format : User Defined Encoder
Selected bitrate : 1024 kBit/s
Quality : High
Add ID3 tag : No
Command line compressor : D:\Program Files\Exact Audio Copy\FLAC\FLAC.EXE
Additional command line options : -8 -V -T "ARTIST=%artist%" -T "TITLE=%title%" -T "ALBUM=%albumtitle%" -T "DATE=%year%" -T "TRACKNUMBER=%tracknr%" -T "GENRE=%genre%" -T "COMMENT=%comment%" -T "BAND=%albuminterpret%" -T "ALBUMARTIST=%albuminterpret%" -T "COMPOSER=%composer%" %haslyrics%–tag-from-file=LYRICS="%lyricsfile%"%haslyrics% -T "DISCNUMBER=%cdnumber%" -T "TOTALDISCS=%totalcds%" -T "TOTALTRACKS=%numtracks%" %hascover%–picture="%coverfile%"%hascover% %source% -o %dest%


TOC of the extracted CD

Track | Start | Length | Start sector | End sector
––––––––––––––––––––––––––––-
1 | 0:00.00 | 7:24.00 | 0 | 33299
2 | 7:24.00 | 1:50.00 | 33300 | 41549
3 | 9:14.00 | 4:29.04 | 41550 | 61728
4 | 13:43.04 | 4:10.38 | 61729 | 80516
5 | 17:53.42 | 6:04.74 | 80517 | 107890
6 | 23:58.41 | 4:45.00 | 107891 | 129265
7 | 28:43.41 | 2:56.00 | 129266 | 142465
8 | 31:39.41 | 2:53.00 | 142466 | 155440
9 | 34:32.41 | 2:43.37 | 155441 | 167702
10 | 37:16.03 | 1:48.25 | 167703 | 175827
11 | 39:04.28 | 3:46.08 | 175828 | 192785
12 | 42:50.36 | 3:57.37 | 192786 | 210597
13 | 46:47.73 | 3:21.38 | 210598 | 225710
14 | 50:09.36 | 2:18.00 | 225711 | 236060
15 | 52:27.36 | 3:52.37 | 236061 | 253497
16 | 56:19.73 | 2:41.38 | 253498 | 265610
17 | 59:01.36 | 2:35.00 | 265611 | 277235
18 | 61:36.36 | 7:35.15 | 277236 | 311375
19 | 69:11.51 | 4:14.16 | 311376 | 330441


Track 1

Filename E:\barca008\Max Richter - Hostiles (Original Motion Picture Soundtrack)\01 - The First Scalp.wav

Pre-gap length 0:00:02.00

Peak level 77.5 %
Extraction speed 1.4 X
Track quality 100.0 %
Test CRC DAA34D94
Copy CRC DAA34D94
Track not present in AccurateRip database
Copy OK

Track 2

Filename E:\barca008\Max Richter - Hostiles (Original Motion Picture Soundtrack)\02 - A Woman Alone.wav

Peak level 37.2 %
Extraction speed 1.3 X
Track quality 100.0 %
Test CRC 568B3927
Copy CRC 568B3927
Track not present in AccurateRip database
Copy OK

Track 3

Filename E:\barca008\Max Richter - Hostiles (Original Motion Picture Soundtrack)\03 - Leaving the Compound.wav

Peak level 53.9 %
Extraction speed 1.6 X
Track quality 100.0 %
Test CRC 281C1450
Copy CRC 281C1450
Track not present in AccurateRip database
Copy OK

Track 4

Filename E:\barca008\Max Richter - Hostiles (Original Motion Picture Soundtrack)\04 - Cradle to the Grave.wav

Peak level 98.3 %
Extraction speed 1.7 X
Track quality 100.0 %
Test CRC 980C1CCF
Copy CRC 980C1CCF
Track not present in AccurateRip database
Copy OK

Track 5

Filename E:\barca008\Max Richter - Hostiles (Original Motion Picture Soundtrack)\05 - Scream at the Sky.wav

Peak level 98.5 %
Extraction speed 1.9 X
Track quality 100.0 %
Test CRC 614808BD
Copy CRC 614808BD
Track not present in AccurateRip database
Copy OK

Track 6

Filename E:\barca008\Max Richter - Hostiles (Original Motion Picture Soundtrack)\06 - Camanche Ambush.wav

Peak level 99.5 %
Extraction speed 2.0 X
Track quality 100.0 %
Test CRC 67E4988A
Copy CRC 67E4988A
Track not present in AccurateRip database
Copy OK

Track 7

Filename E:\barca008\Max Richter - Hostiles (Original Motion Picture Soundtrack)\07 - Where We Belong.wav

Peak level 98.3 %
Extraction speed 1.9 X
Track quality 100.0 %
Test CRC 93A808B2
Copy CRC 93A808B2
Track not present in AccurateRip database
Copy OK

Track 8

Filename E:\barca008\Max Richter - Hostiles (Original Motion Picture Soundtrack)\08 - River Crossing.wav

Peak level 98.3 %
Extraction speed 1.7 X
Track quality 99.9 %
Test CRC 69694996
Copy CRC 69694996
Track not present in AccurateRip database
Copy OK

Track 9

Filename E:\barca008\Max Richter - Hostiles (Original Motion Picture Soundtrack)\09 - A New Introduction.wav

Peak level 98.3 %
Extraction speed 2.0 X
Track quality 100.0 %
Test CRC 1203C631
Copy CRC 1203C631
Track not present in AccurateRip database
Copy OK

Track 10

Filename E:\barca008\Max Richter - Hostiles (Original Motion Picture Soundtrack)\10 - Leaving Fort Winslow.wav

Peak level 98.2 %
Extraction speed 1.9 X
Track quality 100.0 %
Test CRC 266AD70C
Copy CRC 266AD70C
Track not present in AccurateRip database
Copy OK

Track 11

Filename E:\barca008\Max Richter - Hostiles (Original Motion Picture Soundtrack)\11 - How Shall a Sparrow Fly.wav

Peak level 98.2 %
Extraction speed 2.0 X
Track quality 99.9 %
Test CRC 943CA60F
Copy CRC 943CA60F
Track not present in AccurateRip database
Copy OK

Track 12

Filename E:\barca008\Max Richter - Hostiles (Original Motion Picture Soundtrack)\12 - What Did They Die For.wav

Peak level 98.5 %
Extraction speed 2.3 X
Track quality 100.0 %
Test CRC 4C274EF6
Copy CRC 4C274EF6
Track not present in AccurateRip database
Copy OK

Track 13

Filename E:\barca008\Max Richter - Hostiles (Original Motion Picture Soundtrack)\13 - The Lord's Rough Ways.wav

Peak level 62.6 %
Extraction speed 2.0 X
Track quality 99.9 %
Test CRC 8F16AC1C
Copy CRC 8F16AC1C
Track not present in AccurateRip database
Copy OK

Track 14

Filename E:\barca008\Max Richter - Hostiles (Original Motion Picture Soundtrack)\14 - Something to Give.wav

Peak level 98.5 %
Extraction speed 2.2 X
Track quality 100.0 %
Test CRC E0CEA25B
Copy CRC E0CEA25B
Track not present in AccurateRip database
Copy OK

Track 15

Filename E:\barca008\Max Richter - Hostiles (Original Motion Picture Soundtrack)\15 - The Last of Them.wav

Peak level 98.5 %
Extraction speed 2.5 X
Track quality 100.0 %
Test CRC 2D6814F3
Copy CRC 2D6814F3
Track not present in AccurateRip database
Copy OK

Track 16

Filename E:\barca008\Max Richter - Hostiles (Original Motion Picture Soundtrack)\16 - Appeasing the Chief.wav

Peak level 98.3 %
Extraction speed 2.4 X
Track quality 100.0 %
Test CRC CF13D5F1
Copy CRC CF13D5F1
Track not present in AccurateRip database
Copy OK

Track 17

Filename E:\barca008\Max Richter - Hostiles (Original Motion Picture Soundtrack)\17 - Yellow Hawk's Warning.wav

Peak level 97.2 %
Extraction speed 2.0 X
Track quality 99.9 %
Test CRC 095FE985
Copy CRC 095FE985
Track not present in AccurateRip database
Copy OK

Track 18

Filename E:\barca008\Max Richter - Hostiles (Original Motion Picture Soundtrack)\18 - Never Goodbye.wav

Peak level 98.5 %
Extraction speed 2.8 X
Track quality 100.0 %
Test CRC 7BAA0955
Copy CRC 7BAA0955
Track not present in AccurateRip database
Copy OK

Track 19

Filename E:\barca008\Max Richter - Hostiles (Original Motion Picture Soundtrack)\19 - Rosalee Theme.wav

Peak level 49.6 %
Extraction speed 2.8 X
Track quality 100.0 %
Test CRC 93CA89D3
Copy CRC 93CA89D3
Track not present in AccurateRip database
Copy OK


None of the tracks are present in the AccurateRip database

No errors occurred

End of status report

–– CUETools DB Plugin V2.1.4

[CTDB TOCID: XWsk_rw1ukXszO.gWdYuUR_KkXU-] found
Submit result: XWsk_rw1ukXszO.gWdYuUR_KkXU- has been confirmed
Track | CTDB Status
1 | (1/1) Accurately ripped
2 | (1/1) Accurately ripped
3 | (1/1) Accurately ripped
4 | (1/1) Accurately ripped
5 | (1/1) Accurately ripped
6 | (1/1) Accurately ripped
7 | (1/1) Accurately ripped
8 | (1/1) Accurately ripped
9 | (1/1) Accurately ripped
10 | (1/1) Accurately ripped
11 | (1/1) Accurately ripped
12 | (1/1) Accurately ripped
13 | (1/1) Accurately ripped
14 | (1/1) Accurately ripped
15 | (1/1) Accurately ripped
16 | (1/1) Accurately ripped
17 | (1/1) Accurately ripped
18 | (1/1) Accurately ripped
19 | (1/1) Accurately ripped


==== Log checksum 65144F2CB7E8AE730CE6BA68D081E4AF669C907C2AD3E726389D25EAB8FDB19D ====