Tags
Language
Tags
December 2022
Su Mo Tu We Th Fr Sa
27 28 29 30 1 2 3
4 5 6 7 8 9 10
11 12 13 14 15 16 17
18 19 20 21 22 23 24
25 26 27 28 29 30 31

Herbert Von Karajan - Karajan and His Soloists, Vol. 2 1969-1984 (2014) (10 CDs Box Set)

Posted By: murena
Herbert Von Karajan - Karajan and His Soloists, Vol. 2 1969-1984 (2014) (10 CDs Box Set)

Herbert Von Karajan - Karajan and His Soloists, Vol. 2 1969-1984 (2014) (10 CDs Box Set)
EAC Rip | FLAC (Tracks+.cue, log) | 10 CDs, 10:52:33 min | Covers included | 2,75 Gb
Genre: Classical / Label: Warner

The Karajan Official Remastered Edition comprises 13 box sets containing official remasterings of the finest recordings the Austrian conductor made for EMI between 1946 and 1984, which are now a jewel of the Warner Classics catalog. Karajan's extraordinary capacity for elevating his soloists on a 'magic carpet' of orchestral sound is demonstrated in this 10 CD collection of concertos; among the instrumentalists are such figures as Sviatoslav Richter, David Oistrakh, Mstislav Rostropovich, Anne-Sophie Mutter, Alexis Weissenberg, Maurice André and James Galway.

For many, Herbert von Karajan (1908-1989):hailed early in his career as 'Das Wunder Karajan' (The Karajan Miracle) and known in the early 1960s as 'the music director of Europe'- remains the ultimate embodiment of the maestro. The release of the Karajan Official Remastered Edition over the first half of 2014 marks the 25th anniversary of the conductor's death in July 1989 at the age of 81.

Karajan was closely associated with EMI for the majority of his recording career (specifically from 1946 to 1960 and then again from 1969 to 1984). EMI's legendary producer Walter Legge sought him out in Vienna just after World War II and the long relationship that ensued embraced recordings with the Vienna Philharmonic, the Philharmonia (the orchestra founded by Legge), the Berlin Philharmonic (of which Karajan became 'conductor for life' in 1955), La Scala, Milan, and the Orchestre de Paris.

Herbert Von Karajan - Karajan and His Soloists, Vol. 2 1969-1984 (2014) (10 CDs Box Set)

CDs:
CD 1: Vivaldi: The Four Seasons; Massenet: Méditation
CD 2: Beethoven: Piano Concertos 1 & 2
CD 3: Beethoven: Piano Concertos 3 & 5 'Emperor'
CD 4: Beethoven: Piano Concerto No. 4, Triple Concerto
CD 5: Mozart: Sinfonia concertante K297b; Brahms: Violin Concerto
CD 6: Mozart: Clarinet Concerto, Oboe Concerto, Bassoon Concerto
CD 7: Mozart: Concerto for Flute and Harp, Flute Concerto No.1
CD 8: Tchaikovsky: Piano Concerto No.1; Rachmaninov: Piano Concerto No.3
CD 9: Franck: Variations symphoniques; Richard Strauss: Don Quixote
CD 10: Telemann, Hummel, L. Mozart, Vivaldi: Trumpet Concertos

CD 1
1. The Four Seasons: Violin Concerto in E Major, Op. 8 No. 1 RV 269, 'Spring' : I. Allegro
2. The Four Seasons: Violin Concerto in E Major, Op. 8 No. 1 RV 269, 'Spring': II. Largo
3. The Four Seasons: Violin Concerto in E Major, Op. 8 No. 1 RV 269, 'Spring': III. Allegro
4. Le quattro stagioni [The Four Seasons], Violin Concerto in G minor Op.8 No.2 RV315, 'Summer': I. All
5. Le quattro stagioni [The Four Seasons], Violin Concerto in G minor Op.8 No.2 RV315, 'Summer': II. Ad
6. Le quattro stagioni [The Four Seasons], Violin Concerto in G minor Op.8 No.2 RV315, 'Summer': III. L
7. The Four Seasons: Violin Concerto in E Major, Op. 8 No. 3 RV 269, 'Autumn': I. Allegro
8. The Four Seasons: Violin Concerto in E Major, Op. 8 No. 3 RV 269, 'Autumn': II. Adagio
9. The Four Seasons: Violin Concerto in E Major, Op. 8 No. 3 RV 269, 'Autumn': III. Allegro
10. Le quattro stagioni [The Four Seasons]: Violin Concerto in E major Op.8 No.4 RV269, 'Winter': I. All
11. Le quattro stagioni [The Four Seasons]: Violin Concerto in E major Op.8 No.4 RV269, 'Winter': II. La
12. Le quattro stagioni [The Four Seasons]: Violin Concerto in E major Op.8 No.4 RV269, 'Winter': III. A
13. Thaïs: Méditation

CD 2
14. Piano Concerto No.1 in C Op.15 (cadenzas: Beethoven): I. Allegro con brio
15. Piano Concerto No.1 in C Op.15 (cadenzas: Beethoven): II. Largo
16. Piano Concerto No.1 in C Op.15 (cadenzas: Beethoven): III. Rondo: Allegro scherzando
17. Piano Concerto No.2 in B flat Op.19 (cadenzas: Beethoven): I. Allegro con brio
18. Piano Concerto No.2 in B flat Op.19 (cadenzas: Beethoven): II. Adagio
19. Piano Concerto No. 2 in B-Flat Major, Op. 19 (cadenzas: Beethoven): III. Rondo - molto allegro

CD 3
20. Beethoven: Piano Concerto No. 3 in C minor Op.37 (cadenzas: Beethoven): I. Allegro con brio
21. Beethoven: Piano Concerto No. 3 in C minor Op.37 (cadenzas: Beethoven): II. Largo
22. Piano Concerto No. 3 in C Minor, Op. 37 (cadenzas: Beethoven): III. Rondo - Allegro
23. Piano Concerto No. 5 in E flat Op.73 "Emperor": I. Allegro
24. Piano Concerto No. 5 in E flat Op.73 "Emperor": II. Adagio un poco mosso -
25. Piano Concerto No. 5 in E flat Op.73 "Emperor": III. Rondo - Allegro

CD 34
26. Piano Concerto No. 4 in G Op.58: I. Allegro moderato
27. Piano Concerto No. 4 in G Op.58: II. Andante con moto -
28. Piano Concerto No. 4 in G Major, Op. 58: III. Rondo - Vivace
29. Triple Concerto for Violin, Cello & Piano in C Op.56: I. Allegro
30. Triple Concerto for Violin, Cello & Piano in C Op.56: II. Largo
31. Triple Concerto for Violin, Cello & Piano in C Major, Op. 56: III. Rondo alla Polacca

CD 5
32. Concerto for Flute and Harp in C K299: I. Allegro
33. Concerto for Flute and Harp in C K299: II. Andantino
34. Concerto for Flute and Harp in C Major, K. 299: III. Rondeau: Allegro (cadenza: Karl Hermann Pillney
35. Flute Concerto No.1 in G K313: I. Allegro maestoso (cadenza: Hugo Ruf)
36. Flute Concerto No.1 in G K313: II. Adagio non troppo (cadenza: Burghard Schaeffer)
37. Flute Concerto No.1 in G K313: III. Rondo: Tempo di menuetto (cadenza: Andreas Blau)
38. Bassoon Concerto in B Flat K191: I. Allegro
39. Bassoon Concerto in B Flat K191: II. Andante ma adagio
40. Bassoon Concerto in B Flat K191: III. Rondo: Tempo di menuetto

CD 6
41. Clarinet Concerto in A K622: I. Allegro
42. Clarinet Concerto A Major, K. 622: II. Adagio
43. Clarinet Concerto in A K622: III. Rondo: Allegro
44. Oboe Concerto in C K314: I. Allegro aperto
45. Oboe Concerto in C K314: II. Adagio non troppo
46. Oboe Concerto in C K314: III. Rondo - Allegretto

CD 7
47. Sinfonia Concertante in E Flat K297b: I. Allegro
48. Sinfonia Concertante in E Flat K297b: II. Adagio
49. Sinfonia Concertante in E Flat K297b: III. Andantino con variazioni
50. Violin Concerto in D Op.77 (Cadenzas: Kreisler): I. Allegro non troppo
51. Violin Concerto in D Major, Op. 77 (Cadenzas: Kreisler): II. Adagio
52. Violin Concerto in D Op.77 (Cadenzas: Kreisler): III. Allegro giocoso, ma non troppo vivace

CD 8
53. Piano Concerto No. 1 in B flat minor Op. 23: I. Allegro non troppo e molto
54. Piano Concerto No. 1 in B flat minor Op. 23: II. Andantino semplice - Prestissimo - Tempo
55. Piano Concerto No. 1 in B-Flat Minor, Op. 23: III. Allegro con fuoco
56. Piano Concerto No. 2 in C Minor, Op. 18: I. Moderato
57. Piano Concerto No. 2 in C minor Op. 18: II. Adagio sostenuto
58. Piano Concerto No. 2 in C minor Op. 18: III. Allegro scherzando

CD 9
59. Symphonic Variations
60. Don Quixote Op. 35: Introduction
61. Don Quixote Op. 35: Thema: Don Quixote und Sancho Panza
62. Don Quixote Op. 35: Variation I - Das Abenteuer mit dem Windmühlen
63. Don Quixote Op. 35: Variation II - Die Schlacht mit der Hammelherde
64. Don Quixote Op. 35: Variation III - Gespräch zwischen Ritter und Knapp
65. Don Quixote Op. 35: Variation IV - Das Abenteuer mit den Pilgern -
66. Don Quixote Op. 35: Variation V - Das Ritters Nachtwache -
67. Don Quixote Op. 35: Variation VI - Der Begegnung mi Dulcinea -
68. Don Quixote Op. 35: Variation VII - Der Ritt durch die Luft -
69. Don Quixote Op. 35: Variation VIII: Die Fahrt auf dem verzauberten Nachen [Barcarolle] -
70. Don Quixote Op. 35: Variation IX - Der Kampf gegen die beiden Zauberer
71. Don Quixote Op. 35: Variation X - Don Quixotes Niederlage -
72. Don Quixote, Op. 35: Finale - Don Quixotes Tod

CD 10
73. Trumpet Concerto in D (ed. Grebe): I. Adagio
74. Trumpet Concerto in D Major, TWV 51: D7 (ed. Grebe): II. Allegro
75. Trumpet Concerto in D (ed. Grebe): III. Grave
76. Trumpet Concerto in D (ed. Grebe): IV. Allegro
77. Trumpet Concerto in E flat (ed. Oubradous): I. Allegro con spirito
78. Trumpet Concerto in E flat (ed. Oubradous): II. Andante
79. Trumpet Concerto in E-Flat Major (ed. Oubradous): III. Rondo: Allegro molto
80. Trumpet Concerto in D (ed. Seiffert): I. Adagio
81. Trumpet Concerto in D (ed. Seiffert): II. Allegro moderato
82. Trumpet Concerto in A flat (ed. Thilde): I. Allegro
83. Trumpet Concerto in A flat (ed. Thilde): II. Sarabande
84. Trumpet Concerto in A flat (ed. Thilde): III. Presto


CD1
Exact Audio Copy V1.3 from 2. September 2016

EAC extraction logfile from 13. May 2017, 19:58

Karajan / And His Soloists 1969-1984 1

Used drive : PLEXTOR CD-R PREMIUM2 Adapter: 1 ID: 0

Read mode : Secure
Utilize accurate stream : Yes
Defeat audio cache : Yes
Make use of C2 pointers : No

Read offset correction : 30
Overread into Lead-In and Lead-Out : Yes
Fill up missing offset samples with silence : Yes
Delete leading and trailing silent blocks : No
Null samples used in CRC calculations : Yes
Used interface : Native Win32 interface for Win NT & 2000
Gap handling : Appended to previous track

Used output format : User Defined Encoder
Selected bitrate : 1024 kBit/s
Quality : High
Add ID3 tag : No
Command line compressor : C:\Program Files (x86)\Exact Audio Copy\Flac\flac.exe
Additional command line options : -8 -V -T "ARTIST=%artist%" -T "TITLE=%title%" -T "ALBUM=%albumtitle%" -T "DATE=%year%" -T "TRACKNUMBER=%tracknr%" -T "GENRE=%genre%" -T "PERFORMER=%albuminterpret%" -T "COMPOSER=%composer%" %haslyrics%–tag-from-file=LYRICS="%lyricsfile%"%haslyrics% -T "ALBUMARTIST=%albumartist%" -T "DISCNUMBER=%cdnumber%" -T "TOTALDISCS=%totalcds%" -T "TOTALTRACKS=%numtracks%" -T "COMMENT=%comment%" %source% -o %dest%


TOC of the extracted CD

Track | Start | Length | Start sector | End sector
––––––––––––––––––––––––––––-
1 | 0:00.00 | 3:20.67 | 0 | 15066
2 | 3:20.67 | 3:06.20 | 15067 | 29036
3 | 6:27.12 | 4:38.52 | 29037 | 49938
4 | 11:05.64 | 5:34.22 | 49939 | 75010
5 | 16:40.11 | 2:01.62 | 75011 | 84147
6 | 18:41.73 | 2:50.60 | 84148 | 96957
7 | 21:32.58 | 4:54.21 | 96958 | 119028
8 | 26:27.04 | 2:48.41 | 119029 | 131669
9 | 29:15.45 | 3:24.32 | 131670 | 147001
10 | 32:40.02 | 3:28.40 | 147002 | 162641
11 | 36:08.42 | 2:00.57 | 162642 | 171698
12 | 38:09.24 | 3:20.10 | 171699 | 186708
13 | 41:29.34 | 6:48.52 | 186709 | 217360


Track 1

Filename D:\Music\Ripping\And His Soloists 1969-1984 1\01 Track01.wav

Pre-gap length 0:00:02.00

Peak level 89.7 %
Extraction speed 4.2 X
Track quality 100.0 %
Test CRC 51C23F83
Copy CRC 51C23F83
Accurately ripped (confidence 10) [87590AB8] (AR v2)
Copy OK

Track 2

Filename D:\Music\Ripping\And His Soloists 1969-1984 1\02 Track02.wav

Peak level 17.7 %
Extraction speed 3.6 X
Track quality 99.9 %
Test CRC 9569500F
Copy CRC 9569500F
Accurately ripped (confidence 10) [B08E0044] (AR v2)
Copy OK

Track 3

Filename D:\Music\Ripping\And His Soloists 1969-1984 1\03 Track03.wav

Peak level 65.7 %
Extraction speed 4.6 X
Track quality 100.0 %
Test CRC 2D84E459
Copy CRC 2D84E459
Accurately ripped (confidence 10) [0CC6E8B8] (AR v2)
Copy OK

Track 4

Filename D:\Music\Ripping\And His Soloists 1969-1984 1\04 Track04.wav

Peak level 75.2 %
Extraction speed 4.2 X
Track quality 99.9 %
Test CRC B75726AA
Copy CRC B75726AA
Accurately ripped (confidence 10) [2128484E] (AR v2)
Copy OK

Track 5

Filename D:\Music\Ripping\And His Soloists 1969-1984 1\05 Track05.wav

Peak level 44.9 %
Extraction speed 3.2 X
Track quality 99.9 %
Test CRC 40FC4042
Copy CRC 40FC4042
Accurately ripped (confidence 10) [B0BF2F2F] (AR v2)
Copy OK

Track 6

Filename D:\Music\Ripping\And His Soloists 1969-1984 1\06 Track06.wav

Peak level 96.5 %
Extraction speed 4.4 X
Track quality 100.0 %
Test CRC 7DDB8ADC
Copy CRC 7DDB8ADC
Accurately ripped (confidence 10) [E6A0FFC4] (AR v2)
Copy OK

Track 7

Filename D:\Music\Ripping\And His Soloists 1969-1984 1\07 Track07.wav

Peak level 79.1 %
Extraction speed 4.7 X
Track quality 100.0 %
Test CRC 7CEDABBB
Copy CRC 7CEDABBB
Accurately ripped (confidence 10) [9B71BCA2] (AR v2)
Copy OK

Track 8

Filename D:\Music\Ripping\And His Soloists 1969-1984 1\08 Track08.wav

Peak level 9.5 %
Extraction speed 4.4 X
Track quality 100.0 %
Test CRC 72D5AE53
Copy CRC 72D5AE53
Accurately ripped (confidence 10) [16B012A7] (AR v2)
Copy OK

Track 9

Filename D:\Music\Ripping\And His Soloists 1969-1984 1\09 Track09.wav

Peak level 96.0 %
Extraction speed 4.5 X
Track quality 100.0 %
Test CRC 90A6CF23
Copy CRC 90A6CF23
Accurately ripped (confidence 10) [F585397A] (AR v2)
Copy OK

Track 10

Filename D:\Music\Ripping\And His Soloists 1969-1984 1\10 Track10.wav

Peak level 74.2 %
Extraction speed 4.6 X
Track quality 100.0 %
Test CRC 6EF0EEAF
Copy CRC 6EF0EEAF
Accurately ripped (confidence 10) [EA88ED0F] (AR v2)
Copy OK

Track 11

Filename D:\Music\Ripping\And His Soloists 1969-1984 1\11 Track11.wav

Peak level 15.5 %
Extraction speed 4.0 X
Track quality 100.0 %
Test CRC C31A99CB
Copy CRC C31A99CB
Accurately ripped (confidence 10) [72EE550B] (AR v2)
Copy OK

Track 12

Filename D:\Music\Ripping\And His Soloists 1969-1984 1\12 Track12.wav

Peak level 82.4 %
Extraction speed 4.5 X
Track quality 100.0 %
Test CRC 5CBECFF2
Copy CRC 5CBECFF2
Accurately ripped (confidence 10) [2A144A05] (AR v2)
Copy OK

Track 13

Filename D:\Music\Ripping\And His Soloists 1969-1984 1\13 Track13.wav

Pre-gap length 0:00:08.73

Peak level 65.0 %
Extraction speed 5.0 X
Track quality 99.9 %
Test CRC 1A0B0E20
Copy CRC 1A0B0E20
Accurately ripped (confidence 10) [6B850986] (AR v2)
Copy OK


All tracks accurately ripped

No errors occurred

End of status report

–– CUETools DB Plugin V2.1.6

[CTDB TOCID: Au9ja.5ufjXHfdnlA2RwuxO4zFA-] found
Submit result: Au9ja.5ufjXHfdnlA2RwuxO4zFA- has been confirmed
Track | CTDB Status
1 | (40/40) Accurately ripped
2 | (40/40) Accurately ripped
3 | (40/40) Accurately ripped
4 | (40/40) Accurately ripped
5 | (40/40) Accurately ripped
6 | (40/40) Accurately ripped
7 | (40/40) Accurately ripped
8 | (40/40) Accurately ripped
9 | (40/40) Accurately ripped
10 | (40/40) Accurately ripped
11 | (40/40) Accurately ripped
12 | (40/40) Accurately ripped
13 | (40/40) Accurately ripped


==== Log checksum CB8458DF1185B8D97D0BC16CA146B4C013624F78B30CD97C9CED25C662D85B51 ====


CD2
Exact Audio Copy V1.3 from 2. September 2016

EAC extraction logfile from 13. May 2017, 20:33

Karajan / And His Soloists 1969-1984 2

Used drive : PLEXTOR CD-R PREMIUM2 Adapter: 1 ID: 0

Read mode : Secure
Utilize accurate stream : Yes
Defeat audio cache : Yes
Make use of C2 pointers : No

Read offset correction : 30
Overread into Lead-In and Lead-Out : Yes
Fill up missing offset samples with silence : Yes
Delete leading and trailing silent blocks : No
Null samples used in CRC calculations : Yes
Used interface : Native Win32 interface for Win NT & 2000
Gap handling : Appended to previous track

Used output format : User Defined Encoder
Selected bitrate : 1024 kBit/s
Quality : High
Add ID3 tag : No
Command line compressor : C:\Program Files (x86)\Exact Audio Copy\Flac\flac.exe
Additional command line options : -8 -V -T "ARTIST=%artist%" -T "TITLE=%title%" -T "ALBUM=%albumtitle%" -T "DATE=%year%" -T "TRACKNUMBER=%tracknr%" -T "GENRE=%genre%" -T "PERFORMER=%albuminterpret%" -T "COMPOSER=%composer%" %haslyrics%–tag-from-file=LYRICS="%lyricsfile%"%haslyrics% -T "ALBUMARTIST=%albumartist%" -T "DISCNUMBER=%cdnumber%" -T "TOTALDISCS=%totalcds%" -T "TOTALTRACKS=%numtracks%" -T "COMMENT=%comment%" %source% -o %dest%


TOC of the extracted CD

Track | Start | Length | Start sector | End sector
––––––––––––––––––––––––––––-
1 | 0:00.00 | 15:57.59 | 0 | 71833
2 | 15:57.59 | 13:26.32 | 71834 | 132315
3 | 29:24.16 | 9:32.68 | 132316 | 175283
4 | 38:57.09 | 14:35.00 | 175284 | 240908
5 | 53:32.09 | 10:31.30 | 240909 | 288263
6 | 64:03.39 | 5:50.48 | 288264 | 314561


Track 1

Filename D:\Music\Ripping\And His Soloists 1969-1984 2\01 Piano Concerto No. 1 in C major, op. 15. I. Allegro con brio.wav

Pre-gap length 0:00:02.00

Peak level 68.7 %
Extraction speed 4.2 X
Track quality 99.9 %
Test CRC 7E9A4D3A
Copy CRC 7E9A4D3A
Accurately ripped (confidence 10) [03453F5C] (AR v2)
Copy OK

Track 2

Filename D:\Music\Ripping\And His Soloists 1969-1984 2\02 Piano Concerto No. 1 in C major, op. 15. II. Largo.wav

Peak level 62.1 %
Extraction speed 4.9 X
Track quality 99.9 %
Test CRC 2BF2D396
Copy CRC 2BF2D396
Accurately ripped (confidence 10) [FA03DE8A] (AR v2)
Copy OK

Track 3

Filename D:\Music\Ripping\And His Soloists 1969-1984 2\03 Piano Concerto No. 1 in C major, op. 15. III. Rondo (Allegro scherzando).wav

Peak level 70.2 %
Extraction speed 4.9 X
Track quality 100.0 %
Test CRC 83D657B4
Copy CRC 83D657B4
Accurately ripped (confidence 10) [FF586743] (AR v2)
Copy OK

Track 4

Filename D:\Music\Ripping\And His Soloists 1969-1984 2\04 Piano Concerto No. 2 in B flat major, op. 19. I. Allegro con brio.wav

Peak level 64.6 %
Extraction speed 5.0 X
Track quality 100.0 %
Test CRC 165FB268
Copy CRC 165FB268
Accurately ripped (confidence 10) [76DB285B] (AR v2)
Copy OK

Track 5

Filename D:\Music\Ripping\And His Soloists 1969-1984 2\05 Piano Concerto No. 2 in B flat major, op. 19. II. Adagio.wav

Peak level 62.1 %
Extraction speed 5.0 X
Track quality 100.0 %
Test CRC B8BFFAA4
Copy CRC B8BFFAA4
Accurately ripped (confidence 10) [C0F3F1C6] (AR v2)
Copy OK

Track 6

Filename D:\Music\Ripping\And His Soloists 1969-1984 2\06 Piano Concerto No. 2 in B flat major, op. 19. III. Rondo (Molto allegro).wav

Peak level 59.1 %
Extraction speed 5.1 X
Track quality 100.0 %
Test CRC 28D8A05E
Copy CRC 28D8A05E
Accurately ripped (confidence 10) [2F68C41F] (AR v2)
Copy OK


All tracks accurately ripped

No errors occurred

End of status report

–– CUETools DB Plugin V2.1.6

[CTDB TOCID: w28XVcV6itlpH9auBrA3umS5aA0-] found
Submit result: w28XVcV6itlpH9auBrA3umS5aA0- has been confirmed
Track | CTDB Status
1 | (40/40) Accurately ripped
2 | (40/40) Accurately ripped
3 | (40/40) Accurately ripped
4 | (40/40) Accurately ripped
5 | (40/40) Accurately ripped
6 | (40/40) Accurately ripped


==== Log checksum 95DC1185E339C87BC3EA30373DC71F2324A8B1619EE02D62E4814D5397F67449 ====


CD3
Exact Audio Copy V1.3 from 2. September 2016

EAC extraction logfile from 13. May 2017, 21:08

Karajan / And His Soloists 1969-1984 3

Used drive : PLEXTOR CD-R PREMIUM2 Adapter: 1 ID: 0

Read mode : Secure
Utilize accurate stream : Yes
Defeat audio cache : Yes
Make use of C2 pointers : No

Read offset correction : 30
Overread into Lead-In and Lead-Out : Yes
Fill up missing offset samples with silence : Yes
Delete leading and trailing silent blocks : No
Null samples used in CRC calculations : Yes
Used interface : Native Win32 interface for Win NT & 2000
Gap handling : Appended to previous track

Used output format : User Defined Encoder
Selected bitrate : 1024 kBit/s
Quality : High
Add ID3 tag : No
Command line compressor : C:\Program Files (x86)\Exact Audio Copy\Flac\flac.exe
Additional command line options : -8 -V -T "ARTIST=%artist%" -T "TITLE=%title%" -T "ALBUM=%albumtitle%" -T "DATE=%year%" -T "TRACKNUMBER=%tracknr%" -T "GENRE=%genre%" -T "PERFORMER=%albuminterpret%" -T "COMPOSER=%composer%" %haslyrics%–tag-from-file=LYRICS="%lyricsfile%"%haslyrics% -T "ALBUMARTIST=%albumartist%" -T "DISCNUMBER=%cdnumber%" -T "TOTALDISCS=%totalcds%" -T "TOTALTRACKS=%numtracks%" -T "COMMENT=%comment%" %source% -o %dest%


TOC of the extracted CD

Track | Start | Length | Start sector | End sector
––––––––––––––––––––––––––––-
1 | 0:00.00 | 16:52.56 | 0 | 75955
2 | 16:52.56 | 9:50.67 | 75956 | 120272
3 | 26:43.48 | 9:19.17 | 120273 | 162214
4 | 36:02.65 | 20:39.60 | 162215 | 255199
5 | 56:42.50 | 9:22.54 | 255200 | 297403
6 | 66:05.29 | 10:08.66 | 297404 | 343069


Track 1

Filename D:\Music\Ripping\And His Soloists 1969-1984 3\01 Piano Concerto no. 3 in C minor, op. 37- I. Allegro con brio.wav

Pre-gap length 0:00:02.00

Peak level 74.8 %
Extraction speed 3.8 X
Track quality 100.0 %
Test CRC DF90D861
Copy CRC DF90D861
Accurately ripped (confidence 10) [1F0B66B5] (AR v2)
Copy OK

Track 2

Filename D:\Music\Ripping\And His Soloists 1969-1984 3\02 Piano Concerto no. 3 in C minor, op. 37- II. Largo.wav

Peak level 53.8 %
Extraction speed 5.0 X
Track quality 100.0 %
Test CRC B76F1CE6
Copy CRC B76F1CE6
Accurately ripped (confidence 10) [5AEEA128] (AR v2)
Copy OK

Track 3

Filename D:\Music\Ripping\And His Soloists 1969-1984 3\03 Piano Concerto no. 3 in C minor, op. 37- III. Rondo- Allegro.wav

Peak level 73.7 %
Extraction speed 5.0 X
Track quality 100.0 %
Test CRC 2E6EF332
Copy CRC 2E6EF332
Accurately ripped (confidence 10) [12EBF7D5] (AR v2)
Copy OK

Track 4

Filename D:\Music\Ripping\And His Soloists 1969-1984 3\04 Piano Concerto no. 5 in E-flat, op. 73 “Emperor”- I. Allegro.wav

Peak level 54.2 %
Extraction speed 5.2 X
Track quality 100.0 %
Test CRC 3D0E23C6
Copy CRC 3D0E23C6
Accurately ripped (confidence 10) [BB4DA3F8] (AR v2)
Copy OK

Track 5

Filename D:\Music\Ripping\And His Soloists 1969-1984 3\05 Piano Concerto no. 5 in E-flat, op. 73 “Emperor”- II. Adagio un poco mosso.wav

Peak level 23.3 %
Extraction speed 4.7 X
Track quality 99.9 %
Test CRC DDF12CCE
Copy CRC DDF12CCE
Accurately ripped (confidence 10) [5CB5C565] (AR v2)
Copy OK

Track 6

Filename D:\Music\Ripping\And His Soloists 1969-1984 3\06 Piano Concerto no. 5 in E-flat, op. 73 “Emperor”- III. Rondo- Allegro.wav

Peak level 52.5 %
Extraction speed 5.1 X
Track quality 99.9 %
Test CRC CB115F72
Copy CRC CB115F72
Accurately ripped (confidence 10) [3E750B56] (AR v2)
Copy OK


All tracks accurately ripped

No errors occurred

End of status report

–– CUETools DB Plugin V2.1.6

[CTDB TOCID: NKSyacktij7cv4RPZJpkLrof5lQ-] found
Submit result: NKSyacktij7cv4RPZJpkLrof5lQ- has been confirmed
Track | CTDB Status
1 | (40/40) Accurately ripped
2 | (40/40) Accurately ripped
3 | (40/40) Accurately ripped
4 | (40/40) Accurately ripped
5 | (40/40) Accurately ripped
6 | (40/40) Accurately ripped


==== Log checksum AE73954A42D2084BC72119B0A8D1DFEAEF24398518713679A6F947D34C20F8D0 ====


CD4
Exact Audio Copy V1.3 from 2. September 2016

EAC extraction logfile from 13. May 2017, 21:42

Karajan / And His Soloists 1969-1984 4

Used drive : PLEXTOR CD-R PREMIUM2 Adapter: 1 ID: 0

Read mode : Secure
Utilize accurate stream : Yes
Defeat audio cache : Yes
Make use of C2 pointers : No

Read offset correction : 30
Overread into Lead-In and Lead-Out : Yes
Fill up missing offset samples with silence : Yes
Delete leading and trailing silent blocks : No
Null samples used in CRC calculations : Yes
Used interface : Native Win32 interface for Win NT & 2000
Gap handling : Appended to previous track

Used output format : User Defined Encoder
Selected bitrate : 1024 kBit/s
Quality : High
Add ID3 tag : No
Command line compressor : C:\Program Files (x86)\Exact Audio Copy\Flac\flac.exe
Additional command line options : -8 -V -T "ARTIST=%artist%" -T "TITLE=%title%" -T "ALBUM=%albumtitle%" -T "DATE=%year%" -T "TRACKNUMBER=%tracknr%" -T "GENRE=%genre%" -T "PERFORMER=%albuminterpret%" -T "COMPOSER=%composer%" %haslyrics%–tag-from-file=LYRICS="%lyricsfile%"%haslyrics% -T "ALBUMARTIST=%albumartist%" -T "DISCNUMBER=%cdnumber%" -T "TOTALDISCS=%totalcds%" -T "TOTALTRACKS=%numtracks%" -T "COMMENT=%comment%" %source% -o %dest%


TOC of the extracted CD

Track | Start | Length | Start sector | End sector
––––––––––––––––––––––––––––-
1 | 0:00.00 | 18:25.43 | 0 | 82917
2 | 18:25.43 | 5:08.50 | 82918 | 106067
3 | 23:34.18 | 9:55.14 | 106068 | 150706
4 | 33:29.32 | 17:55.07 | 150707 | 231338
5 | 51:24.39 | 5:35.60 | 231339 | 256523
6 | 57:00.24 | 12:55.24 | 256524 | 314672


Track 1

Filename D:\Music\Ripping\And His Soloists 1969-1984 4\01 Piano Concerto no. 4 in G, op. 58- I. Allegro maestoso.wav

Pre-gap length 0:00:02.00

Peak level 52.3 %
Extraction speed 4.9 X
Track quality 99.9 %
Test CRC 8E96456E
Copy CRC 8E96456E
Cannot be verified as accurate (confidence 9) [0487F5C7], AccurateRip returned [41CED775] (AR v2)
Copy OK

Track 2

Filename D:\Music\Ripping\And His Soloists 1969-1984 4\02 Piano Concerto no. 4 in G, op. 58- II. Andante con moto.wav

Peak level 39.5 %
Extraction speed 4.8 X
Track quality 100.0 %
Test CRC FA76BD2F
Copy CRC FA76BD2F
Cannot be verified as accurate (confidence 9) [6A9C42E6], AccurateRip returned [C3DC9BD3] (AR v2)
Copy OK

Track 3

Filename D:\Music\Ripping\And His Soloists 1969-1984 4\03 Piano Concerto no. 4 in G, op. 58- III. Rondo- Vivace.wav

Peak level 54.3 %
Extraction speed 5.0 X
Track quality 100.0 %
Test CRC 85C72662
Copy CRC 85C72662
Cannot be verified as accurate (confidence 9) [BE5C3625], AccurateRip returned [2B7DCE89] (AR v2)
Copy OK

Track 4

Filename D:\Music\Ripping\And His Soloists 1969-1984 4\04 Triple Concerto in C, op. 56- I. Allegro.wav

Pre-gap length 0:00:11.50

Peak level 84.1 %
Extraction speed 5.2 X
Track quality 100.0 %
Test CRC DA84FFFB
Copy CRC DA84FFFB
Cannot be verified as accurate (confidence 9) [4E62E2C0], AccurateRip returned [F272067E] (AR v2)
Copy OK

Track 5

Filename D:\Music\Ripping\And His Soloists 1969-1984 4\05 Triple Concerto in C, op. 56- II. Largo.wav

Peak level 48.1 %
Extraction speed 4.8 X
Track quality 100.0 %
Test CRC CC742E47
Copy CRC CC742E47
Cannot be verified as accurate (confidence 9) [F08EFB36], AccurateRip returned [66B025AF] (AR v2)
Copy OK

Track 6

Filename D:\Music\Ripping\And His Soloists 1969-1984 4\06 Triple Concerto in C, op. 56- III. Rondo alla Polacca.wav

Peak level 90.6 %
Extraction speed 4.6 X
Track quality 99.9 %
Test CRC BAC4A380
Copy CRC BAC4A380
Cannot be verified as accurate (confidence 9) [AAF75CCD], AccurateRip returned [9FDA2746] (AR v2)
Copy OK


No tracks could be verified as accurate
You may have a different pressing from the one(s) in the database

No errors occurred

End of status report

–– CUETools DB Plugin V2.1.6

[CTDB TOCID: 5iyvUUIvgNh3oiE.m_RLJfQNCSs-] found
Submit result: 5iyvUUIvgNh3oiE.m_RLJfQNCSs- has been confirmed
Track | CTDB Status
1 | (40/40) Accurately ripped
2 | (40/40) Accurately ripped
3 | (40/40) Accurately ripped
4 | (40/40) Accurately ripped
5 | (40/40) Accurately ripped
6 | (40/40) Accurately ripped


==== Log checksum AAD7050411728433BDD1AAD1948CA0DE8B0EF472846490C6885FD066B70ADA30 ====


CD5
Exact Audio Copy V1.3 from 2. September 2016

EAC extraction logfile from 13. May 2017, 22:24

Karajan / And His Soloists 1969-1984 5

Used drive : PLEXTOR CD-R PREMIUM2 Adapter: 1 ID: 0

Read mode : Secure
Utilize accurate stream : Yes
Defeat audio cache : Yes
Make use of C2 pointers : No

Read offset correction : 30
Overread into Lead-In and Lead-Out : Yes
Fill up missing offset samples with silence : Yes
Delete leading and trailing silent blocks : No
Null samples used in CRC calculations : Yes
Used interface : Native Win32 interface for Win NT & 2000
Gap handling : Appended to previous track

Used output format : User Defined Encoder
Selected bitrate : 1024 kBit/s
Quality : High
Add ID3 tag : No
Command line compressor : C:\Program Files (x86)\Exact Audio Copy\Flac\flac.exe
Additional command line options : -8 -V -T "ARTIST=%artist%" -T "TITLE=%title%" -T "ALBUM=%albumtitle%" -T "DATE=%year%" -T "TRACKNUMBER=%tracknr%" -T "GENRE=%genre%" -T "PERFORMER=%albuminterpret%" -T "COMPOSER=%composer%" %haslyrics%–tag-from-file=LYRICS="%lyricsfile%"%haslyrics% -T "ALBUMARTIST=%albumartist%" -T "DISCNUMBER=%cdnumber%" -T "TOTALDISCS=%totalcds%" -T "TOTALTRACKS=%numtracks%" -T "COMMENT=%comment%" %source% -o %dest%


TOC of the extracted CD

Track | Start | Length | Start sector | End sector
––––––––––––––––––––––––––––-
1 | 0:00.00 | 11:23.42 | 0 | 51266
2 | 11:23.42 | 8:21.19 | 51267 | 88860
3 | 19:44.61 | 9:46.31 | 88861 | 132841
4 | 29:31.17 | 10:19.67 | 132842 | 179333
5 | 39:51.09 | 9:36.66 | 179334 | 222599
6 | 49:28.00 | 8:14.23 | 222600 | 259672
7 | 57:42.23 | 7:47.23 | 259673 | 294720
8 | 65:29.46 | 8:27.26 | 294721 | 332771
9 | 73:56.72 | 4:41.19 | 332772 | 353865


Track 1

Filename D:\Music\Ripping\And His Soloists 1969-1984 5\01 001 Allegro.wav

Pre-gap length 0:00:02.00

Peak level 69.9 %
Extraction speed 4.6 X
Track quality 99.9 %
Test CRC 52CBFAFD
Copy CRC 52CBFAFD
Accurately ripped (confidence 11) [B652DE1D] (AR v2)
Copy OK

Track 2

Filename D:\Music\Ripping\And His Soloists 1969-1984 5\02 002 Andantino.wav

Peak level 39.6 %
Extraction speed 4.9 X
Track quality 100.0 %
Test CRC F7F00CE1
Copy CRC F7F00CE1
Accurately ripped (confidence 10) [7FFDC333] (AR v2)
Copy OK

Track 3

Filename D:\Music\Ripping\And His Soloists 1969-1984 5\03 003 Rondeau- Allegro- Cadenza- Karl Hermann Pillney.wav

Peak level 63.6 %
Extraction speed 5.0 X
Track quality 100.0 %
Test CRC 5C4D70B7
Copy CRC 5C4D70B7
Accurately ripped (confidence 10) [483C6B65] (AR v2)
Copy OK

Track 4

Filename D:\Music\Ripping\And His Soloists 1969-1984 5\04 001 Allegro maestoso- Cadenza- Hugo Ruf.wav

Pre-gap length 0:00:04.09

Peak level 65.2 %
Extraction speed 5.0 X
Track quality 100.0 %
Test CRC DE38AE5F
Copy CRC DE38AE5F
Accurately ripped (confidence 10) [8BC8CC7A] (AR v2)
Copy OK

Track 5

Filename D:\Music\Ripping\And His Soloists 1969-1984 5\05 002 Adagio non troppo- Cadenza- Burghard Schaeffer.wav

Peak level 44.8 %
Extraction speed 5.0 X
Track quality 100.0 %
Test CRC 2F10FC3E
Copy CRC 2F10FC3E
Accurately ripped (confidence 11) [1931CECC] (AR v2)
Copy OK

Track 6

Filename D:\Music\Ripping\And His Soloists 1969-1984 5\06 003 Rondo- Tempo di menuetto- Cadenza- Andreas Blau.wav

Peak level 70.7 %
Extraction speed 4.6 X
Track quality 99.9 %
Test CRC AB63A9BB
Copy CRC AB63A9BB
Accurately ripped (confidence 11) [02EAA4CE] (AR v2)
Copy OK

Track 7

Filename D:\Music\Ripping\And His Soloists 1969-1984 5\07 001 Allegro.wav

Pre-gap length 0:00:03.96

Peak level 71.2 %
Extraction speed 5.0 X
Track quality 100.0 %
Test CRC C69B9733
Copy CRC C69B9733
Accurately ripped (confidence 10) [C324323C] (AR v2)
Copy OK

Track 8

Filename D:\Music\Ripping\And His Soloists 1969-1984 5\08 002 Andante ma adagio.wav

Peak level 54.8 %
Extraction speed 5.0 X
Track quality 100.0 %
Test CRC BB449F92
Copy CRC BB449F92
Accurately ripped (confidence 10) [FC8DC101] (AR v2)
Copy OK

Track 9

Filename D:\Music\Ripping\And His Soloists 1969-1984 5\09 003 Rondo- Tempo di menuetto.wav

Peak level 71.6 %
Extraction speed 1.3 X
Track quality 99.7 %
Test CRC 1049FF57
Copy CRC 1049FF57
Accurately ripped (confidence 10) [9D05923F] (AR v2)
Copy OK


All tracks accurately ripped

No errors occurred

End of status report

–– CUETools DB Plugin V2.1.6

[CTDB TOCID: TuSNpDD5U0EH9o.RX1PS6Fl0Fdg-] found
Submit result: TuSNpDD5U0EH9o.RX1PS6Fl0Fdg- has been confirmed
Track | CTDB Status
1 | (38/38) Accurately ripped
2 | (38/38) Accurately ripped
3 | (38/38) Accurately ripped
4 | (38/38) Accurately ripped
5 | (38/38) Accurately ripped
6 | (37/38) Accurately ripped
7 | (38/38) Accurately ripped
8 | (38/38) Accurately ripped
9 | (38/38) Accurately ripped


==== Log checksum 3B99878672529A545987E8A9D95C44ED07A26774731374E80F48C390D2C3BDA8 ====


CD6
Exact Audio Copy V1.3 from 2. September 2016

EAC extraction logfile from 13. May 2017, 22:48

Karajan / And His Soloists 1969-1984 6

Used drive : PLEXTOR CD-R PREMIUM2 Adapter: 1 ID: 0

Read mode : Secure
Utilize accurate stream : Yes
Defeat audio cache : Yes
Make use of C2 pointers : No

Read offset correction : 30
Overread into Lead-In and Lead-Out : Yes
Fill up missing offset samples with silence : Yes
Delete leading and trailing silent blocks : No
Null samples used in CRC calculations : Yes
Used interface : Native Win32 interface for Win NT & 2000
Gap handling : Appended to previous track

Used output format : User Defined Encoder
Selected bitrate : 1024 kBit/s
Quality : High
Add ID3 tag : No
Command line compressor : C:\Program Files (x86)\Exact Audio Copy\Flac\flac.exe
Additional command line options : -8 -V -T "ARTIST=%artist%" -T "TITLE=%title%" -T "ALBUM=%albumtitle%" -T "DATE=%year%" -T "TRACKNUMBER=%tracknr%" -T "GENRE=%genre%" -T "PERFORMER=%albuminterpret%" -T "COMPOSER=%composer%" %haslyrics%–tag-from-file=LYRICS="%lyricsfile%"%haslyrics% -T "ALBUMARTIST=%albumartist%" -T "DISCNUMBER=%cdnumber%" -T "TOTALDISCS=%totalcds%" -T "TOTALTRACKS=%numtracks%" -T "COMMENT=%comment%" %source% -o %dest%


TOC of the extracted CD

Track | Start | Length | Start sector | End sector
––––––––––––––––––––––––––––-
1 | 0:00.00 | 13:10.25 | 0 | 59274
2 | 13:10.25 | 7:39.20 | 59275 | 93719
3 | 20:49.45 | 9:12.32 | 93720 | 135151
4 | 30:02.02 | 7:28.15 | 135152 | 168766
5 | 37:30.17 | 7:24.05 | 168767 | 202071
6 | 44:54.22 | 5:30.54 | 202072 | 226875


Track 1

Filename D:\Music\Ripping\And His Soloists 1969-1984 6\01 001 Allegro.wav

Pre-gap length 0:00:02.00

Peak level 69.3 %
Extraction speed 4.9 X
Track quality 100.0 %
Test CRC 6A4221B8
Copy CRC 6A4221B8
Accurately ripped (confidence 9) [A21AA4BB] (AR v2)
Copy OK

Track 2

Filename D:\Music\Ripping\And His Soloists 1969-1984 6\02 002 Adagio.wav

Peak level 50.5 %
Extraction speed 4.9 X
Track quality 100.0 %
Test CRC 1E40BB15
Copy CRC 1E40BB15
Accurately ripped (confidence 9) [B71B636F] (AR v2)
Copy OK

Track 3

Filename D:\Music\Ripping\And His Soloists 1969-1984 6\03 003 Rondo- Allegro.wav

Peak level 78.7 %
Extraction speed 4.6 X
Track quality 99.9 %
Test CRC E5DA5140
Copy CRC E5DA5140
Accurately ripped (confidence 10) [CF62EC62] (AR v2)
Copy OK

Track 4

Filename D:\Music\Ripping\And His Soloists 1969-1984 6\04 001 Allegro aperto.wav

Pre-gap length 0:00:03.53

Peak level 62.4 %
Extraction speed 4.5 X
Track quality 99.9 %
Test CRC C9A02577
Copy CRC C9A02577
Accurately ripped (confidence 11) [074E6DCC] (AR v2)
Copy OK

Track 5

Filename D:\Music\Ripping\And His Soloists 1969-1984 6\05 002 Adagio non troppo.wav

Peak level 57.1 %
Extraction speed 4.9 X
Track quality 100.0 %
Test CRC E193AF86
Copy CRC E193AF86
Accurately ripped (confidence 11) [C67500AA] (AR v2)
Copy OK

Track 6

Filename D:\Music\Ripping\And His Soloists 1969-1984 6\06 003 Rondo- Allegretto.wav

Peak level 70.6 %
Extraction speed 5.2 X
Track quality 100.0 %
Test CRC 85674737
Copy CRC 85674737
Accurately ripped (confidence 11) [2DC4965F] (AR v2)
Copy OK


All tracks accurately ripped

No errors occurred

End of status report

–– CUETools DB Plugin V2.1.6

[CTDB TOCID: gV9lx3C5ZLgHwUvDz3CzecVFkxg-] found
Submit result: gV9lx3C5ZLgHwUvDz3CzecVFkxg- has been confirmed
Track | CTDB Status
1 | (37/37) Accurately ripped
2 | (37/37) Accurately ripped
3 | (37/37) Accurately ripped
4 | (37/37) Accurately ripped
5 | (37/37) Accurately ripped
6 | (37/37) Accurately ripped


==== Log checksum 01C57536F7A77C9D6EE3B9F5D58BD457A5D609A971BD3BACCF0F8C0D38BA2B5A ====


CD7
Exact Audio Copy V1.3 from 2. September 2016

EAC extraction logfile from 14. May 2017, 5:36

Karajan / And His Soloists 1969-1984 7

Used drive : PLEXTOR CD-R PREMIUM2 Adapter: 1 ID: 0

Read mode : Secure
Utilize accurate stream : Yes
Defeat audio cache : Yes
Make use of C2 pointers : No

Read offset correction : 30
Overread into Lead-In and Lead-Out : Yes
Fill up missing offset samples with silence : Yes
Delete leading and trailing silent blocks : No
Null samples used in CRC calculations : Yes
Used interface : Native Win32 interface for Win NT & 2000
Gap handling : Appended to previous track

Used output format : User Defined Encoder
Selected bitrate : 1024 kBit/s
Quality : High
Add ID3 tag : No
Command line compressor : C:\Program Files (x86)\Exact Audio Copy\Flac\flac.exe
Additional command line options : -8 -V -T "ARTIST=%artist%" -T "TITLE=%title%" -T "ALBUM=%albumtitle%" -T "DATE=%year%" -T "TRACKNUMBER=%tracknr%" -T "GENRE=%genre%" -T "PERFORMER=%albuminterpret%" -T "COMPOSER=%composer%" %haslyrics%–tag-from-file=LYRICS="%lyricsfile%"%haslyrics% -T "ALBUMARTIST=%albumartist%" -T "DISCNUMBER=%cdnumber%" -T "TOTALDISCS=%totalcds%" -T "TOTALTRACKS=%numtracks%" -T "COMMENT=%comment%" %source% -o %dest%


TOC of the extracted CD

Track | Start | Length | Start sector | End sector
––––––––––––––––––––––––––––-
1 | 0:00.00 | 14:07.61 | 0 | 63585
2 | 14:07.61 | 9:33.32 | 63586 | 106592
3 | 23:41.18 | 9:32.47 | 106593 | 149539
4 | 33:13.65 | 23:22.08 | 149540 | 254697
5 | 56:35.73 | 9:48.68 | 254698 | 298865
6 | 66:24.66 | 8:32.55 | 298866 | 337320


Track 1

Filename D:\Music\Ripping\And His Soloists 1969-1984 7\01 001 Allegro.wav

Pre-gap length 0:00:02.00

Peak level 70.9 %
Extraction speed 5.0 X
Track quality 100.0 %
Test CRC AEAE3A6A
Copy CRC AEAE3A6A
Accurately ripped (confidence 11) [8FE91989] (AR v2)
Copy OK

Track 2

Filename D:\Music\Ripping\And His Soloists 1969-1984 7\02 002 Adagio.wav

Peak level 35.0 %
Extraction speed 5.0 X
Track quality 100.0 %
Test CRC 8FAA4FB1
Copy CRC 8FAA4FB1
Accurately ripped (confidence 11) [02A76AAA] (AR v2)
Copy OK

Track 3

Filename D:\Music\Ripping\And His Soloists 1969-1984 7\03 003 Andantino con variationi.wav

Peak level 91.2 %
Extraction speed 5.0 X
Track quality 100.0 %
Test CRC ED3104B7
Copy CRC ED3104B7
Accurately ripped (confidence 11) [4E30E512] (AR v2)
Copy OK

Track 4

Filename D:\Music\Ripping\And His Soloists 1969-1984 7\04 001 Allegro non troppo- Cadenza- Tempo 1.wav

Pre-gap length 0:00:06.66

Peak level 95.5 %
Extraction speed 5.2 X
Track quality 100.0 %
Test CRC FCFE1EEE
Copy CRC FCFE1EEE
Accurately ripped (confidence 11) [D040B6BB] (AR v2)
Copy OK

Track 5

Filename D:\Music\Ripping\And His Soloists 1969-1984 7\05 002 Adagio.wav

Peak level 62.4 %
Extraction speed 5.0 X
Track quality 100.0 %
Test CRC 7535E938
Copy CRC 7535E938
Accurately ripped (confidence 11) [26CB3AC8] (AR v2)
Copy OK

Track 6

Filename D:\Music\Ripping\And His Soloists 1969-1984 7\06 003 Allegro giocoso, ma non troppo- Vivace- Cadenza- Poco più presto.wav

Peak level 91.2 %
Extraction speed 5.1 X
Track quality 100.0 %
Test CRC 9D8ADD07
Copy CRC 9D8ADD07
Accurately ripped (confidence 10) [8EAA65C1] (AR v2)
Copy OK


All tracks accurately ripped

No errors occurred

End of status report

–– CUETools DB Plugin V2.1.6

[CTDB TOCID: ARjLyhO.Bu_.XrPz2yWDmdWTMfk-] found
Submit result: ARjLyhO.Bu_.XrPz2yWDmdWTMfk- has been confirmed
Track | CTDB Status
1 | (36/37) Accurately ripped
2 | (37/37) Accurately ripped
3 | (37/37) Accurately ripped
4 | (37/37) Accurately ripped
5 | (37/37) Accurately ripped
6 | (37/37) Accurately ripped


==== Log checksum 486FBCDA5285DB814D425E2F56D8CC7511D3FC18F31EE302259453D7883BD079 ====


CD8
Exact Audio Copy V1.3 from 2. September 2016

EAC extraction logfile from 14. May 2017, 6:18

Karajan / And His Soloists 1969-1984 8

Used drive : PLEXTOR CD-R PREMIUM2 Adapter: 1 ID: 0

Read mode : Secure
Utilize accurate stream : Yes
Defeat audio cache : Yes
Make use of C2 pointers : No

Read offset correction : 30
Overread into Lead-In and Lead-Out : Yes
Fill up missing offset samples with silence : Yes
Delete leading and trailing silent blocks : No
Null samples used in CRC calculations : Yes
Used interface : Native Win32 interface for Win NT & 2000
Gap handling : Appended to previous track

Used output format : User Defined Encoder
Selected bitrate : 1024 kBit/s
Quality : High
Add ID3 tag : No
Command line compressor : C:\Program Files (x86)\Exact Audio Copy\Flac\flac.exe
Additional command line options : -8 -V -T "ARTIST=%artist%" -T "TITLE=%title%" -T "ALBUM=%albumtitle%" -T "DATE=%year%" -T "TRACKNUMBER=%tracknr%" -T "GENRE=%genre%" -T "PERFORMER=%albuminterpret%" -T "COMPOSER=%composer%" %haslyrics%–tag-from-file=LYRICS="%lyricsfile%"%haslyrics% -T "ALBUMARTIST=%albumartist%" -T "DISCNUMBER=%cdnumber%" -T "TOTALDISCS=%totalcds%" -T "TOTALTRACKS=%numtracks%" -T "COMMENT=%comment%" %source% -o %dest%


TOC of the extracted CD

Track | Start | Length | Start sector | End sector
––––––––––––––––––––––––––––-
1 | 0:00.00 | 23:21.20 | 0 | 105094
2 | 23:21.20 | 8:49.20 | 105095 | 144789
3 | 32:10.40 | 7:41.23 | 144790 | 179387
4 | 39:51.63 | 11:58.38 | 179388 | 233275
5 | 51:50.26 | 14:29.11 | 233276 | 298461
6 | 66:19.37 | 11:49.43 | 298462 | 351679


Track 1

Filename D:\Music\Ripping\And His Soloists 1969-1984 8\01 Piano Concerto no. 1, op. 23- I. Allegro non troppo e molto maestoso - Allegro con spirito.wav

Pre-gap length 0:00:02.00

Peak level 99.1 %
Extraction speed 5.1 X
Track quality 100.0 %
Test CRC CC72E7CC
Copy CRC CC72E7CC
Cannot be verified as accurate (confidence 10) [6ED00F71], AccurateRip returned [FA70B85E] (AR v2)
Copy OK

Track 2

Filename D:\Music\Ripping\And His Soloists 1969-1984 8\02 Piano Concerto no. 1, op. 23- II. Andante semplice - Prestissimo - Tempo I.wav

Peak level 94.8 %
Extraction speed 5.0 X
Track quality 100.0 %
Test CRC F5DDBC36
Copy CRC F5DDBC36
Cannot be verified as accurate (confidence 10) [2F447869], AccurateRip returned [15AEF073] (AR v2)
Copy OK

Track 3

Filename D:\Music\Ripping\And His Soloists 1969-1984 8\03 Piano Concerto no. 1, op. 23- III. Allegro con fuoco.wav

Peak level 98.9 %
Extraction speed 4.9 X
Track quality 100.0 %
Test CRC D61A7D68
Copy CRC D61A7D68
Cannot be verified as accurate (confidence 10) [189BBAC3], AccurateRip returned [C0E9EEA8] (AR v2)
Copy OK

Track 4

Filename D:\Music\Ripping\And His Soloists 1969-1984 8\04 Piano Concerto no. 2, op. 18- I. Moderato.wav

Pre-gap length 0:00:06.96

Peak level 95.6 %
Extraction speed 5.1 X
Track quality 100.0 %
Test CRC 09A69912
Copy CRC 09A69912
Cannot be verified as accurate (confidence 10) [313E50EB], AccurateRip returned [871C1F70] (AR v2)
Copy OK

Track 5

Filename D:\Music\Ripping\And His Soloists 1969-1984 8\05 Piano Concerto no. 2, op. 18- II. Adagio sostenuto.wav

Peak level 95.2 %
Extraction speed 4.9 X
Track quality 99.9 %
Test CRC 6FAE2498
Copy CRC 6FAE2498
Cannot be verified as accurate (confidence 10) [F49480B8], AccurateRip returned [3BFE6336] (AR v2)
Copy OK

Track 6

Filename D:\Music\Ripping\And His Soloists 1969-1984 8\06 Piano Concerto no. 2, op. 18- III. Allegro scherzando.wav

Peak level 97.4 %
Extraction speed 5.3 X
Track quality 100.0 %
Test CRC E5563F22
Copy CRC E5563F22
Cannot be verified as accurate (confidence 10) [C61AF7F8], AccurateRip returned [1B237645] (AR v2)
Copy OK


No tracks could be verified as accurate
You may have a different pressing from the one(s) in the database

No errors occurred

End of status report

–– CUETools DB Plugin V2.1.6

[CTDB TOCID: yI7hqk8M0ek3_oLZSnYaN2PajPo-] found
Submit result: yI7hqk8M0ek3_oLZSnYaN2PajPo- has been confirmed
Track | CTDB Status
1 | (40/40) Accurately ripped
2 | (40/40) Accurately ripped
3 | (40/40) Accurately ripped
4 | (40/40) Accurately ripped
5 | (40/40) Accurately ripped
6 | (39/40) Accurately ripped


==== Log checksum 3D227BE4820A9CDCF31F92B0EF2FE20BEBCED115AEFC2047B3D1014B5BA364DE ====


CD9
Exact Audio Copy V1.3 from 2. September 2016

EAC extraction logfile from 14. May 2017, 7:01

Karajan / And His Soloists 1969-1984 9

Used drive : PLEXTOR CD-R PREMIUM2 Adapter: 1 ID: 0

Read mode : Secure
Utilize accurate stream : Yes
Defeat audio cache : Yes
Make use of C2 pointers : No

Read offset correction : 30
Overread into Lead-In and Lead-Out : Yes
Fill up missing offset samples with silence : Yes
Delete leading and trailing silent blocks : No
Null samples used in CRC calculations : Yes
Used interface : Native Win32 interface for Win NT & 2000
Gap handling : Appended to previous track

Used output format : User Defined Encoder
Selected bitrate : 1024 kBit/s
Quality : High
Add ID3 tag : No
Command line compressor : C:\Program Files (x86)\Exact Audio Copy\Flac\flac.exe
Additional command line options : -8 -V -T "ARTIST=%artist%" -T "TITLE=%title%" -T "ALBUM=%albumtitle%" -T "DATE=%year%" -T "TRACKNUMBER=%tracknr%" -T "GENRE=%genre%" -T "PERFORMER=%albuminterpret%" -T "COMPOSER=%composer%" %haslyrics%–tag-from-file=LYRICS="%lyricsfile%"%haslyrics% -T "ALBUMARTIST=%albumartist%" -T "DISCNUMBER=%cdnumber%" -T "TOTALDISCS=%totalcds%" -T "TOTALTRACKS=%numtracks%" -T "COMMENT=%comment%" %source% -o %dest%


TOC of the extracted CD

Track | Start | Length | Start sector | End sector
––––––––––––––––––––––––––––-
1 | 0:00.00 | 15:49.67 | 0 | 71241
2 | 15:49.67 | 6:23.71 | 71242 | 100037
3 | 22:13.63 | 2:19.59 | 100038 | 110521
4 | 24:33.47 | 2:39.73 | 110522 | 122519
5 | 27:13.45 | 1:44.18 | 122520 | 130337
6 | 28:57.63 | 8:36.53 | 130338 | 169090
7 | 37:34.41 | 1:57.24 | 169091 | 177889
8 | 39:31.65 | 4:10.57 | 177890 | 196696
9 | 43:42.47 | 1:14.36 | 196697 | 202282
10 | 44:57.08 | 1:15.58 | 202283 | 207965
11 | 46:12.66 | 1:51.35 | 207966 | 216325
12 | 48:04.26 | 1:12.36 | 216326 | 221761
13 | 49:16.62 | 4:41.47 | 221762 | 242883
14 | 53:58.34 | 5:43.65 | 242884 | 268673


Track 1

Filename D:\Music\Ripping\And His Soloists 1969-1984 9\01 Sym Var for Pno and Orch.wav

Pre-gap length 0:00:02.00

Peak level 95.8 %
Extraction speed 5.0 X
Track quality 100.0 %
Test CRC 667DCEAC
Copy CRC 667DCEAC
Accurately ripped (confidence 11) [C42C80CE] (AR v2)
Copy OK

Track 2

Filename D:\Music\Ripping\And His Soloists 1969-1984 9\02 001 Introduction.wav

Pre-gap length 0:00:04.64

Peak level 97.3 %
Extraction speed 4.9 X
Track quality 100.0 %
Test CRC C24CAD8B
Copy CRC C24CAD8B
Accurately ripped (confidence 11) [F810C46A] (AR v2)
Copy OK

Track 3

Filename D:\Music\Ripping\And His Soloists 1969-1984 9\03 002 Thema.wav

Peak level 26.0 %
Extraction speed 3.4 X
Track quality 99.9 %
Test CRC 91AC2AA9
Copy CRC 91AC2AA9
Accurately ripped (confidence 11) [A334E80F] (AR v2)
Copy OK

Track 4

Filename D:\Music\Ripping\And His Soloists 1969-1984 9\04 003 Variation 1.wav

Peak level 95.5 %
Extraction speed 3.5 X
Track quality 99.9 %
Test CRC 9828BBD7
Copy CRC 9828BBD7
Accurately ripped (confidence 11) [ED3CA122] (AR v2)
Copy OK

Track 5

Filename D:\Music\Ripping\And His Soloists 1969-1984 9\05 004 Variation 2.wav

Peak level 97.5 %
Extraction speed 3.0 X
Track quality 99.8 %
Test CRC 59824F2E
Copy CRC 59824F2E
Accurately ripped (confidence 11) [8B96A460] (AR v2)
Copy OK

Track 6

Filename D:\Music\Ripping\And His Soloists 1969-1984 9\06 005 Variation 3.wav

Peak level 97.3 %
Extraction speed 5.0 X
Track quality 100.0 %
Test CRC 8B4A4D39
Copy CRC 8B4A4D39
Accurately ripped (confidence 11) [37E5CE4A] (AR v2)
Copy OK

Track 7

Filename D:\Music\Ripping\And His Soloists 1969-1984 9\07 006 Variation 4.wav

Peak level 99.1 %
Extraction speed 4.1 X
Track quality 100.0 %
Test CRC FAB5CE96
Copy CRC FAB5CE96
Accurately ripped (confidence 11) [7DF2C00F] (AR v2)
Copy OK

Track 8

Filename D:\Music\Ripping\And His Soloists 1969-1984 9\08 007 Variation 5.wav

Peak level 52.7 %
Extraction speed 4.6 X
Track quality 100.0 %
Test CRC 99A22A72
Copy CRC 99A22A72
Accurately ripped (confidence 11) [E5AA367D] (AR v2)
Copy OK

Track 9

Filename D:\Music\Ripping\And His Soloists 1969-1984 9\09 008 Variation 6.wav

Peak level 96.8 %
Extraction speed 3.5 X
Track quality 100.0 %
Test CRC 2C53BB34
Copy CRC 2C53BB34
Accurately ripped (confidence 11) [4AED683D] (AR v2)
Copy OK

Track 10

Filename D:\Music\Ripping\And His Soloists 1969-1984 9\10 009 Variation 7.wav

Peak level 97.8 %
Extraction speed 3.6 X
Track quality 100.0 %
Test CRC 1ED09FD0
Copy CRC 1ED09FD0
Accurately ripped (confidence 11) [775970BB] (AR v2)
Copy OK

Track 11

Filename D:\Music\Ripping\And His Soloists 1969-1984 9\11 010 Variation 8.wav

Peak level 94.8 %
Extraction speed 4.0 X
Track quality 100.0 %
Test CRC 4FF3AC01
Copy CRC 4FF3AC01
Accurately ripped (confidence 11) [5E02C3E3] (AR v2)
Copy OK

Track 12

Filename D:\Music\Ripping\And His Soloists 1969-1984 9\12 011 Variation 9.wav

Peak level 70.2 %
Extraction speed 3.6 X
Track quality 100.0 %
Test CRC 037CD42C
Copy CRC 037CD42C
Accurately ripped (confidence 11) [D5A82ADD] (AR v2)
Copy OK

Track 13

Filename D:\Music\Ripping\And His Soloists 1969-1984 9\13 012 Variation 10.wav

Peak level 97.5 %
Extraction speed 4.7 X
Track quality 100.0 %
Test CRC FE653C73
Copy CRC FE653C73
Accurately ripped (confidence 11) [A3A292B2] (AR v2)
Copy OK

Track 14

Filename D:\Music\Ripping\And His Soloists 1969-1984 9\14 013 Finale.wav

Peak level 38.1 %
Extraction speed 5.2 X
Track quality 100.0 %
Test CRC 5E2DF09F
Copy CRC 5E2DF09F
Accurately ripped (confidence 11) [93F3CE80] (AR v2)
Copy OK


All tracks accurately ripped

No errors occurred

End of status report

–– CUETools DB Plugin V2.1.6

[CTDB TOCID: 1Uapdc74csiE.b.d2jsvWTym.Hc-] found
Submit result: 1Uapdc74csiE.b.d2jsvWTym.Hc- has been confirmed
Track | CTDB Status
1 | (38/38) Accurately ripped
2 | (38/38) Accurately ripped
3 | (38/38) Accurately ripped
4 | (38/38) Accurately ripped
5 | (38/38) Accurately ripped
6 | (38/38) Accurately ripped
7 | (38/38) Accurately ripped
8 | (38/38) Accurately ripped
9 | (38/38) Accurately ripped
10 | (38/38) Accurately ripped
11 | (38/38) Accurately ripped
12 | (38/38) Accurately ripped
13 | (38/38) Accurately ripped
14 | (38/38) Accurately ripped


==== Log checksum 328763D03581E6F4B7056310CA74FDBF32BEF448B80D70C90CE782C110C407A6 ====


CD10
Exact Audio Copy V1.3 from 2. September 2016

EAC extraction logfile from 14. May 2017, 7:25

Karajan / And His Soloists 1969-1984 10

Used drive : PLEXTOR CD-R PREMIUM2 Adapter: 1 ID: 0

Read mode : Secure
Utilize accurate stream : Yes
Defeat audio cache : Yes
Make use of C2 pointers : No

Read offset correction : 30
Overread into Lead-In and Lead-Out : Yes
Fill up missing offset samples with silence : Yes
Delete leading and trailing silent blocks : No
Null samples used in CRC calculations : Yes
Used interface : Native Win32 interface for Win NT & 2000
Gap handling : Appended to previous track

Used output format : User Defined Encoder
Selected bitrate : 1024 kBit/s
Quality : High
Add ID3 tag : No
Command line compressor : C:\Program Files (x86)\Exact Audio Copy\Flac\flac.exe
Additional command line options : -8 -V -T "ARTIST=%artist%" -T "TITLE=%title%" -T "ALBUM=%albumtitle%" -T "DATE=%year%" -T "TRACKNUMBER=%tracknr%" -T "GENRE=%genre%" -T "PERFORMER=%albuminterpret%" -T "COMPOSER=%composer%" %haslyrics%–tag-from-file=LYRICS="%lyricsfile%"%haslyrics% -T "ALBUMARTIST=%albumartist%" -T "DISCNUMBER=%cdnumber%" -T "TOTALDISCS=%totalcds%" -T "TOTALTRACKS=%numtracks%" -T "COMMENT=%comment%" %source% -o %dest%


TOC of the extracted CD

Track | Start | Length | Start sector | End sector
––––––––––––––––––––––––––––-
1 | 0:00.00 | 2:38.60 | 0 | 11909
2 | 2:38.60 | 2:07.36 | 11910 | 21470
3 | 4:46.21 | 2:34.52 | 21471 | 33072
4 | 7:20.73 | 1:51.71 | 33073 | 41468
5 | 9:12.69 | 11:12.65 | 41469 | 91933
6 | 20:25.59 | 5:26.45 | 91934 | 116428
7 | 25:52.29 | 3:43.09 | 116429 | 133162
8 | 29:35.38 | 7:00.53 | 133163 | 164715
9 | 36:36.16 | 4:26.40 | 164716 | 184705
10 | 41:02.56 | 1:17.55 | 184706 | 190535
11 | 42:20.36 | 3:18.19 | 190536 | 205404
12 | 45:38.55 | 1:26.46 | 205405 | 211900


Track 1

Filename D:\Music\Ripping\And His Soloists 1969-1984 10\01 Track01.wav

Pre-gap length 0:00:02.00

Peak level 63.1 %
Extraction speed 4.0 X
Track quality 100.0 %
Test CRC 6295A111
Copy CRC 6295A111
Accurately ripped (confidence 11) [1153EDAC] (AR v2)
Copy OK

Track 2

Filename D:\Music\Ripping\And His Soloists 1969-1984 10\02 Track02.wav

Peak level 73.0 %
Extraction speed 3.1 X
Track quality 99.9 %
Test CRC 140A7F24
Copy CRC 140A7F24
Accurately ripped (confidence 11) [50422E8B] (AR v2)
Copy OK

Track 3

Filename D:\Music\Ripping\And His Soloists 1969-1984 10\03 Track03.wav

Peak level 36.5 %
Extraction speed 3.4 X
Track quality 99.9 %
Test CRC 10C52202
Copy CRC 10C52202
Accurately ripped (confidence 11) [D4CFF6A1] (AR v2)
Copy OK

Track 4

Filename D:\Music\Ripping\And His Soloists 1969-1984 10\04 Track04.wav

Peak level 81.0 %
Extraction speed 4.0 X
Track quality 100.0 %
Test CRC 41BD2F27
Copy CRC 41BD2F27
Accurately ripped (confidence 11) [AF50CA53] (AR v2)
Copy OK

Track 5

Filename D:\Music\Ripping\And His Soloists 1969-1984 10\05 Track05.wav

Pre-gap length 0:00:03.62

Peak level 84.8 %
Extraction speed 5.0 X
Track quality 100.0 %
Test CRC 69548B37
Copy CRC 69548B37
Accurately ripped (confidence 11) [FA51A8E4] (AR v2)
Copy OK

Track 6

Filename D:\Music\Ripping\And His Soloists 1969-1984 10\06 Track06.wav

Peak level 76.0 %
Extraction speed 4.8 X
Track quality 100.0 %
Test CRC 0FFE7093
Copy CRC 0FFE7093
Accurately ripped (confidence 11) [295E35CE] (AR v2)
Copy OK

Track 7

Filename D:\Music\Ripping\And His Soloists 1969-1984 10\07 Track07.wav

Peak level 96.6 %
Extraction speed 3.9 X
Track quality 99.9 %
Test CRC FF554518
Copy CRC FF554518
Accurately ripped (confidence 11) [4DE2C7C8] (AR v2)
Copy OK

Track 8

Filename D:\Music\Ripping\And His Soloists 1969-1984 10\08 Track08.wav

Pre-gap length 0:00:05.37

Peak level 69.1 %
Extraction speed 4.9 X
Track quality 100.0 %
Test CRC 8FC4B8B2
Copy CRC 8FC4B8B2
Accurately ripped (confidence 11) [57862BCF] (AR v2)
Copy OK

Track 9

Filename D:\Music\Ripping\And His Soloists 1969-1984 10\09 Track09.wav

Peak level 66.4 %
Extraction speed 4.7 X
Track quality 100.0 %
Test CRC 2BBAF647
Copy CRC 2BBAF647
Accurately ripped (confidence 11) [CC83E873] (AR v2)
Copy OK

Track 10

Filename D:\Music\Ripping\And His Soloists 1969-1984 10\10 Track10.wav

Pre-gap length 0:00:03.65

Peak level 84.7 %
Extraction speed 3.6 X
Track quality 100.0 %
Test CRC 3C65F72F
Copy CRC 3C65F72F
Accurately ripped (confidence 11) [823D151A] (AR v2)
Copy OK

Track 11

Filename D:\Music\Ripping\And His Soloists 1969-1984 10\11 Track11.wav

Peak level 58.8 %
Extraction speed 4.5 X
Track quality 100.0 %
Test CRC 1443872B
Copy CRC 1443872B
Accurately ripped (confidence 11) [F92D4E56] (AR v2)
Copy OK

Track 12

Filename D:\Music\Ripping\And His Soloists 1969-1984 10\12 Track12.wav

Peak level 78.8 %
Extraction speed 4.8 X
Track quality 100.0 %
Test CRC BC4CC7F8
Copy CRC BC4CC7F8
Accurately ripped (confidence 11) [0F04974C] (AR v2)
Copy OK


All tracks accurately ripped

No errors occurred

End of status report

–– CUETools DB Plugin V2.1.6

[CTDB TOCID: dfyGKtvkEHEOaxr4Eso92xYG8pI-] found
Submit result: dfyGKtvkEHEOaxr4Eso92xYG8pI- has been confirmed
Track | CTDB Status
1 | (39/39) Accurately ripped
2 | (39/39) Accurately ripped
3 | (39/39) Accurately ripped
4 | (39/39) Accurately ripped
5 | (39/39) Accurately ripped
6 | (39/39) Accurately ripped
7 | (39/39) Accurately ripped
8 | (39/39) Accurately ripped
9 | (39/39) Accurately ripped
10 | (39/39) Accurately ripped
11 | (39/39) Accurately ripped
12 | (39/39) Accurately ripped


==== Log checksum 4D4E5EF3EA2CE94E4FFC7E1869BC28CB4C0767AD2E80FF5DC4BDE7DF87DAC80B ====


Herbert Von Karajan - Karajan and His Soloists, Vol. 2 1969-1984 (2014) (10 CDs Box Set)


Thanks to the original ripper.

**Follow My Music Blog**