Subcategories

Hanoi Rocks - Another Hostile Takeover (2005) + Street Poetry (2007)

Posted By: popsakov
Hanoi Rocks - Another Hostile Takeover (2005) + Street Poetry (2007)

Hanoi Rocks - Another Hostile Takeover (2005) + Street Poetry (2007)
EAC Rip | FLAC (Img) + Cue + Log ~ 392/353 Mb | MP3 CBR320 ~ 129/121 Mb
Full Scans | 00:45:05 + 00:44:24 | RAR 5% Recovery
Hard Rock, Glam Punk | Major Leidén Productions #MLCD 013 / Demolition Records #DEMCD161

Hanoi Rocks was a Finnish hard rock band formed in 1979, whose most successful period came in the early 1980s. The band broke up in 1985 after their drummer Nicholas "Razzle" Dingley died in a car accident a year earlier. Original members vocalist Michael Monroe and guitarist Andy McCoy reunited in 2001 and were active with the new line-up of Hanoi Rocks until 2009. In the 80s, Hanoi Rocks were the most successful Finnish band internationally and are still popular in the United States, Japan, and the UK. They were also one of the first rock bands to tour in Asia, and were the first western rock band to play in Delhi.

***************

Hanoi Rocks - Another Hostile Takeover (2005) + Street Poetry (2007)

Hanoi Rocks - Another Hostile Takeover (2005)

Hanoi Rocks was one of the few '80s-era glam acts to get it right – basing their sound/approach on the New York Dolls rather than Van Halen. Although singer Michael Monroe found it impossible to carry on with the band after the death of drummer Nicholas "Razzle" Dingley, by the early 21st century he must have had a change of heart. Once more, Monroe was united with guitarist Andy McCoy – releasing Twelve Shots on the Rocks in 2002 and committing to live dates. The reunion obviously went well, because in 2005 the "new Hanoi Rocks" was ready to issue another studio effort, Another Hostile Takeover. Despite none of the other former Hanoi members being included, Monroe and McCoy have no problem re-creating the trashy glam punk of their earlier releases here, as evidenced by such tracks as the album-opening "Back in Yer Face." Surprisingly, on tracks like "The Devil in You," the group assumes a radio-friendly sound, which is sure to leave longtime fans a bit bewildered. That said, two covers that Monroe/McCoy tackle – Phil Lynott's "Dear Miss Lonely Hearts" and Stiv Bators' "No Compromise, No Regrets" – fare much better. Another Hostile Takeover doesn't scale the same heights as, say, Bangkok Shocks, Saigon Shakes, Hanoi Rocks, but there are enough links back to the old-time Hanoi Rocks sound for longtime fans to latch onto.

~ Greg Prato, All Music
Hanoi Rocks - Another Hostile Takeover (2005) + Street Poetry (2007)

Track List:

01. Intro [00:06]
02. Back In Yer Face [03:35]
03. Insert I [00:16]
04. Hurt [03:54]
05. The Devil In You [03:35]
06. Love [02:34]
07. Talk To The Hand [03:39]
08. Eternal Optimist [03:31]
09. Insert II [00:06]
10. No Compromise, No Regrets [04:01]
11. Reggae Rocker [04:19]
12. You Make The Earth Move [03:35]
13. Insert III [00:10]
14. Better High [03:21]
15. Dear Miss Lonely Hearts [03:28]
16. Insert IV [00:13]
17. Center Of My Universe [04:47]

Exact Audio Copy V1.0 beta 1 from 15. November 2010

EAC extraction logfile from 28. February 2011, 17:57

Hanoi Rocks / Another Hostile Takeover

Used drive : PLEXTOR DVDR PX-750A Adapter: 0 ID: 3

Read mode : Secure
Utilize accurate stream : Yes
Defeat audio cache : Yes
Make use of C2 pointers : No

Read offset correction : 102
Overread into Lead-In and Lead-Out : No
Fill up missing offset samples with silence : Yes
Delete leading and trailing silent blocks : No
Null samples used in CRC calculations : Yes
Used interface : Native Win32 interface for Win NT & 2000

Used output format : Internal WAV Routines
Sample format : 44.100 Hz; 16 Bit; Stereo


TOC of the extracted CD

Track | Start | Length | Start sector | End sector
––––––––––––––––––––––––––––-
1 | 0:00.00 | 0:05.62 | 0 | 436
2 | 0:05.62 | 3:34.68 | 437 | 16554
3 | 3:40.55 | 0:15.09 | 16555 | 17688
4 | 3:55.64 | 3:53.49 | 17689 | 35212
5 | 7:49.38 | 3:34.36 | 35213 | 51298
6 | 11:23.74 | 2:33.47 | 51299 | 62820
7 | 13:57.46 | 3:38.38 | 62821 | 79208
8 | 17:36.09 | 3:30.67 | 79209 | 95025
9 | 21:07.01 | 0:05.61 | 95026 | 95461
10 | 21:12.62 | 4:00.46 | 95462 | 113507
11 | 25:13.33 | 4:18.74 | 113508 | 132931
12 | 29:32.32 | 3:34.24 | 132932 | 149005
13 | 33:06.56 | 0:10.00 | 149006 | 149755
14 | 33:16.56 | 3:20.59 | 149756 | 164814
15 | 36:37.40 | 3:27.47 | 164815 | 180386
16 | 40:05.12 | 0:12.62 | 180387 | 181348
17 | 40:17.74 | 4:46.69 | 181349 | 202867


Range status and errors

Selected range

Filename C:\Общий доступ\Game\Hanoi Rocks - The Albums\2005 - Another Hostile Takeover\Hanoi Rocks - Another Hostile Takeover.wav

Peak level 98.6 %
Extraction speed 0.2 X
Range quality 100.0 %
Test CRC 618AB942
Copy CRC 618AB942
Copy OK

No errors occurred


AccurateRip summary

Track 1 not present in database
Track 2 accurately ripped (confidence 5) [059B7817]
Track 3 accurately ripped (confidence 5) [FB0530C0]
Track 4 accurately ripped (confidence 5) [21129D3E]
Track 5 accurately ripped (confidence 5) [DD7B13CB]
Track 6 accurately ripped (confidence 5) [B04E0ECF]
Track 7 accurately ripped (confidence 5) [11C61379]
Track 8 accurately ripped (confidence 5) [C0D98AB8]
Track 9 not present in database
Track 10 accurately ripped (confidence 5) [25A61B09]
Track 11 accurately ripped (confidence 5) [56472DEB]
Track 12 accurately ripped (confidence 5) [7437905D]
Track 13 accurately ripped (confidence 5) [89239D17]
Track 14 accurately ripped (confidence 5) [596A1990]
Track 15 accurately ripped (confidence 5) [2F73C926]
Track 16 accurately ripped (confidence 5) [E91CF736]
Track 17 accurately ripped (confidence 5) [9D6E2F6C]

15 track(s) accurately ripped
2 track(s) not present in the AccurateRip database

Some tracks could not be verified as accurate

End of status report

[CUETools log; Date: 24.01.2015 0:40:32; Version: 2.1.5]
[CTDB TOCID: z6TWja5tLLTdr4uwrVg8p_PCVGc-] found.
Track | CTDB Status
1 | (6/6) Accurately ripped
2 | (6/6) Accurately ripped
3 | (6/6) Accurately ripped
4 | (6/6) Accurately ripped
5 | (6/6) Accurately ripped
6 | (6/6) Accurately ripped
7 | (6/6) Accurately ripped
8 | (6/6) Accurately ripped
9 | (6/6) Accurately ripped
10 | (6/6) Accurately ripped
11 | (6/6) Accurately ripped
12 | (6/6) Accurately ripped
13 | (6/6) Accurately ripped
14 | (6/6) Accurately ripped
15 | (6/6) Accurately ripped
16 | (6/6) Accurately ripped
17 | (6/6) Accurately ripped
[AccurateRip ID: 001a5f4c-0156b1d4-030a9011] found.
Track [ CRC | V2 ] Status
01 [42df56ac|259e7a7b] (00+00/00) No match
02 [059b7817|d8342eac] (05+07/12) Accurately ripped
03 [fb0530c0|c1808430] (05+07/12) Accurately ripped
04 [21129d3e|94b0b214] (05+07/12) Accurately ripped
05 [dd7b13cb|295956c8] (05+07/12) Accurately ripped
06 [b04e0ecf|2b003158] (05+07/12) Accurately ripped
07 [11c61379|9047ce04] (05+07/12) Accurately ripped
08 [c0d98ab8|d344c414] (05+07/12) Accurately ripped
09 [fb84a26c|cb9d1c8f] (00+00/00) No match
10 [25a61b09|4ad6c9cf] (05+07/12) Accurately ripped
11 [56472deb|5ea35744] (05+07/12) Accurately ripped
12 [7437905d|46e4a198] (05+07/12) Accurately ripped
13 [89239d17|e97f260b] (05+07/12) Accurately ripped
14 [596a1990|0af70e46] (05+07/12) Accurately ripped
15 [2f73c926|f04eb6dc] (05+07/12) Accurately ripped
16 [e91cf736|8a7d9c24] (05+07/12) Accurately ripped
17 [9d6e2f6c|cb3f42a9] (05+07/12) Accurately ripped

Track Peak [ CRC32 ] [W/O NULL] [ LOG ]
– 98,6 [618AB942] [6E9BDA54] CRC32
01 17,3 [3F64BA46] [13814E52]
02 97,2 [07197147] [E71362CE]
03 28,8 [40DCBFAF] [93CF5635]
04 97,2 [6A81B7C5] [03FF46F1]
05 97,7 [B50E4823] [BA7B8BAA]
06 97,2 [3D83700C] [E28234DC]
07 97,2 [1822F9EF] [BA251069]
08 98,6 [822A9D06] [27419DC1]
09 5,8 [C836C027] [11DECCB8]
10 97,2 [ECAFA9BF] [7490B6F1]
11 97,2 [6B536640] [B8CD8538]
12 97,2 [FC273D2F] [E54B9D4C]
13 64,0 [71B1AE3A] [A3D106BD]
14 97,2 [92B04E37] [94C781B3]
15 97,7 [900D355C] [99071791]
16 8,3 [1A8652AA] [F92DFCAB]
17 97,3 [C79663AB] [F883E671]

Hanoi Rocks - Another Hostile Takeover (2005) + Street Poetry (2007)

***************

Hanoi Rocks - Another Hostile Takeover (2005) + Street Poetry (2007)

Hanoi Rocks - Street Poetry (2007)

There may only be two members from Hanoi Rocks' classic days left in attendance – singer Michael Monroe and guitarist Andy McCoy – but the early 21st century version of the group has no problem replicating its trademark glam-punk. Case in point, 2007's Street Poetry. With countless modern-day rock bands smoothing out all the rough edges, it's good to know that you can count on Hanoi Rocks to leave it all rough and raw. And while there may be a sudden uprising of bands that attempt to ape Hanoi Rocks' gutter-punk style, there's nothing like the originators, as evidenced by such rocking standouts as "Hypermobile," "Highwired," "Teenage Revolution," and the melodic title track. With only two of the original Hanoi Rockers creating this enjoyable of a racket, it's safe to say that if the definitive 1984 line-up had stayed together, they could have become a household name like Mötley Crüe and Guns N' Roses.

~ Greg Prato, All Music
Hanoi Rocks - Another Hostile Takeover (2005) + Street Poetry (2007)

Track List:

01. Hypermobile [04:06]
02. Street Poetry [03:58]
03. Fashion [03:17]
04. Highwired [03:29]
05. Power Of Persuasion [04:17]
06. Teenage Revolution [03:37]
07. Worth Your Weight In Gold [03:34]
08. Transcendental Groove [03:04]
09. This One's For Rock'n'Roll [03:45]
10. Powertrip [02:39]
11. Walkin' Away [03:57]
12. Tootin' Star [02:41]
13. Fumblefoot And Busy Bee [02:05]

Exact Audio Copy V0.99 prebeta 4 from 23. January 2008

Отчёт EAC об извлечении, выполненном 10. июня 2009, 19:51

Hanoi Rocks / Street Poetry

Дисковод: Optiarc DVD RW AD-7170S Adapter: 2 ID: 0

Режим чтения : Достоверность
Использование точного потока : Да
Отключение кэша аудио : Да
Использование указателей C2 : Нет

Коррекция смещения при чтении : 48
Способность читать области Lead-in и Lead-out : Нет
Заполнение пропущенных сэмплов тишиной : Да
Удаление блоков с тишиной в начале и конце : Нет
При вычислениях CRC использовались нулевые сэмплы : Да
Интерфейс : Установленный внешний ASPI-интерфейс

Выходной формат : Monkey's Audio (без потерь)
Выбранный битрейт : Fast Lossless Compression
Качество : Высокий
Добавление ID3-тэга : Нет
Утилита сжатия : C:\Program Files\Monkey's Audio\MAC.exe


TOC извлечённого CD

Трек | Старт | Длительность | Начальный сектор | Конечный сектор
––––––––––––––––––––––––––––––––––-
1 | 0:00.00 | 4:05.57 | 0 | 18431
2 | 4:05.57 | 3:57.26 | 18432 | 36232
3 | 8:03.08 | 3:16.41 | 36233 | 50973
4 | 11:19.49 | 3:28.31 | 50974 | 66604
5 | 14:48.05 | 4:16.13 | 66605 | 85817
6 | 19:04.18 | 3:36.39 | 85818 | 102056
7 | 22:40.57 | 3:33.42 | 102057 | 118073
8 | 26:14.24 | 3:03.52 | 118074 | 131850
9 | 29:18.01 | 3:44.59 | 131851 | 148709
10 | 33:02.60 | 2:38.58 | 148710 | 160617
11 | 35:41.43 | 3:56.27 | 160618 | 178344
12 | 39:37.70 | 2:40.54 | 178345 | 190398
13 | 42:18.49 | 2:04.44 | 190399 | 199742


Характеристики диапазона извлечения и сообщения об ошибках

Выбранный диапазон

Имя файла C:\Documents and Settings\Admin\Рабочий стол\RIPS\Hanoi Rocks - Street Poetry.wav

Пиковый уровень 99.9 %
Качество диапазона 99.9 %
CRC теста ADE640BB
CRC копии ADE640BB
Копирование… OK

Ошибок не произошло


AccurateRip: сводка

Трек 1 точность не определена (достоверность 2) [E8CB1800], AccurateRip вернул [9E58248E]
Трек 2 точность не определена (достоверность 2) [F472FCFC], AccurateRip вернул [A07FAED8]
Трек 3 точность не определена (достоверность 2) [C96B15F5], AccurateRip вернул [D258703D]
Трек 4 точность не определена (достоверность 2) [1852985D], AccurateRip вернул [A9CFA5ED]
Трек 5 точность не определена (достоверность 2) [E086E194], AccurateRip вернул [1B853EB4]
Трек 6 точность не определена (достоверность 2) [EECCAF6A], AccurateRip вернул [BD5DB128]
Трек 7 точность не определена (достоверность 2) [6878718C], AccurateRip вернул [A5D39802]
Трек 8 точность не определена (достоверность 2) [9B1AD824], AccurateRip вернул [8F562344]
Трек 9 точность не определена (достоверность 2) [433C9BA6], AccurateRip вернул [12D3C624]
Трек 10 точность не определена (достоверность 2) [A78BE161], AccurateRip вернул [875B1587]
Трек 11 точность не определена (достоверность 2) [B8E74A1F], AccurateRip вернул [12091063]
Трек 12 точность не определена (достоверность 2) [8910AB33], AccurateRip вернул [64DFB5FF]
Трек 13 точность не определена (достоверность 2) [3DB68E64], AccurateRip вернул [AA99FF5C]

Ни один трек не прошёл проверки на точность
В вашей базе может быть иной вариант штамповки диска

Конец отчёта

[CUETools log; Date: 31.01.2015 14:46:03; Version: 2.1.5]
[CTDB TOCID: mAuauoiXAQ3hsUQBWNGeCI7lyjg-] found.
Track | CTDB Status
1 | (1/4) Accurately ripped
2 | (1/4) Accurately ripped
3 | (1/4) Accurately ripped
4 | (1/4) Accurately ripped
5 | (1/4) Accurately ripped
6 | (1/4) Accurately ripped
7 | (1/4) Accurately ripped
8 | (1/4) Accurately ripped
9 | (1/4) Accurately ripped
10 | (1/4) Accurately ripped
11 | (1/4) Accurately ripped
12 | (1/4) Accurately ripped
13 | (1/4) Accurately ripped
[AccurateRip ID: 0016b3f3-00e06fbe-b90a670d] found.
Track [ CRC | V2 ] Status
01 [e8cb1800|1feb5427] (00+02/11) Accurately ripped
02 [f472fcfc|2e60d0cb] (00+02/11) Accurately ripped
03 [c96b15f5|47c37f35] (00+02/11) Accurately ripped
04 [1852985d|94f30916] (00+02/11) Accurately ripped
05 [e086e194|5b2ca529] (00+02/11) Accurately ripped
06 [eeccaf6a|2c0498e9] (00+02/11) Accurately ripped
07 [6878718c|150efc4e] (00+02/11) Accurately ripped
08 [9b1ad824|dce4f197] (00+02/11) Accurately ripped
09 [433c9ba6|f5b754f6] (00+02/11) Accurately ripped
10 [a78be161|91627db7] (00+02/11) Accurately ripped
11 [b8e74a1f|476a0b59] (00+02/11) Accurately ripped
12 [8910ab33|de3b4d42] (00+02/11) Accurately ripped
13 [3db68e64|57bae8ee] (00+02/11) Accurately ripped
Offsetted by 676:
01 [9e58248e] (04/11) Accurately ripped
02 [a07faed8] (04/11) Accurately ripped
03 [d258703d] (04/11) Accurately ripped
04 [a9cfa5ed] (04/11) Accurately ripped
05 [1b853eb4] (04/11) Accurately ripped
06 [bd5db128] (04/11) Accurately ripped
07 [a5d39802] (04/11) Accurately ripped
08 [8f562344] (04/11) Accurately ripped
09 [12d3c624] (04/11) Accurately ripped
10 [875b1587] (04/11) Accurately ripped
11 [12091063] (04/11) Accurately ripped
12 [64dfb5ff] (04/11) Accurately ripped
13 [aa99ff5c] (04/11) Accurately ripped
Offsetted by 12:
01 [fb7e0310] (00/11) No match (V2 was not tested)
02 [92031e70] (00/11) No match (V2 was not tested)
03 [ae4f7d0d] (00/11) No match (V2 was not tested)
04 [cc5eb9f0] (00/11) No match (V2 was not tested)
05 [46662cc5] (00/11) No match (V2 was not tested)
06 [5c146eb5] (00/11) No match (V2 was not tested)
07 [551f8165] (00/11) No match (V2 was not tested)
08 [036aaa84] (00/11) No match (V2 was not tested)
09 [d94d8824] (00/11) No match (V2 was not tested)
10 [b9426b3b] (00/11) No match (V2 was not tested)
11 [949daa0b] (00/11) No match (V2 was not tested)
12 [da38b2f7] (00/11) No match (V2 was not tested)
13 [c73a45a2] (00/11) No match (V2 was not tested)
Offsetted by 670:
01 [3d8d424e] (00/11) No match
02 [d1b79e1e] (00/11) No match
03 [5fe63cb1] (00/11) No match
04 [11dd0ab4] (00/11) No match
05 [6926a073] (05/11) Accurately ripped
06 [53857c9d] (00/11) No match
07 [305217ef] (00/11) No match
08 [5b2e3a14] (00/11) No match
09 [5f182ce4] (00/11) No match
10 [ff216183] (00/11) No match
11 [242de06d] (00/11) No match
12 [bc4bb21d] (00/11) No match
13 [f2249011] (00/11) No match

Track Peak [ CRC32 ] [W/O NULL] [ LOG ]
– 99,9 [ADE640BB] [49BD613A] CRC32
01 92,2 [9A80FED8] [0EE187B9]
02 98,8 [5E1DBD47] [A6A7CB75]
03 96,5 [9FCBB373] [0F12AD9F]
04 98,8 [BD6049C5] [899205A8]
05 99,9 [A9E7E558] [7E26DB70]
06 98,8 [572A6A13] [6563777A]
07 98,8 [A1025E19] [1817E9FA]
08 98,8 [4B53A4CD] [41098681]
09 98,8 [0EF95444] [CA41E737]
10 95,4 [14FF4E46] [9750D33F]
11 98,8 [A68051BB] [158CC925]
12 98,8 [AC17859D] [96312A17]
13 98,8 [F5CA458A] [A16A404A]

Hanoi Rocks - Another Hostile Takeover (2005) + Street Poetry (2007)


All thanks go to lomik70 & wolfman69

>>> My Blog <<<

DOWNLOAD: