Subcategories
Tags
Language
Tags

Greenslade - Greenslade (1973) [2015, Warner Music Japan, WPCR-16297]

Posted By: v3122
Greenslade - Greenslade (1973) [2015, Warner Music Japan, WPCR-16297]

Greenslade - Greenslade (1973)
EAC | Flac(Image) + Cue + Log & MP3 CBR 320Kbps
Warner Music Japan, WPCR-16297 | ~ 296 or 109 Mb | Scans(png) -> 105 Mb
Progressive Rock

Not long after the disintegration of Colosseum, Greenslade was born, with their inaugural self-titled album whetting the appetites of progressive rock fans worldwide. Dave Greenslade used the group to showcase his illustrious keyboard intricacies alongside Tony Reeves' bass guitar, Andrew McCulloch's predominant percussion work, and Dave Lawson's vocals, all of which made Greenslade a quintessential prog album. The attention almost never veers from David Greenslade's beautiful organ texturing, alternating between hard and delicate patterns while defining the album's pure progressive sound. Reeves' bass riffs are spatial and thorough, complimenting the keyboard runs when needed while falling in behind the music at the proper times. Although the three instrumental pieces ("An English Western," "Melange," and "Sundance") aim the spotlight straight at Greenslade, the vocal tracks are just as worthy. The lyrics are of a simple nature, unlike Yes' brand of fantastical poetry, and they adhere perfectly to the instruments, especially on the sincere "What Are You Doin' to Me." For this project and the rest of Greenslade's albums, Dave Greenslade exchanges the jazz-infused stylishness of his Colosseum days for the complexities of a progressive rock realm, and his transition ends up being faultless. Bedside Manners carries on with the same rich, keyboard-led sound, while another member from Colosseum, guitarist Dave Clempson, joins on for 1974's Spyglass Guest, in which the electronics were noticeably toned down.

by Mike DeGagne, AMG

Greenslade - Greenslade (1973):

Greenslade - Greenslade (1973) [2015, Warner Music Japan, WPCR-16297]

Tracklist:

01 Feathered Friends
02 An English Western
03 Drowning Man
04 Temple Song
05 Mélange
06 What Are You Doin' To Me
07 Sundance

Exact Audio Copy V1.0 beta 6 from 9. April 2015

EAC extraction logfile from 6. June 2015, 19:34

Greenslade / Greenslade SHM-CD

Used drive : PLEXTOR BD-R PX-B950SA Adapter: 1 ID: 1

Read mode : Secure
Utilize accurate stream : Yes
Defeat audio cache : Yes
Make use of C2 pointers : No

Read offset correction : 6
Overread into Lead-In and Lead-Out : No
Fill up missing offset samples with silence : Yes
Delete leading and trailing silent blocks : No
Null samples used in CRC calculations : Yes
Used interface : Native Win32 interface for Win NT & 2000

Used output format : Internal WAV Routines
Sample format : 44.100 Hz; 16 Bit; Stereo


TOC of the extracted CD

Track | Start | Length | Start sector | End sector
––––––––––––––––––––––––––––-
1 | 0:00.00 | 6:45.68 | 0 | 30442
2 | 6:45.68 | 3:27.45 | 30443 | 46012
3 | 10:13.38 | 5:52.43 | 46013 | 72455
4 | 16:06.06 | 3:37.25 | 72456 | 88755
5 | 19:43.31 | 7:18.47 | 88756 | 121652
6 | 27:02.03 | 4:33.29 | 121653 | 142156
7 | 31:35.32 | 8:21.10 | 142157 | 179741


Range status and errors

Selected range

Filename C:\Users\Meijin\Desktop\ALLexxess\Greenslade\1973 Greenslade (SHM-CD Warner Music Japan 2015)\Greenslade - Greenslade SHM-CD.wav

Peak level 100.0 %
Extraction speed 6.6 X
Range quality 100.0 %
Test CRC 403156E7
Copy CRC 403156E7
Copy OK

No errors occurred


AccurateRip summary

Track 1 accurately ripped (confidence 2) [105BC995] (AR v1)
Track 2 accurately ripped (confidence 2) [A458957F] (AR v1)
Track 3 accurately ripped (confidence 2) [C9DFCF2A] (AR v1)
Track 4 accurately ripped (confidence 2) [324C4389] (AR v1)
Track 5 accurately ripped (confidence 2) [2EE11B96] (AR v1)
Track 6 accurately ripped (confidence 2) [EEAFB43E] (AR v1)
Track 7 cannot be verified as accurate (confidence 2) [BBB69907], AccurateRip returned [0D91C872] (AR v2)

6 track(s) accurately ripped
1 track(s) could not be verified as accurate

Some tracks could not be verified as accurate

End of status report

–– CUETools DB Plugin V2.1.6

[CTDB TOCID: gP3LUzYqGYt.dJN4vVRvF5Pmc34-] found
Submit result: gP3LUzYqGYt.dJN4vVRvF5Pmc34- has been confirmed
Track | CTDB Status
1 | (2/2) Accurately ripped
2 | (2/2) Accurately ripped
3 | (2/2) Accurately ripped
4 | (2/2) Accurately ripped
5 | (2/2) Accurately ripped
6 | (2/2) Accurately ripped
7 | (1/2) Accurately ripped


==== Log checksum 836B90591300736DE66C9153FFC8F30C45763D79A499DF9AA972383932003408 ====

foobar2000 1.2.9 / Dynamic Range Meter 1.1.1
log date: 2015-06-11 11:53:26

––––––––––––––––––––––––––––––––––––––––
Analyzed: Greenslade / Greenslade SHM-CD
––––––––––––––––––––––––––––––––––––––––

DR Peak RMS Duration Track
––––––––––––––––––––––––––––––––––––––––
DR7 0.00 dB -8.49 dB 6:46 01-Feathered Friends
DR6 0.00 dB -7.13 dB 3:28 02-An English Western
DR7 0.00 dB -8.20 dB 5:53 03-Drowning Man
DR8 0.00 dB -9.49 dB 3:37 04-Temple Song
DR6 0.00 dB -8.20 dB 7:19 05-Melange
DR6 0.00 dB -7.26 dB 4:33 06-What Are You Doin' To Me
DR6 0.00 dB -8.20 dB 8:21 07-Sundance
––––––––––––––––––––––––––––––––––––––––

Number of tracks: 7
Official DR value: DR7

Samplerate: 44100 Hz
Channels: 2
Bits per sample: 16
Bitrate: 953 kbps
Codec: FLAC

[CUETools log; Date: 11.06.2015 11:35:41; Version: 2.1.4]
[CTDB TOCID: gP3LUzYqGYt.dJN4vVRvF5Pmc34-] found.
Track | CTDB Status
1 | (3/3) Accurately ripped
2 | (3/3) Accurately ripped
3 | (3/3) Accurately ripped
4 | (3/3) Accurately ripped
5 | (3/3) Accurately ripped
6 | (3/3) Accurately ripped
7 | (2/3) Accurately ripped
[AccurateRip ID: 000a6504-003e7dfb-65095c07] found.
Track [ CRC | V2 ] Status
01 [105bc995|84c9d82e] (2+0/4) Accurately ripped
02 [a458957f|b71c5b7d] (2+0/4) Accurately ripped
03 [c9dfcf2a|e28b88f7] (2+0/4) Accurately ripped
04 [324c4389|bdb47b58] (2+0/4) Accurately ripped
05 [2ee11b96|7be9679e] (2+0/4) Accurately ripped
06 [eeafb43e|e27418a1] (2+0/4) Accurately ripped
07 [b279c872|bbb69907] (0+0/4) No match
Offsetted by 32:
01 [ef0afdd5] (0/4) No match (V2 was not tested)
02 [fef7041f] (0/4) No match (V2 was not tested)
03 [355c718a] (0/4) No match (V2 was not tested)
04 [82f8e3c9] (0/4) No match (V2 was not tested)
05 [bdce5376] (0/4) No match (V2 was not tested)
06 [dbfd74de] (0/4) No match (V2 was not tested)
07 [774652b2] (0/4) No match

Track Peak [ CRC32 ] [W/O NULL] [ LOG ]
– 100,0 [403156E7] [ECB0550E] CRC32
01 100,0 [3400357B] [1E65E526]
02 100,0 [8321B39C] [A955EEB6]
03 100,0 [496C6260] [DBD50375]
04 100,0 [7AD65AAC] [98C3786B]
05 100,0 [BED813E5] [2EDD2C07]
06 100,0 [D718CF74] [9EC4B17C]
07 100,0 [BBC037A8] [4BEB9F52]

Greenslade - Greenslade (1973) [2015, Warner Music Japan, WPCR-16297]

All thanks go to ALLexxess

Download Greenslade - Greenslade (1973):