Subcategories
Tags
Language
Tags

Greenslade - Bedside Manners Are Extra (1973) [2015, Warner Music Japan, WPCR-16298]

Posted By: v3122
Greenslade - Bedside Manners Are Extra (1973) [2015, Warner Music Japan, WPCR-16298]

Greenslade - Bedside Manners Are Extra (1973)
EAC | Flac(Image) + Cue + Log & MP3 CBR 320Kbps
Warner Music Japan, WPCR-16298 | ~ 273 or 106 Mb | Scans(png) -> 103 Mb
Progressive Rock

Aside from a few minor differences, 1973's Bedside Manners Are Extra is equivalent to Greenslade's debut album, inundated with the same dazzling synthesizer work and atmospheric guitar implementations from Tony Reeves. Andrew McCulloch's drumming is a little more effective the whole album through, balancing out Dave Greenslade's keyboards and Dave Lawson's singing. The songs alternate from vocal to instrumental, beginning with the beautifully lush title track that exploits the ease in which Greenslade applies his techniques. "Pilgrims Progress" picks up the pace, with McCulloch and Greenslade wonderfully playing off one another. The eight and a half minutes of "Drum Folk" really opens things up, with the synthesizer switching to different tempos and brilliancies while McCulloch gets some well-deserved solo time. "Sunkissed You're Not" is the best display of Dave Lawson's vocals of the three, taking on a jazzy feel during the more fervent portions of the song. While the three lyrical tracks might not be as fantastical as Roger Dean's album cover may lead one to believe, the music that surrounds them certainly is, while the instrumentals exhibit a wide range of genres, from jazz fusion to hints of blues to progressive rock. Bedside Manners has Greenslade showing off their musical range to a greater extent than on their first album, but the band's progressive mien is just as sound.

by Mike DeGagne, AMG

Greenslade - Bedside Manners Are Extra (1973):

Greenslade - Bedside Manners Are Extra (1973) [2015, Warner Music Japan, WPCR-16298]

Tracklist:

01. Bedside Manners Are Extra
02. Pilgrims Progress
03. Time To Dream
04. Drum Folk
05. Sun Kissed You're Not
06. Chalk Hill

Exact Audio Copy V1.0 beta 6 from 9. April 2015

EAC extraction logfile from 6. June 2015, 19:04

Greenslade / Bedside Manners Are Extra SHM-CD

Used drive : PLEXTOR BD-R PX-B950SA Adapter: 1 ID: 1

Read mode : Secure
Utilize accurate stream : Yes
Defeat audio cache : Yes
Make use of C2 pointers : No

Read offset correction : 6
Overread into Lead-In and Lead-Out : No
Fill up missing offset samples with silence : Yes
Delete leading and trailing silent blocks : No
Null samples used in CRC calculations : Yes
Used interface : Native Win32 interface for Win NT & 2000

Used output format : Internal WAV Routines
Sample format : 44.100 Hz; 16 Bit; Stereo


TOC of the extracted CD

Track | Start | Length | Start sector | End sector
––––––––––––––––––––––––––––-
1 | 0:00.00 | 6:24.25 | 0 | 28824
2 | 6:24.25 | 7:05.00 | 28825 | 60699
3 | 13:29.25 | 4:51.38 | 60700 | 82562
4 | 18:20.63 | 8:53.44 | 82563 | 122581
5 | 27:14.32 | 6:35.74 | 122582 | 152280
6 | 33:50.31 | 5:28.00 | 152281 | 176880


Range status and errors

Selected range

Filename C:\Users\Meijin\Desktop\ALLexxess\Greenslade\1973 Bedside Manners Are Extra (SHM-CD Warner Music Japan 2015)\Greenslade - Bedside Manners Are Extra SHM-CD.wav

Peak level 100.0 %
Extraction speed 6.6 X
Range quality 100.0 %
Test CRC 7EBA21D1
Copy CRC 7EBA21D1
Copy OK

No errors occurred


AccurateRip summary

Track 1 accurately ripped (confidence 2) [BBA47FAA] (AR v1)
Track 2 accurately ripped (confidence 2) [5046505A] (AR v1)
Track 3 accurately ripped (confidence 2) [3150BEEC] (AR v1)
Track 4 accurately ripped (confidence 2) [F74626FB] (AR v1)
Track 5 accurately ripped (confidence 2) [46D15A5A] (AR v1)
Track 6 accurately ripped (confidence 2) [DEAC35DF] (AR v1)

All tracks accurately ripped

End of status report

–– CUETools DB Plugin V2.1.6

[CTDB TOCID: cN9EHq4ceMPtw0ZqhffdiiNdJ08-] found
Submit result: cN9EHq4ceMPtw0ZqhffdiiNdJ08- has been confirmed
Track | CTDB Status
1 | (1/1) Accurately ripped
2 | (1/1) Accurately ripped
3 | (1/1) Accurately ripped
4 | (1/1) Accurately ripped
5 | (1/1) Accurately ripped
6 | (1/1) Accurately ripped


==== Log checksum DEDE25B9F6184FFA1655A26092110C1392A23169A13506D77845B91FE3CC7330 ====

foobar2000 1.2.9 / Dynamic Range Meter 1.1.1
log date: 2015-06-13 18:14:18

––––––––––––––––––––––––––––––––––––––––
Analyzed: Greenslade / Bedside Manners Are Extra SHM-CD
––––––––––––––––––––––––––––––––––––––––

DR Peak RMS Duration Track
––––––––––––––––––––––––––––––––––––––––
DR6 0.00 dB -8.93 dB 6:24 01-Bedside Manners Are Extra
DR5 0.00 dB -6.76 dB 7:05 02-Pilgrims Progress
DR5 0.00 dB -6.62 dB 4:52 03-Time To Dream
DR6 0.00 dB -8.27 dB 8:54 04-Drum Folk
DR5 0.00 dB -7.23 dB 6:36 05-Sun Kissed You're Not
DR4 0.00 dB -6.82 dB 5:28 06-Chalk Hill
––––––––––––––––––––––––––––––––––––––––

Number of tracks: 6
Official DR value: DR5

Samplerate: 44100 Hz
Channels: 2
Bits per sample: 16
Bitrate: 893 kbps
Codec: FLAC

[CUETools log; Date: 13.06.2015 18:06:57; Version: 2.1.4]
[CTDB TOCID: cN9EHq4ceMPtw0ZqhffdiiNdJ08-] found.
Track | CTDB Status
1 | (2/2) Accurately ripped
2 | (2/2) Accurately ripped
3 | (2/2) Accurately ripped
4 | (2/2) Accurately ripped
5 | (2/2) Accurately ripped
6 | (2/2) Accurately ripped
[AccurateRip ID: 000984d8-0032e26e-38093606] found.
Track [ CRC | V2 ] Status
01 [bba47faa|b9abe0af] (2+0/6) Accurately ripped
02 [5046505a|960ce29d] (2+0/6) Accurately ripped
03 [3150beec|1f42eda2] (2+0/6) Accurately ripped
04 [f74626fb|750e8750] (2+0/6) Accurately ripped
05 [46d15a5a|b4ab0194] (2+0/6) Accurately ripped
06 [deac35df|99fd432a] (2+0/6) Accurately ripped
Offsetted by 32:
01 [2208fe0a] (2/6) Accurately ripped
02 [d5e7f33a] (2/6) Accurately ripped
03 [bc9c6c8c] (2/6) Accurately ripped
04 [25ccbf9b] (2/6) Accurately ripped
05 [d39c3a5a] (2/6) Accurately ripped
06 [e004279f] (2/6) Accurately ripped

Track Peak [ CRC32 ] [W/O NULL] [ LOG ]
– 100,0 [7EBA21D1] [83E1618B] CRC32
01 100,0 [7CBD2C07] [0DFB1385]
02 100,0 [D3EED2CE] [6377192C]
03 100,0 [70FD0533] [811B6F96]
04 100,0 [B440ADAE] [F2B47077]
05 100,0 [0B879179] [80782F41]
06 100,0 [2852D6E1] [288BB15E]

Greenslade - Bedside Manners Are Extra (1973) [2015, Warner Music Japan, WPCR-16298]

All thanks go to ALLexxess

Download Greenslade - Bedside Manners Are Extra (1973):