Tags
Language
Tags

Great White - The Essential Great White (2011)

Posted By: popsakov
Great White - The Essential Great White (2011)

Great White - The Essential Great White (2011)
2CD | EAC Rip | FLAC (Img) + Cue + Log ~ 951 Mb | MP3 CBR320 ~ 316 Mb
Full Scans ~ 127 Mb | 01:10:25 + 01:00:33 | RAR 5% Recovery
Hard Rock, Hair Metal, Glam Metal | Deadline Music #CLP 5950

A superb collection of fan favorites by blues rockin 80s metal icons, Great White! Includes the band's signature hits Once Bitten Twice Shy, Rock Me and Save Your Love plus covers of Led Zeppelin, Journey, AC/DC, Lynyrd Skynyrd, Van Halen, Mötley Crüe, Aerosmith and more!
**********
Cleopatra's Essential Great White collection spans two discs and boasts 30 tracks, including the band’s two biggest hits, “Rock Me” and their cover of Ian Hunter's “Once Bitten, Twice Shy.” One can’t argue with the amount of material here, but listeners looking to relive their '80s metal heydays will smell only a trace amount of hairspray, as there is nothing here but re-recordings, covers, and live cuts.

~ James Christopher Monger, All Music
Great White - The Essential Great White (2011)


***************

Great White - The Essential Great White (2011)

Track List CD1:

01. Once Bitten, Twice Shy [05:20]
02. Rock Me [08:21]
03. Save Your Love [04:41]
04. Keep Your Hands To Yourself [03:29]
05. Hard To Handle [03:15]
06. Eye Of The Tiger [04:03]
07. Saturday Night Special [04:25]
08. Sin City [04:41]
09. Same Old Song & Dance [04:12]
10. No Matter What [02:47]
11. Kick Start My Heart [04:37]
12. Tangled Up In Blue [05:58]
13. Immigrant Song (Live) [02:23]
14. Burning House Of Love [03:54]
15. Stairway To Heaven (Live) [08:24]

Exact Audio Copy V1.0 beta 3 from 29. August 2011

EAC extraction logfile from 8. July 2016, 18:51

Great White / The Essential Great White

Used drive : PIONEER BD-RW BDR-TD03 Adapter: 0 ID: 1

Read mode : Secure
Utilize accurate stream : Yes
Defeat audio cache : Yes
Make use of C2 pointers : No

Read offset correction : 667
Overread into Lead-In and Lead-Out : No
Fill up missing offset samples with silence : Yes
Delete leading and trailing silent blocks : No
Null samples used in CRC calculations : Yes
Used interface : Native Win32 interface for Win NT & 2000

Used output format : User Defined Encoder
Selected bitrate : 768 kBit/s
Quality : High
Add ID3 tag : No
Command line compressor : C:\Program Files (x86)\Exact Audio Copy\FLAC\FLAC.EXE
Additional command line options : -6 -V -T "ARTIST=%artist%" -T "TITLE=%title%" -T "ALBUM=%albumtitle%" -T "DATE=%year%" -T "TRACKNUMBER=%tracknr%" -T "GENRE=%genre%" -T "COMMENT=%comment%" -T "BAND=%albuminterpret%" -T "ALBUMARTIST=%albuminterpret%" -T "COMPOSER=%composer%" %haslyrics%–tag-from-file=LYRICS="%lyricsfile%"%haslyrics% -T "DISCNUMBER=%cdnumber%" -T "TOTALDISCS=%totalcds%" -T "TOTALTRACKS=%numtracks%" %hascover%–picture="%coverfile%"%hascover% %source% -o %dest%


TOC of the extracted CD

Track | Start | Length | Start sector | End sector
––––––––––––––––––––––––––––-
1 | 0:00.00 | 5:19.01 | 0 | 23925
2 | 5:19.01 | 8:20.64 | 23926 | 61489
3 | 13:39.65 | 4:40.60 | 61490 | 82549
4 | 18:20.50 | 3:28.56 | 82550 | 98205
5 | 21:49.31 | 3:14.59 | 98206 | 112814
6 | 25:04.15 | 4:02.21 | 112815 | 130985
7 | 29:06.36 | 4:24.30 | 130986 | 150815
8 | 33:30.66 | 4:40.56 | 150816 | 171871
9 | 38:11.47 | 4:11.53 | 171872 | 190749
10 | 42:23.25 | 2:46.73 | 190750 | 203272
11 | 45:10.23 | 4:36.45 | 203273 | 224017
12 | 49:46.68 | 5:57.40 | 224018 | 250832
13 | 55:44.33 | 2:22.30 | 250833 | 261512
14 | 58:06.63 | 3:53.57 | 261513 | 279044
15 | 62:00.45 | 8:24.00 | 279045 | 316844


Range status and errors

Selected range

Filename C:\Users\Deris\Desktop\GrWhiExt\cd1\Great White - The Essential Great White.wav

Peak level 99.7 %
Extraction speed 2.0 X
Range quality 100.0 %
Test CRC 0C6CE7CE
Copy CRC 0C6CE7CE
Copy OK

No errors occurred


AccurateRip summary

Track 1 accurately ripped (confidence 1) [20D86F04] (AR v2)
Track 2 accurately ripped (confidence 1) [D2C73043] (AR v2)
Track 3 accurately ripped (confidence 1) [7797F015] (AR v2)
Track 4 accurately ripped (confidence 1) [FF0FF92F] (AR v2)
Track 5 accurately ripped (confidence 1) [65F77C1A] (AR v2)
Track 6 accurately ripped (confidence 1) [183349F5] (AR v2)
Track 7 accurately ripped (confidence 1) [58A2BE9B] (AR v2)
Track 8 accurately ripped (confidence 1) [C753263A] (AR v2)
Track 9 accurately ripped (confidence 1) [51928141] (AR v2)
Track 10 accurately ripped (confidence 1) [2943AE49] (AR v2)
Track 11 accurately ripped (confidence 1) [1CF8E862] (AR v2)
Track 12 accurately ripped (confidence 1) [146739B4] (AR v2)
Track 13 accurately ripped (confidence 1) [CFA3E066] (AR v2)
Track 14 accurately ripped (confidence 1) [420EEDD0] (AR v2)
Track 15 accurately ripped (confidence 1) [230CCB34] (AR v2)

All tracks accurately ripped

End of status report

–– CUETools DB Plugin V2.1.3

[CTDB TOCID: O.4.C5U8wso4YtU_fNjjsXHq16w-] disk not present in database, Submit result: O.4.C5U8wso4YtU_fNjjsXHq16w- has been uploaded


==== Log checksum C25E0D373453E4A31370848C1DE898CFF1D4FA51F685366A3BA463334A0347E5 ====

[CUETools log; Date: 11.07.2016 22:24:44; Version: 2.1.5]
[CTDB TOCID: O.4.C5U8wso4YtU_fNjjsXHq16w-] found.
Track | CTDB Status
1 | (1/1) Accurately ripped
2 | (1/1) Accurately ripped
3 | (1/1) Accurately ripped
4 | (1/1) Accurately ripped
5 | (1/1) Accurately ripped
6 | (1/1) Accurately ripped
7 | (1/1) Accurately ripped
8 | (1/1) Accurately ripped
9 | (1/1) Accurately ripped
10 | (1/1) Accurately ripped
11 | (1/1) Accurately ripped
12 | (1/1) Accurately ripped
13 | (1/1) Accurately ripped
14 | (1/1) Accurately ripped
15 | (1/1) Accurately ripped
[AccurateRip ID: 00270bda-01b17f2e-be10800f] found.
Track [ CRC | V2 ] Status
01 [5ae0cf5c|20d86f04] (0+1/1) Accurately ripped
02 [2e1a3d7d|d2c73043] (0+1/1) Accurately ripped
03 [db7d3f28|7797f015] (0+1/1) Accurately ripped
04 [f66222e7|ff0ff92f] (0+1/1) Accurately ripped
05 [09e9b818|65f77c1a] (0+1/1) Accurately ripped
06 [12f887e2|183349f5] (0+1/1) Accurately ripped
07 [dc5db25a|58a2be9b] (0+1/1) Accurately ripped
08 [62632d54|c753263a] (0+1/1) Accurately ripped
09 [2f294b50|51928141] (0+1/1) Accurately ripped
10 [a930ef5d|2943ae49] (0+1/1) Accurately ripped
11 [2e9f52b7|1cf8e862] (0+1/1) Accurately ripped
12 [bc25ede7|146739b4] (0+1/1) Accurately ripped
13 [18c3c575|cfa3e066] (0+1/1) Accurately ripped
14 [26c4c4be|420eedd0] (0+1/1) Accurately ripped
15 [d9a73001|230ccb34] (0+1/1) Accurately ripped

Track Peak [ CRC32 ] [W/O NULL] [ LOG ]
– 99,7 [0C6CE7CE] [10D66467] CRC32
01 94,1 [FB60810A] [8101B3DC]
02 98,6 [73997463] [88D896DD]
03 98,4 [D759B37C] [C6A8C990]
04 99,7 [2D45CA4D] [5C2FFDBB]
05 99,7 [84AA5CA9] [D84EA213]
06 99,7 [D9BCFF96] [46D55BAB]
07 90,5 [886AB07D] [DFBE709F]
08 96,3 [06CA896B] [244BEDE6]
09 95,7 [C36F8A1E] [75589D33]
10 98,6 [7DC70618] [8AA4AF00]
11 99,7 [263E0485] [CCD00E07]
12 98,0 [F0A2ACEA] [B8A9A6A6]
13 99,7 [F0E0F740] [FCF47E07]
14 99,0 [CD6AC875] [55FA2BB9]
15 98,8 [5BE73E30] [F5C93C8E]

Great White - The Essential Great White (2011)

Track List CD2:

01. Any Way You Want It [03:10]
02. Unchained [03:26]
03. Love Removal Machine [04:33]
04. Diamonds & Rust [03:34]
05. Ready For Love [04:43]
06. All My Love (Live) [06:13]
07. D'yer Maker (Live) [04:47]
08. Down At The Doctors [03:41]
09. Again And Again [03:43]
10. Sarah [03:19]
11. Ramble On (Live) [04:42]
12. Lady Love [03:15]
13. Ain't No Way To Treat A Lady [02:37]
14. Dazed & Confused [06:37]
15. Blue Christmas [02:20]

Exact Audio Copy V1.0 beta 3 from 29. August 2011

EAC extraction logfile from 9. July 2016, 0:38

Great White / The Essential Great White (Disc 2)

Used drive : PIONEER BD-RW BDR-TD03 Adapter: 0 ID: 1

Read mode : Secure
Utilize accurate stream : Yes
Defeat audio cache : Yes
Make use of C2 pointers : No

Read offset correction : 667
Overread into Lead-In and Lead-Out : No
Fill up missing offset samples with silence : Yes
Delete leading and trailing silent blocks : No
Null samples used in CRC calculations : Yes
Used interface : Native Win32 interface for Win NT & 2000

Used output format : User Defined Encoder
Selected bitrate : 768 kBit/s
Quality : High
Add ID3 tag : No
Command line compressor : C:\Program Files (x86)\Exact Audio Copy\FLAC\FLAC.EXE
Additional command line options : -6 -V -T "ARTIST=%artist%" -T "TITLE=%title%" -T "ALBUM=%albumtitle%" -T "DATE=%year%" -T "TRACKNUMBER=%tracknr%" -T "GENRE=%genre%" -T "COMMENT=%comment%" -T "BAND=%albuminterpret%" -T "ALBUMARTIST=%albuminterpret%" -T "COMPOSER=%composer%" %haslyrics%–tag-from-file=LYRICS="%lyricsfile%"%haslyrics% -T "DISCNUMBER=%cdnumber%" -T "TOTALDISCS=%totalcds%" -T "TOTALTRACKS=%numtracks%" %hascover%–picture="%coverfile%"%hascover% %source% -o %dest%


TOC of the extracted CD

Track | Start | Length | Start sector | End sector
––––––––––––––––––––––––––––-
1 | 0:00.00 | 3:09.74 | 0 | 14248
2 | 3:09.74 | 3:25.14 | 14249 | 29637
3 | 6:35.13 | 4:32.11 | 29638 | 50048
4 | 11:07.24 | 3:33.41 | 50049 | 66064
5 | 14:40.65 | 4:42.68 | 66065 | 87282
6 | 19:23.58 | 6:12.23 | 87283 | 115205
7 | 25:36.06 | 4:46.50 | 115206 | 136705
8 | 30:22.56 | 3:40.56 | 136706 | 153261
9 | 34:03.37 | 3:42.03 | 153262 | 169914
10 | 37:45.40 | 3:18.61 | 169915 | 184825
11 | 41:04.26 | 4:41.58 | 184826 | 205958
12 | 45:46.09 | 3:14.33 | 205959 | 220541
13 | 49:00.42 | 2:36.23 | 220542 | 232264
14 | 51:36.65 | 6:36.39 | 232265 | 262003
15 | 58:13.29 | 2:19.32 | 262004 | 272460


Range status and errors

Selected range

Filename C:\Users\Deris\Desktop\GrWhiExt\cd2\Great White - The Essential Great White (Disc 2).wav

Peak level 99.7 %
Extraction speed 1.7 X
Range quality 99.9 %
Test CRC 5A9872E1
Copy CRC 5A9872E1
Copy OK

No errors occurred


AccurateRip summary

Track 1 accurately ripped (confidence 1) [FC190308] (AR v2)
Track 2 accurately ripped (confidence 1) [21C94A0C] (AR v2)
Track 3 accurately ripped (confidence 1) [2353BD9A] (AR v2)
Track 4 accurately ripped (confidence 1) [32603AE7] (AR v2)
Track 5 accurately ripped (confidence 1) [3638F81B] (AR v2)
Track 6 cannot be verified as accurate (confidence 1) [C9D78FC5], AccurateRip returned [A7496D22] (AR v2)
Track 7 cannot be verified as accurate (confidence 1) [58437ABA], AccurateRip returned [A1B1433C] (AR v2)
Track 8 accurately ripped (confidence 1) [F89EC74E] (AR v2)
Track 9 accurately ripped (confidence 1) [8A5CD0D5] (AR v2)
Track 10 accurately ripped (confidence 1) [E9ED7D39] (AR v2)
Track 11 accurately ripped (confidence 1) [A5370AE5] (AR v2)
Track 12 accurately ripped (confidence 1) [68B0485B] (AR v2)
Track 13 accurately ripped (confidence 1) [92CE617A] (AR v2)
Track 14 accurately ripped (confidence 1) [BBBF2DFF] (AR v2)
Track 15 accurately ripped (confidence 1) [B3F74F12] (AR v2)

13 track(s) accurately ripped
2 track(s) could not be verified as accurate

Some tracks could not be verified as accurate

End of status report

–– CUETools DB Plugin V2.1.3

[CTDB TOCID: c9xIsISxLuF3A_Gv0GmFChQPgY8-] disk not present in database, Submit result: c9xIsISxLuF3A_Gv0GmFChQPgY8- has been uploaded


==== Log checksum 75818589B7B4F38917336076B2FF05EEC53BC7042111084E3C6D642054D18932 ====

[CUETools log; Date: 11.07.2016 22:27:18; Version: 2.1.5]
[CTDB TOCID: c9xIsISxLuF3A_Gv0GmFChQPgY8-] found.
Track | CTDB Status
1 | (1/1) Accurately ripped
2 | (1/1) Accurately ripped
3 | (1/1) Accurately ripped
4 | (1/1) Accurately ripped
5 | (1/1) Accurately ripped
6 | (1/1) Accurately ripped
7 | (1/1) Accurately ripped
8 | (1/1) Accurately ripped
9 | (1/1) Accurately ripped
10 | (1/1) Accurately ripped
11 | (1/1) Accurately ripped
12 | (1/1) Accurately ripped
13 | (1/1) Accurately ripped
14 | (1/1) Accurately ripped
15 | (1/1) Accurately ripped
[AccurateRip ID: 0021936e-017e6e68-f10e300f] found.
Track [ CRC | V2 ] Status
01 [59f54052|fc190308] (0+1/1) Accurately ripped
02 [885df20e|21c94a0c] (0+1/1) Accurately ripped
03 [15083a1c|2353bd9a] (0+1/1) Accurately ripped
04 [3855b37e|32603ae7] (0+1/1) Accurately ripped
05 [a591ab4c|3638f81b] (0+1/1) Accurately ripped
06 [75c4a250|c9d78fc5] (0+0/1) No match
07 [4180667b|58437aba] (0+0/1) No match
08 [a37d4096|f89ec74e] (0+1/1) Accurately ripped
09 [4eb1271c|8a5cd0d5] (0+1/1) Accurately ripped
10 [f60033e5|e9ed7d39] (0+1/1) Accurately ripped
11 [8cffa2e4|a5370ae5] (0+1/1) Accurately ripped
12 [33103f1b|68b0485b] (0+1/1) Accurately ripped
13 [5fdde96b|92ce617a] (0+1/1) Accurately ripped
14 [4434cf2f|bbbf2dff] (0+1/1) Accurately ripped
15 [98b9a150|b3f74f12] (0+1/1) Accurately ripped

Track Peak [ CRC32 ] [W/O NULL] [ LOG ]
– 99,7 [5A9872E1] [915EDC93] CRC32
01 97,5 [51130DCC] [3ED097A7]
02 99,0 [8399E498] [CA2DF236]
03 98,3 [C568506B] [EC74B1FE]
04 99,7 [E31521D7] [3A02E089]
05 98,8 [1C215B1E] [9B5156C9]
06 99,7 [8EAFB824] [FF1D002F]
07 99,7 [B78F5CC5] [D358C681]
08 99,7 [A683C564] [DDCEDE70]
09 99,3 [ACEC32C2] [4FEDDEEB]
10 99,7 [9F4A5785] [CC0B2B15]
11 99,7 [30CCC166] [B9F3350B]
12 98,6 [19EEB993] [A611FC94]
13 97,8 [64B2F6C4] [4EFDADFF]
14 99,7 [3C0CDF31] [84D3AAA1]
15 99,7 [76A09E3A] [08D898A4]

Great White - The Essential Great White (2011)


All thanks go to Boris1

>>> Great White in my Blog <<<

DOWNLOAD: