Subcategories
Tags
Language
Tags

Goad - Masquerade (2011)

Posted By: gribovar
Goad - Masquerade (2011)

Goad - Masquerade (2011)
EAC Rip | FLAC (image+.cue+log) - 538 MB | MP3 CBR 320 kbps (LAME 3.93) - 185 MB | Covers (3 MB) included
Genre: Progressive Rock | RAR 3% Rec. | Label: Black Widow Records (BWRCD 122-2)

The band Goad was started in Florence, Italy by Gianni Rossi and his brother Maurilio during the late 1970s. They released their first album, Creatures at the end of 1983. The band, includes Maurilio Rossi (vocals, keyboards and guitar), Gianni Rossi, (guitar and backing vocals), Francesco Diddi, (flute, violin, guitars and sax), Vick Usai, (drums), Tommaso Baggiani, (drums), Luis Magnanimo, (bass), and Antonio Vannucci, (piano and keyboard). This is a fantastic prog journey back in time with original sounds. All the elements are there for a classic. Flutes, keys, electric guitar solos, drums, heavy bass and good vocals. The album also includes a big five part epic closer full of fantastic instrumentation and vocals. The sound feels like it was recorded live there is so much energy. At times you feel like you've been transported to a Deep Purple album, at others it's early Genesis.

Tracklist:
01. Fever Called Living
02. Eldorado pt.1
03. Eldorado pt.2
04. Last Knowledge pt.1
05. Last Knowledge pt.2
06. The Judge
07. Valley of Unrest
08. To Helen pt.1
09. To Helen pt.2
10. Alone
11. Masquerade (Fast & Short)
12. Intro (Classic Guitar Prelude)
13. Slave of the Holy Mountain
14. Dreamland
15. The Haunted Palace
Masquerade (With Dance Macabre):
16. part I (The dream)
17. part II (Incubus)
18. part III (Disturbance)
19. part IV (Sunrise)
20. part V (Final)

Total time: 01:17:08

Exact Audio Copy V0.99 prebeta 4 from 23. January 2008

Отчёт EAC об извлечении, выполненном 30. ноября 2011, 12:01

Goad / Masguerade

Дисковод: ASUS DRW-24B1ST Adapter: 4 ID: 0

Режим чтения : Достоверность
Использование точного потока : Да
Отключение кэша аудио : Да
Использование указателей C2 : Нет

Коррекция смещения при чтении : 6
Способность читать области Lead-in и Lead-out : Нет
Заполнение пропущенных сэмплов тишиной : Да
Удаление блоков с тишиной в начале и конце : Нет
При вычислениях CRC использовались нулевые сэмплы : Да
Интерфейс : Встроенный Win32-интерфейс для Win NT/2000

Выходной формат : Пользовательский кодировщик
Выбранный битрейт : 768 kBit/s
Качество : Высокий
Добавление ID3-тэга : Нет
Утилита сжатия : C:\Program Files\Exact Audio Copy\FLAC\FLAC.EXE
Дополнительные параметры : -6 -V -T "ARTIST=%a" -T "TITLE=%t" -T "ALBUM=%g" -T "DATE=%y" -T "TRACKNUMBER=%n" -T "GENRE=%m" -T "COMMENT=%e" %s -o %d


TOC извлечённого CD

Трек | Старт | Длительность | Начальный сектор | Конечный сектор
––––––––––––––––––––––––––––––––––-
1 | 0:00.00 | 6:32.39 | 0 | 29438
2 | 6:32.39 | 3:33.74 | 29439 | 45487
3 | 10:06.38 | 1:42.42 | 45488 | 53179
4 | 11:49.05 | 3:18.02 | 53180 | 68031
5 | 15:07.07 | 3:23.12 | 68032 | 83268
6 | 18:30.19 | 5:09.23 | 83269 | 106466
7 | 23:39.42 | 6:06.20 | 106467 | 133936
8 | 29:45.62 | 4:05.16 | 133937 | 152327
9 | 33:51.03 | 3:28.01 | 152328 | 167928
10 | 37:19.04 | 5:59.29 | 167929 | 194882
11 | 43:18.33 | 2:24.42 | 194883 | 205724
12 | 45:43.00 | 1:33.59 | 205725 | 212758
13 | 47:16.59 | 4:26.38 | 212759 | 232746
14 | 51:43.22 | 7:11.48 | 232747 | 265119
15 | 58:54.70 | 4:43.22 | 265120 | 286366
16 | 63:38.17 | 4:21.04 | 286367 | 305945
17 | 67:59.21 | 3:32.10 | 305946 | 321855
18 | 71:31.31 | 2:15.71 | 321856 | 332051
19 | 73:47.27 | 2:31.32 | 332052 | 343408
20 | 76:18.59 | 0:48.69 | 343409 | 347077


Характеристики диапазона извлечения и сообщения об ошибках

Выбранный диапазон

Имя файла C:\Torrent\purple\Goad - Masguerade.wav

Пиковый уровень 100.0 %
Качество диапазона 100.0 %
CRC теста 7CDD18DF
CRC копии 7CDD18DF
Копирование… OK

Ошибок не произошло


AccurateRip: сводка

Трек 1 нет в базе данных
Трек 2 нет в базе данных
Трек 3 нет в базе данных
Трек 4 нет в базе данных
Трек 5 нет в базе данных
Трек 6 нет в базе данных
Трек 7 нет в базе данных
Трек 8 нет в базе данных
Трек 9 нет в базе данных
Трек 10 нет в базе данных
Трек 11 нет в базе данных
Трек 12 нет в базе данных
Трек 13 нет в базе данных
Трек 14 нет в базе данных
Трек 15 нет в базе данных
Трек 16 нет в базе данных
Трек 17 нет в базе данных
Трек 18 нет в базе данных
Трек 19 нет в базе данных
Трек 20 нет в базе данных

Ни одного трека нет в базе AccurateRip

Конец отчёта

[CUETools log; Date: 16.01.2018 3:39:04; Version: 2.1.4]
[CTDB TOCID: kqzTnj9O7RbokodYWRFttLeool8-] found.
Track | CTDB Status
1 | (2/2) Accurately ripped
2 | (2/2) Accurately ripped
3 | (2/2) Accurately ripped
4 | (2/2) Accurately ripped
5 | (2/2) Accurately ripped
6 | (2/2) Accurately ripped
7 | (2/2) Accurately ripped
8 | (2/2) Accurately ripped
9 | (2/2) Accurately ripped
10 | (2/2) Accurately ripped
11 | (2/2) Accurately ripped
12 | (2/2) Accurately ripped
13 | (2/2) Accurately ripped
14 | (2/2) Accurately ripped
15 | (2/2) Accurately ripped
16 | (2/2) Accurately ripped
17 | (2/2) Accurately ripped
18 | (2/2) Accurately ripped
19 | (2/2) Accurately ripped
20 | (2/2) Accurately ripped
[AccurateRip ID: 003b538b-03623ff6-0a121314] found.
Track [ CRC | V2 ] Status
01 [1aa11005|cc77c8b8] (1+1/2) Accurately ripped
02 [cb86ac5b|4c822069] (1+1/2) Accurately ripped
03 [30712c6d|91cc1f9d] (1+1/2) Accurately ripped
04 [57069658|580acb17] (1+1/2) Accurately ripped
05 [0d679ed3|1818a62f] (1+1/2) Accurately ripped
06 [94afea18|1bd9e302] (1+1/2) Accurately ripped
07 [4d88be14|d61e585c] (1+1/2) Accurately ripped
08 [b7f4724f|b4ee6ddd] (1+1/2) Accurately ripped
09 [9d8392a2|fb2afe2c] (1+1/2) Accurately ripped
10 [54917c63|3a07d5b2] (1+1/2) Accurately ripped
11 [d0b49529|252dc760] (1+1/2) Accurately ripped
12 [c2cb28e6|21516dfa] (1+1/2) Accurately ripped
13 [1fb0a7b4|62c8e908] (1+1/2) Accurately ripped
14 [e4566579|41ebb952] (1+1/2) Accurately ripped
15 [55ba4d8d|3e6ba6ca] (1+1/2) Accurately ripped
16 [2648d51c|25b8cde2] (1+1/2) Accurately ripped
17 [7b47bb83|d666d64a] (1+1/2) Accurately ripped
18 [79ef5067|5cf3402f] (1+1/2) Accurately ripped
19 [64f4ebce|2397e1f9] (1+1/2) Accurately ripped
20 [86f5c431|c227455f] (1+1/2) Accurately ripped

Track Peak [ CRC32 ] [W/O NULL] [ LOG ]
– 100,0 [7CDD18DF] [B121E1D7] CRC32
01 99,1 [D107D400] [07B9D8AD]
02 98,9 [2F14EA05] [3DF49B29]
03 96,9 [A2B96C1E] [08EE0E67]
04 98,5 [1AE80154] [6D422915]
05 99,9 [7287811C] [8BD17D03]
06 100,0 [19276530] [54FA00E6]
07 99,8 [3B1D0717] [B8F13F4B]
08 99,2 [2A4E740A] [6BCDFEFD]
09 97,6 [4205C3CC] [2520C44F]
10 97,1 [B37BDA0D] [C789C7C7]
11 95,9 [6828F89B] [4EF7F39B]
12 73,6 [0FFECFFB] [7718BCDF]
13 100,0 [9A74E568] [4008CD42]
14 99,1 [F31A33DC] [A718923B]
15 95,4 [C77A021C] [2E98F643]
16 97,5 [BB671882] [5F1382B3]
17 96,2 [8BFF7F1E] [D169BFB6]
18 95,5 [A9AFF41D] [A0909F6D]
19 99,0 [477BD133] [0E8FB67A]
20 84,7 [BF92DBB5] [0AF965FB]

Thanks to pppurple