Subcategories

Eric Ericson, Rundfunkchor Stockholm, Stockholmer Kammerchor - European Choral Music (2014) 6CD Box Set

Posted By: Designol
Eric Ericson, Rundfunkchor Stockholm, Stockholmer Kammerchor - European Choral Music (2014) 6CD Box Set

Europäische Chormusik - European Choral Music (2014) 6CD Box Set
Eric Ericson, Rundfunkchor Stockholm, Stockholmer Kammerchor

EAC | FLAC | Image (Cue&Log) ~ 1.48 Gb | Mp3 (CBR320) ~ 942 Mb | Scans included
Classical, Choral | Label: Warner Classics | # 825646261505 | Time: 06:49:27

The great recordings of the "Nordic choral marvel": Swedish choral conductor Eric Ericson was one of the true legends in his field. When he died in 2013 at the age of 94, he had spent decades working to place his two Stockholm choirs among the international musical elite. His recordings from the 1970's enjoy real cult status – unique interpretations of a cappella works from the Renaissance to the 20th century, from Gesualdo to Penderecki, released here for the first time in a single box.

A persuasive choral director and conductor, Eric Ericson exerted an influence far beyond his native Sweden. Through tours of the Swedish Radio Choir, his own chamber choir, and guest appearances before other choral organizations and orchestras, Ericson won high praise for his ability to achieve clarity and adaptablity from his singers. Whether heard in 19th century Swedish music, the great choral works of the Baroque and Classical periods, or in works by contemporary composers, those who sang under Ericson found a unique purity of sound to serve his expressive ends.

Ericson's musical education was broad-based. After studies at the Stockholm Musikhögskolan in the years 1941 to 1943, he traveled to wartime Switzerland to train at Basel's Schola Cantorum, remaining there through 1949. Additional studies in England, America, and Germany preceded his appointment as Cantor at Stockholm's Jacobskirch in 1949. In 1953, he was made a professor at Stockholm Conservatory.

Several outstanding choral ensembles have benefited from his ministrations. In 1945, he founded the Stockholm Chamber Choir (later known as the Eric Ericson Chamber Choir), an a cappella ensemble that came to enjoy near-legendary status. Equally famous was the Swedish Radio Choir, founded by Ericson in 1951 and led by him until 1982. Performances by that choir prompted a number of symphony conductors to begin requesting Ericson's participation in their own choral projects. In addition, also from 1951, Ericson was artistic director and principal conductor of Orphei Drängar, the all-male choir in Uppsala, Sweden. During this same period, Ericson returned to Stockholm's Musikhögskolan as teacher and, from 1968, as professor of music.

After his retirement from post as principal conductor of the Swedish Radio Choir in 1982, Ericson undertook guest assignments worldwide. Notable collaborations were made with the Netherlands Chamber Choir, the Vienna State Opera Choir, the BBC Singers, the RIAS-Kammerchor, and the Groupe Vocal de France. In demand for choral master classes, Ericson worked with students and other choral directors at many major universities and music schools. Lured by the prospects of overseeing larger works, Ericson began to accept guest engagements with major orchestras in Europe, America, and the Far East. On other occasions, he served as choral director under such conductors as Harnoncourt and Muti. In 1995, Ericson was awarded the Nordic Council Music Prize. To mark his 80th birthday in 1998, the "Eric Ericson Chair in Choral Conducting" was established at Uppsala University.

Allmusic.com

Eric Ericson, Rundfunkchor Stockholm, Stockholmer Kammerchor - European Choral Music (2014) 6CD Box Set




Tracklist:

CD1 (01:03:39)

Johannes Brahms (1833-1897)
01. Fest- und Gedenksprüche, Op.109 (9:09)

Max Reger (1873-1916)
02. O Tod, wie bitter bist du, Op.110/3 (8:16)

Arnold Schönberg (1874-1951)
03. Friede auf Erden, Op.13 (8:36)

Richard Strauss (1864-1949)
04. Deutsche Motette, Op.62 (19:54)

Lars Edlund (1922-2013)
05. Elegi (11:46)

Béla Bartók (1881-1945)
Vier slowakische Volkslieder
06. I. Hochzeitslied aus Poniky (4:04)
07. II. Heu-Erntelied aus Hiadel (0:42)
08. III. Tanzlied aus Medzibrod (0:37)
09. IV. Tanzlied aus Poniky (0:36)


CD2 (01:08:52)

Béla Bartók
Ungarische Volkslieder
01. I. Der Gefangene (3:16)
02. II. Heimatlos (4:08)
03. III. Mutter, einen Mann! (1:34)
04. IV. Liebslied (3:01)

György Ligeti (1923-2006)
05. Morgen (1:15)
06. Nacht (3:06)
07. Lux aeterna (7:50)

Carlo Gesualdo (1566-1613)
08. Itene o miei sospiri (3:08)

Giovanni Gastoldi (1550-1622)
09. Amor vittorioso (0:59)

Claudio Monteverdi (1567-1643)
10. Ecco mormorar l'onde (2:58)

Gioachino Rossini (1792-1868)
11. I Gondolieri (4:15)
12. Toast pour le nouvel an (2:37)
13. La Passegiata (5:28)

Goffredo Petrassi (1904-2003)
Nonsense
14. I. C'era una signorina il cui naso (1:12)
15. II. C'era un vecchio musicale (1:02)
16. III. C'era un vecchio di Rovigo (1:52)
17. IV. C'era una signorina di Pozzillo (1:58)
18. V. C'era una vecchia di Polla (1:04)

Ildebrando Pizzetti (1880-1968)
Due composizioni corali
19. I. El giardino di Afrodite (4:26)
20. II. Piena sorgeva la luna (2:56)

Niccolò Castiglioni (1932-1996)
21. Gyro (Erdkreis) (10:47)


CD3 (01:17:22)

Claude Debussy (1862-1918)
Trois Chansons de Charles d'Orleans
01. I. Dieu! qu'il la fait bon regarder! (2:02)
02. II. Quant j'ai ouy le tabourin (2:01)
03. III. Yver, vous n'estes qu'un villain (2:12)

Henk Badings (1907-1987)
Trois Chansons bretonnes
04. I. La nuit en mer (2:43)
05. II. La complainte des ames (2:44)
06. III. Soir d'ete (2:38)

Maurice Ravel (1875-1937)
Trois Chansons
07. I. Nicolette (1:43)
08. II. Trois beaux oiseaux du Paradis (2:54)
09. III. Ronde (1:52)

Francis Poulenc (1899-1963)
Figure humaine
10. I. De tous les printemps du monde (2:31)
11. II. En chantant les servantes s'elancent (1:52)
12. III. Aussi bas que le silence (1:28)
13. IV. Toi ma patiente (1:58)
14. V. Riant du ciel et des planetes (1:05)
15. VI. Le jour m'etonne et la nuit me fait peur (1:30)
16. VII. La menace sous le ciel rouge (2:46)
17. VIII. Liberte (5:31)

Frank Martin (1890-1974)
Ariel-Chore aus Shakespeares Sturm
18. Come unto this yellow sands (1:29)
19. Full fathom five thy father lies (3:31)
20. Before you can say 'come' and 'go' (0:52)
21. You are three men of sin (3:37)
22. Where the bee sucks (1:20)

William Byrd (1543-1623)
23. This sweet and merry month (2:28)

John Dowland (1563-1626)
24. What if I never speed (1:52)

Thomas Morley (1557-1602)
25. Fire! Fire! (2:05)

Thomas Tallis (1505?-1585)
26. Spem in alium (9:13)

Benjamin Britten (1913-1976)
27. Hymn to St. Cecilia, Op.27 (11:24)


CD4 (01:02:50)

Claudio Monteverdi
Sestina 'Lagrime d'amante al sepolcro dell'amanta'
01. I. Incenerite spoglie (2:23)
02. II. Ditelo, o fiumi (1:21)
03. III. Dara la notte (2:13)
04. IV. Ma te raccoglie (2:08)
05. V. O chiome d'or (3:14)
06. VI. Dunque, amate reliquie (5:06)

Luigi Dallapiccola (1904-1975)
Sei cori di Michelangelo il Giovane
07. I. Il Coro delle Malmaritate (6:14)
08. II. Il Coro dei Malammogliati (5:01)

Ildebrando Pizzetti
Tre composizioni corali
09. I. Cade la sera (2:48)
10. II. Ululate, quia prope est dies Domini (5:03)
11. III. Recordare, Domine (8:29)

Lars Johan Werle (1926-2001)
12. Nautical Preludes (11:45)

Krzysztof Penderecki (b.1933)
13. Stabat Mater (7:05)


CD5 (01:10:06)

Max Reger
Acht geistliche Gesange, Op.138
01. I. Der Mensch lebt unt bestehet (2:56)
02. II. Morgengesang (2:16)
03. III. Nachtlied (3:08)
04. IV. Unser lieben Frauen Traum (2:11)
05. V. Kreuzfahrerlied (1:50)
06. VI. Das Agnus Dei (2:02)
07. VII. Schlachtgesang (2:10)
08. VIII. Wir glauben an einen Gott (2:04)

09. Ach, Herr, strafe mich nicht, Op.110 Nr. 2 (18:29)

Richard Strauss
10. Die Göttin im Putzzimmer (6:33)
11. Der Abend (13:00)

Francis Poulenc
Sept Chansons
12. I. La blanche neige (1:27)
13. II. A peine defiguree (1:38)
14. III. Par une nuit nouvelle (1:32)
15. IV. Tous les droits (2:43)
16. V. Belle et ressemblante (2:12)
17. VI. Marie (2:06)
18. VII. Luire (1:49)


CD6 (01:06:39)

André Jolivet (1905-1974)
Epithalame
01. I. Ouvrons les portes de l'amour (8:49)
02. II. Fille du souffle (8:04)
03. III. Au son de sa lyre (3:13)

Olivier Messiaen (1908-1993)
Cinq Rechants
04. I. Hayo kapritama (4:34)
05. II. Ma premiere fois terre (3:18)
06. III. Ma robe d'amour (4:19)
07. IV. Niokhama palalan souki (3:12)
08. V. Mayoma kalimolimo (4:35)

Frank Martin (1890-1974)
Messe
09. I. Kyrie (5:27)
10. II. Gloria (5:55)
11. III. Credo (6:25)
12. IV. Sanctus (4:16)
13. V. Agnus Dei (4:33)


Exact Audio Copy V1.0 beta 3 from 29. August 2011

EAC extraction logfile from 30. June 2015, 8:39

Rundfunkchor Stockholm, Eric Ericson / Eric Ericson - European Choral Music - CD1

Used drive : HL-DT-STDVDRAM GU70N Adapter: 0 ID: 0

Read mode : Secure
Utilize accurate stream : Yes
Defeat audio cache : Yes
Make use of C2 pointers : No

Read offset correction : 48
Overread into Lead-In and Lead-Out : No
Fill up missing offset samples with silence : Yes
Delete leading and trailing silent blocks : No
Null samples used in CRC calculations : Yes
Used interface : Native Win32 interface for Win NT & 2000

Used output format : User Defined Encoder
Selected bitrate : 128 kBit/s
Quality : High
Add ID3 tag : No
Command line compressor : C:\Program Files (x86)\Exact Audio Copy\Flac\flac.exe
Additional command line options : -V -8 -T "Date=%year%" -T "Genre=%genre%" %source%


TOC of the extracted CD

Track | Start | Length | Start sector | End sector
––––––––––––––––––––––––––––-
1 | 0:00.00 | 9:08.52 | 0 | 41151
2 | 9:08.52 | 8:16.00 | 41152 | 78351
3 | 17:24.52 | 8:36.00 | 78352 | 117051
4 | 26:00.52 | 19:54.00 | 117052 | 206601
5 | 45:54.52 | 11:46.00 | 206602 | 259551
6 | 57:40.52 | 4:03.40 | 259552 | 277816
7 | 61:44.17 | 0:41.45 | 277817 | 280936
8 | 62:25.62 | 0:36.48 | 280937 | 283684
9 | 63:02.35 | 0:36.17 | 283685 | 286401


Range status and errors

Selected range

Filename C:\temp\Eric Ericson - European Choral Music\CD1\Eric Ericson - European Choral Music - CD1.wav

Peak level 96.7 %
Extraction speed 2.2 X
Range quality 100.0 %
Test CRC 1AFD6622
Copy CRC 1AFD6622
Copy OK

No errors occurred


AccurateRip summary

Track 1 cannot be verified as accurate (confidence 4) [938303D4], AccurateRip returned [AB5B5E77] (AR v2)
Track 2 cannot be verified as accurate (confidence 4) [3D7497C6], AccurateRip returned [0FDC49F4] (AR v2)
Track 3 cannot be verified as accurate (confidence 4) [A47201A0], AccurateRip returned [AB276CE2] (AR v2)
Track 4 cannot be verified as accurate (confidence 4) [07848D25], AccurateRip returned [342C356E] (AR v2)
Track 5 cannot be verified as accurate (confidence 4) [746446C1], AccurateRip returned [36508620] (AR v2)
Track 6 cannot be verified as accurate (confidence 4) [FFD87BF5], AccurateRip returned [34C591E9] (AR v2)
Track 7 cannot be verified as accurate (confidence 4) [D2EBF7E4], AccurateRip returned [7F3FA27A] (AR v2)
Track 8 cannot be verified as accurate (confidence 4) [C2753A2F], AccurateRip returned [E52F9267] (AR v2)
Track 9 cannot be verified as accurate (confidence 4) [C2271766], AccurateRip returned [04337931] (AR v2)

No tracks could be verified as accurate
You may have a different pressing from the one(s) in the database

End of status report

==== Log checksum E074AE405F735CE020A3467C229B7B29122A6F6E0FE6502CB19D44B568BAB85A ====

[CUETools log; Date: 11.10.2018 6:17:46; Version: 2.1.4]
[CTDB TOCID: .FlaTrfCvBDSaiheY7bo3FI_1BE-] found.
Track | CTDB Status
1 | (12/12) Accurately ripped
2 | (12/12) Accurately ripped
3 | (12/12) Accurately ripped
4 | (12/12) Accurately ripped
5 | (12/12) Accurately ripped
6 | (12/12) Accurately ripped
7 | (12/12) Accurately ripped
8 | (12/12) Accurately ripped
9 | (12/12) Accurately ripped
[AccurateRip ID: 001bf27f-00c623cb-830eea09] found.
Track [ CRC | V2 ] Status
01 [2f622fc9|938303d4] (0+2/7) Accurately ripped
02 [9c10f986|3d7497c6] (0+2/7) Accurately ripped
03 [e2fa2108|a47201a0] (0+2/7) Accurately ripped
04 [41bd30ac|07848d25] (0+2/7) Accurately ripped
05 [72196640|746446c1] (0+2/7) Accurately ripped
06 [cad78aa5|ffd87bf5] (0+2/7) Accurately ripped
07 [b7fdc561|d2ebf7e4] (0+2/7) Accurately ripped
08 [b07ca346|c2753a2f] (0+2/7) Accurately ripped
09 [f2aa535b|c2271766] (0+2/7) Accurately ripped
Offsetted by -6:
01 [ab5b5e77] (3/7) Accurately ripped
02 [0fdc49f4] (3/7) Accurately ripped
03 [ab276ce2] (3/7) Accurately ripped
04 [342c356e] (3/7) Accurately ripped
05 [36508620] (3/7) Accurately ripped
06 [34c591e9] (3/7) Accurately ripped
07 [7f3fa27a] (3/7) Accurately ripped
08 [e52f9267] (3/7) Accurately ripped
09 [04337931] (3/7) Accurately ripped

Track Peak [ CRC32 ] [W/O NULL] [ LOG ]
– 96,7 [1AFD6622] [64F6D9A6] CRC32
01 77,6 [6DD859A0] [DF38847C]
02 83,4 [7E0790B8] [5FF06848]
03 72,6 [7339483D] [0A3283EB]
04 81,3 [51097045] [5884C663]
05 96,7 [CF52E253] [9C13E363]
06 69,6 [971C0B88] [03C30E5B]
07 45,1 [A333614B] [D979576A]
08 89,0 [A2F47F5E] [037A60AC]
09 92,4 [3472A1EA] [60D816C9]

foobar2000 1.2 / Dynamic Range Meter 1.1.1
log date: 2018-10-11 06:12:25

––––––––––––––––––––––––––––––––––––––––
Analyzed: Rundfunkchor Stockholm, Eric Ericson / Eric Ericson - European Choral Music - CD1
––––––––––––––––––––––––––––––––––––––––

DR Peak RMS Duration Track
––––––––––––––––––––––––––––––––––––––––
DR13 -2.19 dB -19.50 dB 9:09 01-Brahms: Fest- und Gedenksprüche, Op.109
DR14 -1.57 dB -23.02 dB 8:16 02-Reger: O Tod, wie bitter bist du, Op.110/3
DR12 -2.77 dB -21.21 dB 8:36 03-Schönberg: Friede auf Erden, Op.13
DR14 -0.29 dB -21.52 dB 11:46 05-Edlund: Elegi
––––––––––––––––––––––––––––––––––––––––

Number of tracks: 4
Official DR value: DR13

Samplerate: 44100 Hz
Channels: 2
Bits per sample: 16
Bitrate: 517 kbps
Codec: FLAC
================================================================================

––––––––––––––––––––––––––––––––––––––––
Analyzed: Stockholmer Kammerchor, Eric Ericson / Eric Ericson - European Choral Music - CD1
––––––––––––––––––––––––––––––––––––––––

DR Peak RMS Duration Track
––––––––––––––––––––––––––––––––––––––––
DR14 -1.79 dB -22.58 dB 19:54 04-Strauss: Deutsche Motette, Op.62
DR14 -3.14 dB -24.98 dB 4:04 06-Bartok: Vier slowakische Volkslieder - I. Hochzeitslied aus Poniky
DR12 -6.90 dB -24.31 dB 0:42 07-Bartok: Vier slowakische Volkslieder - II. Heu-Erntelied aus Hiadel
DR10 -1.00 dB -19.04 dB 0:37 08-Bartok: Vier slowakische Volkslieder - III. Tanzlied aus Medzibrod
DR11 -0.68 dB -15.23 dB 0:36 09-Bartok: Vier slowakische Volkslieder - IV. Tanzlied aus Poniky
––––––––––––––––––––––––––––––––––––––––

Number of tracks: 5
Official DR value: DR12

Samplerate: 44100 Hz
Channels: 2
Bits per sample: 16
Bitrate: 517 kbps
Codec: FLAC
================================================================================


Exact Audio Copy V1.0 beta 3 from 29. August 2011

EAC extraction logfile from 1. July 2015, 1:46

Rundfunkchor Stockholm, Eric Ericson / Eric Ericson - European Choral Music - CD2

Used drive : HL-DT-STDVDRAM GU70N Adapter: 0 ID: 0

Read mode : Secure
Utilize accurate stream : Yes
Defeat audio cache : Yes
Make use of C2 pointers : No

Read offset correction : 48
Overread into Lead-In and Lead-Out : No
Fill up missing offset samples with silence : Yes
Delete leading and trailing silent blocks : No
Null samples used in CRC calculations : Yes
Used interface : Native Win32 interface for Win NT & 2000

Used output format : User Defined Encoder
Selected bitrate : 128 kBit/s
Quality : High
Add ID3 tag : No
Command line compressor : C:\Program Files (x86)\Exact Audio Copy\Flac\flac.exe
Additional command line options : -V -8 -T "Date=%year%" -T "Genre=%genre%" %source%


TOC of the extracted CD

Track | Start | Length | Start sector | End sector
––––––––––––––––––––––––––––-
1 | 0:00.00 | 3:16.17 | 0 | 14716
2 | 3:16.17 | 4:07.58 | 14717 | 33299
3 | 7:24.00 | 1:33.42 | 33300 | 40316
4 | 8:57.42 | 3:01.08 | 40317 | 53899
5 | 11:58.50 | 1:15.00 | 53900 | 59524
6 | 13:13.50 | 3:06.00 | 59525 | 73474
7 | 16:19.50 | 7:50.00 | 73475 | 108724
8 | 24:09.50 | 3:08.00 | 108725 | 122824
9 | 27:17.50 | 0:59.00 | 122825 | 127249
10 | 28:16.50 | 2:58.00 | 127250 | 140599
11 | 31:14.50 | 4:15.00 | 140600 | 159724
12 | 35:29.50 | 2:37.00 | 159725 | 171499
13 | 38:06.50 | 5:28.00 | 171500 | 196099
14 | 43:34.50 | 1:11.60 | 196100 | 201484
15 | 44:46.35 | 1:02.37 | 201485 | 206171
16 | 45:48.72 | 1:52.13 | 206172 | 214584
17 | 47:41.10 | 1:57.57 | 214585 | 223416
18 | 49:38.67 | 1:03.58 | 223417 | 228199
19 | 50:42.50 | 4:25.50 | 228200 | 248124
20 | 55:08.25 | 2:56.25 | 248125 | 261349
21 | 58:04.50 | 10:47.00 | 261350 | 309874


Range status and errors

Selected range

Filename C:\temp\Eric Ericson - European Choral Music\CD2\Eric Ericson - European Choral Music - CD2.wav

Peak level 97.7 %
Extraction speed 2.2 X
Range quality 100.0 %
Test CRC FFF8D951
Copy CRC FFF8D951
Copy OK

No errors occurred


AccurateRip summary

Track 1 cannot be verified as accurate (confidence 4) [75818648], AccurateRip returned [0A825036] (AR v2)
Track 2 cannot be verified as accurate (confidence 4) [DC3234C5], AccurateRip returned [10814422] (AR v2)
Track 3 cannot be verified as accurate (confidence 4) [29CB9212], AccurateRip returned [B3E5D284] (AR v2)
Track 4 cannot be verified as accurate (confidence 4) [EE655F6B], AccurateRip returned [3BD430CC] (AR v2)
Track 5 cannot be verified as accurate (confidence 4) [187A1122], AccurateRip returned [8CD6CD98] (AR v2)
Track 6 cannot be verified as accurate (confidence 4) [9DDE61FC], AccurateRip returned [6F786C50] (AR v2)
Track 7 cannot be verified as accurate (confidence 4) [1359D9E0], AccurateRip returned [C8269D44] (AR v2)
Track 8 cannot be verified as accurate (confidence 4) [DF8BF873], AccurateRip returned [DE619914] (AR v2)
Track 9 cannot be verified as accurate (confidence 4) [DDD06C15], AccurateRip returned [B3DC90DB] (AR v2)
Track 10 cannot be verified as accurate (confidence 4) [2E0260A1], AccurateRip returned [C85E341A] (AR v2)
Track 11 cannot be verified as accurate (confidence 4) [4A00816A], AccurateRip returned [3B06621A] (AR v2)
Track 12 cannot be verified as accurate (confidence 4) [CD11EA74], AccurateRip returned [1ACDE1D3] (AR v2)
Track 13 cannot be verified as accurate (confidence 4) [0C40CBD4], AccurateRip returned [03F0CCAF] (AR v2)
Track 14 cannot be verified as accurate (confidence 4) [DE9B1A78], AccurateRip returned [FC092742] (AR v2)
Track 15 cannot be verified as accurate (confidence 4) [2EB87DFB], AccurateRip returned [867D6311] (AR v2)
Track 16 cannot be verified as accurate (confidence 3) [48FEFF35], AccurateRip returned [7F2E206D] (AR v2)
Track 17 cannot be verified as accurate (confidence 4) [2337CFB2], AccurateRip returned [B84F9882] (AR v2)
Track 18 cannot be verified as accurate (confidence 4) [F2BC03DB], AccurateRip returned [F8ABB229] (AR v2)
Track 19 cannot be verified as accurate (confidence 4) [C57B26F8], AccurateRip returned [6BE4D19B] (AR v2)
Track 20 cannot be verified as accurate (confidence 4) [A8375444], AccurateRip returned [71519B40] (AR v2)
Track 21 cannot be verified as accurate (confidence 3) [C4211443], AccurateRip returned [A5C5BE62] (AR v2)

No tracks could be verified as accurate
You may have a different pressing from the one(s) in the database

End of status report

==== Log checksum 442DEA433DF98F8E69B175E7A7FD869B4F05AD24B6D63BA9B5EF86DC88F81C13 ====

[CUETools log; Date: 11.10.2018 6:18:53; Version: 2.1.4]
[CTDB TOCID: FZA9TbnAgSzVx9u4YqI_FYdUBy8-] found.
Track | CTDB Status
1 | (12/16) Accurately ripped
2 | (12/16) Accurately ripped
3 | (12/16) Accurately ripped
4 | (12/16) Accurately ripped
5 | (12/16) Accurately ripped
6 | (12/16) Accurately ripped
7 | (12/16) Accurately ripped
8 | (12/16) Accurately ripped
9 | (12/16) Accurately ripped
10 | (12/16) Accurately ripped
11 | (12/16) Accurately ripped
12 | (12/16) Accurately ripped
13 | (12/16) Accurately ripped
14 | (12/16) Accurately ripped
15 | (12/16) Accurately ripped
16 | (12/16) Accurately ripped
17 | (12/16) Accurately ripped
18 | (12/16) Accurately ripped
19 | (12/16) Accurately ripped
20 | (12/16) Accurately ripped
21 | (12/16) Accurately ripped
[AccurateRip ID: 0030c120-02e748c9-4d102315] found.
Track [ CRC | V2 ] Status
01 [40a7e0ef|75818648] (00+02/10) Accurately ripped
02 [12617c97|dc3234c5] (00+02/10) Accurately ripped
03 [5f9df62a|29cb9212] (00+02/10) Accurately ripped
04 [b2935ac0|ee655f6b] (00+02/10) Accurately ripped
05 [6c5a1148|187a1122] (00+02/10) Accurately ripped
06 [f6a30348|9dde61fc] (00+02/10) Accurately ripped
07 [ce8fe22e|1359d9e0] (00+02/10) Accurately ripped
08 [c6e6aa1e|df8bf873] (00+02/10) Accurately ripped
09 [16be083d|ddd06c15] (00+02/10) Accurately ripped
10 [d601786e|2e0260a1] (00+02/10) Accurately ripped
11 [3413d6ec|4a00816a] (00+02/10) Accurately ripped
12 [ea0bee13|cd11ea74] (00+02/10) Accurately ripped
13 [adcca4a1|0c40cbd4] (00+02/10) Accurately ripped
14 [5d75b971|de9b1a78] (00+02/10) Accurately ripped
15 [68d2ea6c|2eb87dfb] (00+02/10) Accurately ripped
16 [5ae6eb08|48feff35] (00+02/09) Accurately ripped
17 [5094b261|2337cfb2] (00+02/10) Accurately ripped
18 [b0b1bad5|f2bc03db] (00+02/10) Accurately ripped
19 [384453dc|c57b26f8] (00+02/10) Accurately ripped
20 [b1154bc3|a8375444] (00+02/10) Accurately ripped
21 [fb958842|c4211443] (00+02/09) Accurately ripped
Offsetted by -6:
01 [0a825036] (03/10) Accurately ripped
02 [10814422] (03/10) Accurately ripped
03 [b3e5d284] (03/10) Accurately ripped
04 [3bd430cc] (03/10) Accurately ripped
05 [8cd6cd98] (03/10) Accurately ripped
06 [6f786c50] (03/10) Accurately ripped
07 [c8269d44] (03/10) Accurately ripped
08 [de619914] (03/10) Accurately ripped
09 [b3dc90db] (03/10) Accurately ripped
10 [c85e341a] (03/10) Accurately ripped
11 [3b06621a] (03/10) Accurately ripped
12 [1acde1d3] (03/10) Accurately ripped
13 [03f0ccaf] (03/10) Accurately ripped
14 [fc092742] (03/10) Accurately ripped
15 [867d6311] (03/10) Accurately ripped
16 [7f2e206d] (02/09) Accurately ripped
17 [b84f9882] (03/10) Accurately ripped
18 [f8abb229] (03/10) Accurately ripped
19 [6be4d19b] (03/10) Accurately ripped
20 [71519b40] (03/10) Accurately ripped
21 [a5c5be62] (02/09) Accurately ripped

Track Peak [ CRC32 ] [W/O NULL] [ LOG ]
– 97,7 [FFF8D951] [D16EEF4D] CRC32
01 83,1 [E8EE0E90] [695EC0B7]
02 71,6 [48B3F7C5] [77F24DDB]
03 66,1 [6EF0C2A2] [812DC708]
04 73,6 [441F383C] [83D3F2A7]
05 76,2 [58A8F343] [E2F5A179]
06 79,5 [1C30982D] [DAC15E92]
07 76,6 [B74439C8] [D823F4F5]
08 82,6 [442F9B97] [54A39702]
09 47,5 [9DBE6BE3] [01C4E660]
10 58,7 [D3FA42BB] [052AE8B6]
11 89,5 [80183770] [B74F2CC7]
12 62,8 [C805E9C8] [F882C7A8]
13 94,4 [4C97DA14] [CE775E0F]
14 78,4 [28A802A0] [B0119274]
15 97,7 [81C27FD7] [068EA178]
16 19,7 [0661571D] [72A2D0A1]
17 66,2 [13C3EEE4] [DEDD7CD0]
18 72,1 [384882A9] [B6E99177]
19 50,4 [76E05E48] [2C881D67]
20 67,8 [1F84347F] [1A314D50]
21 92,1 [E8FB10EF] [FF93D2AB]

foobar2000 1.2 / Dynamic Range Meter 1.1.1
log date: 2018-10-11 06:12:54

––––––––––––––––––––––––––––––––––––––––
Analyzed: Rundfunkchor Stockholm, Eric Ericson / Eric Ericson - European Choral Music - CD2
––––––––––––––––––––––––––––––––––––––––

DR Peak RMS Duration Track
––––––––––––––––––––––––––––––––––––––––
DR13 -1.60 dB -22.57 dB 3:16 01-Bartok: Ungarische Volkslieder - I. Der Gefangene
DR14 -2.90 dB -24.24 dB 4:08 02-Bartok: Ungarische Volkslieder - II. Heimatlos
DR14 -3.59 dB -23.88 dB 1:34 03-Bartok: Ungarische Volkslieder - III. Mutter, einen Mann!
DR13 -2.65 dB -21.14 dB 3:01 04-Bartok: Ungarische Volkslieder - IV. Liebslied
DR10 -2.36 dB -18.35 dB 1:15 05-Ligeti: Morgen
DR15 -1.98 dB -25.15 dB 3:06 06-Ligeti: Nacht
DR10 -2.32 dB -18.51 dB 7:50 07-Ligeti: Lux aeterna
DR14 -2.11 dB -23.44 dB 1:12 14-Petrassi: Nonsense - I. C'era una signorina il cui naso
DR12 -0.20 dB -21.53 dB 1:02 15-Petrassi: Nonsense - II. C'era un vecchio musicale
DR12 -14.10 dB -32.07 dB 1:52 16-Petrassi: Nonsense - III. C'era un vecchio di Rovigo
DR15 -3.58 dB -25.91 dB 1:58 17-Petrassi: Nonsense - IV. C'era una signorina di Pozzillo
DR11 -2.84 dB -18.42 dB 1:04 18-Petrassi: Nonsense - V. C'era una vecchia di Polla
DR13 -0.71 dB -20.15 dB 10:47 21-Castiglioni: Gyro (Erdkreis)
––––––––––––––––––––––––––––––––––––––––

Number of tracks: 13
Official DR value: DR13

Samplerate: 44100 Hz
Channels: 2
Bits per sample: 16
Bitrate: 515 kbps
Codec: FLAC
================================================================================

––––––––––––––––––––––––––––––––––––––––
Analyzed: Stockholmer Kammerchor, Eric Ericson / Eric Ericson - European Choral Music - CD2
––––––––––––––––––––––––––––––––––––––––

DR Peak RMS Duration Track
––––––––––––––––––––––––––––––––––––––––
DR13 -1.66 dB -19.69 dB 3:08 08-Gesualdo: Itene o miei sospiri
DR12 -6.45 dB -24.00 dB 0:59 09-Gastoldi: Amor vittorioso
DR13 -4.62 dB -24.17 dB 2:58 10-Monteverdi: Ecco mormorar l'onde
DR13 -0.96 dB -20.97 dB 4:15 11-Rossini: I Gondolieri
DR16 -4.04 dB -26.78 dB 2:37 12-Rossini: Toast pour le nouvel an
DR15 -0.50 dB -21.47 dB 5:28 13-Rossini: La Passegiata
DR14 -5.93 dB -27.59 dB 4:26 19-Pizzetti: Due composizioni corali - I. El giardino di Afrodite
DR14 -3.37 dB -24.87 dB 2:56 20-Pizzetti: Due composizioni corali - II. Piena sorgeva la luna
––––––––––––––––––––––––––––––––––––––––

Number of tracks: 8
Official DR value: DR14

Samplerate: 44100 Hz
Channels: 2
Bits per sample: 16
Bitrate: 515 kbps
Codec: FLAC
================================================================================


Exact Audio Copy V1.0 beta 3 from 29. August 2011

EAC extraction logfile from 1. July 2015, 9:01

Stockholmer Kammerchor, Eric Ericson / Eric Ericson - European Choral Music - CD3

Used drive : HL-DT-STDVDRAM GU70N Adapter: 0 ID: 0

Read mode : Secure
Utilize accurate stream : Yes
Defeat audio cache : Yes
Make use of C2 pointers : No

Read offset correction : 48
Overread into Lead-In and Lead-Out : No
Fill up missing offset samples with silence : Yes
Delete leading and trailing silent blocks : No
Null samples used in CRC calculations : Yes
Used interface : Native Win32 interface for Win NT & 2000

Used output format : User Defined Encoder
Selected bitrate : 128 kBit/s
Quality : High
Add ID3 tag : No
Command line compressor : C:\Program Files (x86)\Exact Audio Copy\Flac\flac.exe
Additional command line options : -V -8 -T "Date=%year%" -T "Genre=%genre%" %source%


TOC of the extracted CD

Track | Start | Length | Start sector | End sector
––––––––––––––––––––––––––––-
1 | 0:00.00 | 2:01.72 | 0 | 9146
2 | 2:01.72 | 2:01.30 | 9147 | 18251
3 | 4:03.27 | 2:11.48 | 18252 | 28124
4 | 6:15.00 | 2:43.10 | 28125 | 40359
5 | 8:58.10 | 2:44.27 | 40360 | 52686
6 | 11:42.37 | 2:37.38 | 52687 | 64499
7 | 14:20.00 | 1:43.05 | 64500 | 72229
8 | 16:03.05 | 2:53.52 | 72230 | 85256
9 | 18:56.57 | 1:52.18 | 85257 | 93674
10 | 20:49.00 | 2:30.52 | 93675 | 104976
11 | 23:19.52 | 1:52.25 | 104977 | 113401
12 | 25:12.02 | 1:28.18 | 113402 | 120019
13 | 26:40.20 | 1:58.05 | 120020 | 128874
14 | 28:38.25 | 1:05.05 | 128875 | 133754
15 | 29:43.30 | 1:29.57 | 133755 | 140486
16 | 31:13.12 | 2:46.33 | 140487 | 152969
17 | 33:59.45 | 5:31.30 | 152970 | 177824
18 | 39:31.00 | 1:29.07 | 177825 | 184506
19 | 41:00.07 | 3:30.63 | 184507 | 200319
20 | 44:30.70 | 0:51.42 | 200320 | 204186
21 | 45:22.37 | 3:37.23 | 204187 | 220484
22 | 48:59.60 | 1:20.15 | 220485 | 226499
23 | 50:20.00 | 2:28.00 | 226500 | 237599
24 | 52:48.00 | 1:52.00 | 237600 | 245999
25 | 54:40.00 | 2:05.00 | 246000 | 255374
26 | 56:45.00 | 9:13.00 | 255375 | 296849
27 | 65:58.00 | 11:24.00 | 296850 | 348149


Range status and errors

Selected range

Filename C:\temp\Eric Ericson - European Choral Music\CD3\Eric Ericson - European Choral Music - CD3.wav

Peak level 97.8 %
Extraction speed 2.3 X
Range quality 99.9 %
Test CRC 04653D34
Copy CRC 04653D34
Copy OK

No errors occurred


AccurateRip summary

Track 1 cannot be verified as accurate (confidence 4) [8F1A0C31], AccurateRip returned [798DD7CB] (AR v2)
Track 2 cannot be verified as accurate (confidence 3) [6C51411C], AccurateRip returned [072ADDD6] (AR v2)
Track 3 cannot be verified as accurate (confidence 4) [29111062], AccurateRip returned [E9F53AB2] (AR v2)
Track 4 cannot be verified as accurate (confidence 4) [657978E0], AccurateRip returned [AD8C8B14] (AR v2)
Track 5 cannot be verified as accurate (confidence 4) [EFFA554C], AccurateRip returned [B2CD6E5E] (AR v2)
Track 6 cannot be verified as accurate (confidence 4) [02B082E9], AccurateRip returned [1215610C] (AR v2)
Track 7 cannot be verified as accurate (confidence 4) [132BD2DE], AccurateRip returned [EBE89AAB] (AR v2)
Track 8 cannot be verified as accurate (confidence 3) [1B34A57C], AccurateRip returned [DDE4FDFE] (AR v2)
Track 9 cannot be verified as accurate (confidence 4) [756B99BA], AccurateRip returned [02BBD94F] (AR v2)
Track 10 cannot be verified as accurate (confidence 4) [51C5D0C9], AccurateRip returned [6F908C8E] (AR v2)
Track 11 cannot be verified as accurate (confidence 4) [BFA016AB], AccurateRip returned [430C38A2] (AR v2)
Track 12 cannot be verified as accurate (confidence 4) [DD19C420], AccurateRip returned [61E063BC] (AR v2)
Track 13 cannot be verified as accurate (confidence 4) [B82BA9D0], AccurateRip returned [5BCA7FC5] (AR v2)
Track 14 cannot be verified as accurate (confidence 4) [0BD13269], AccurateRip returned [F2618572] (AR v2)
Track 15 cannot be verified as accurate (confidence 4) [138066A7], AccurateRip returned [9A660A0A] (AR v2)
Track 16 cannot be verified as accurate (confidence 4) [5CA0D3A1], AccurateRip returned [DAE52EE1] (AR v2)
Track 17 cannot be verified as accurate (confidence 4) [2BB5FF53], AccurateRip returned [E1832D2C] (AR v2)
Track 18 cannot be verified as accurate (confidence 4) [5B302A6C], AccurateRip returned [F35DC013] (AR v2)
Track 19 cannot be verified as accurate (confidence 4) [1AED7E5A], AccurateRip returned [8C6BDCCF] (AR v2)
Track 20 cannot be verified as accurate (confidence 4) [F069A6B0], AccurateRip returned [7C5F2DD5] (AR v2)
Track 21 cannot be verified as accurate (confidence 4) [2E31DC86], AccurateRip returned [FD3DE58C] (AR v2)
Track 22 cannot be verified as accurate (confidence 4) [2BFC34A3], AccurateRip returned [46F9B4F6] (AR v2)
Track 23 cannot be verified as accurate (confidence 4) [A4A7A48F], AccurateRip returned [27F3EAE6] (AR v2)
Track 24 cannot be verified as accurate (confidence 4) [68E45999], AccurateRip returned [3C7847B2] (AR v2)
Track 25 cannot be verified as accurate (confidence 4) [90066C07], AccurateRip returned [72305CFF] (AR v2)
Track 26 cannot be verified as accurate (confidence 4) [4DFA8351], AccurateRip returned [E8035182] (AR v2)
Track 27 cannot be verified as accurate (confidence 4) [390AA15D], AccurateRip returned [08AA16A9] (AR v2)

No tracks could be verified as accurate
You may have a different pressing from the one(s) in the database

End of status report

==== Log checksum 2154BFA920839FF79620C9146A7675571BFD196FDB7F28D469715123B8B66CAC ====

[CUETools log; Date: 11.10.2018 6:20:06; Version: 2.1.4]
[CTDB TOCID: 0iqZcbtPZOcMWIpHxw30PWb2rAY-] found.
Track | CTDB Status
1 | (12/16) Accurately ripped, or (4/16) differs in 150 samples @00:00:22-00:00:23
2 | (16/16) Accurately ripped
3 | (16/16) Accurately ripped
4 | (16/16) Accurately ripped
5 | (16/16) Accurately ripped
6 | (16/16) Accurately ripped
7 | (16/16) Accurately ripped
8 | (16/16) Accurately ripped
9 | (16/16) Accurately ripped
10 | (16/16) Accurately ripped
11 | (16/16) Accurately ripped
12 | (16/16) Accurately ripped
13 | (16/16) Accurately ripped
14 | (16/16) Accurately ripped
15 | (16/16) Accurately ripped
16 | (16/16) Accurately ripped
17 | (16/16) Accurately ripped
18 | (16/16) Accurately ripped
19 | (16/16) Accurately ripped
20 | (16/16) Accurately ripped
21 | (16/16) Accurately ripped
22 | (16/16) Accurately ripped
23 | (16/16) Accurately ripped
24 | (16/16) Accurately ripped
25 | (16/16) Accurately ripped
26 | (16/16) Accurately ripped
27 | (16/16) Accurately ripped
[AccurateRip ID: 003c5f26-049e5ee4-5612221b] found.
Track [ CRC | V2 ] Status
01 [b98be54b|8f1a0c31] (00+02/10) Accurately ripped
02 [418d990f|6c51411c] (00+02/09) Accurately ripped
03 [c97cb64f|29111062] (00+02/10) Accurately ripped
04 [36009c16|657978e0] (00+02/10) Accurately ripped
05 [5a4a8b2d|effa554c] (00+02/10) Accurately ripped
06 [210fe8e9|02b082e9] (00+02/10) Accurately ripped
07 [24f5b2d2|132bd2de] (00+02/10) Accurately ripped
08 [9295e9d4|1b34a57c] (00+02/09) Accurately ripped
09 [6565c7d6|756b99ba] (00+02/10) Accurately ripped
10 [1eb911ee|51c5d0c9] (00+02/10) Accurately ripped
11 [e73ce2e9|bfa016ab] (00+02/10) Accurately ripped
12 [d9d37297|dd19c420] (00+02/10) Accurately ripped
13 [aed5c564|b82ba9d0] (00+02/10) Accurately ripped
14 [907be4b6|0bd13269] (00+02/10) Accurately ripped
15 [88b2302d|138066a7] (00+02/10) Accurately ripped
16 [321c9db5|5ca0d3a1] (00+02/10) Accurately ripped
17 [053dfb40|2bb5ff53] (00+02/10) Accurately ripped
18 [f39e0c59|5b302a6c] (00+02/10) Accurately ripped
19 [0e198430|1aed7e5a] (00+02/10) Accurately ripped
20 [770c3320|f069a6b0] (00+02/10) Accurately ripped
21 [18ebe943|2e31dc86] (00+02/10) Accurately ripped
22 [065a18cf|2bfc34a3] (00+02/10) Accurately ripped
23 [fce276ee|a4a7a48f] (00+02/10) Accurately ripped
24 [ee492d76|68e45999] (00+02/10) Accurately ripped
25 [49099049|90066c07] (00+02/10) Accurately ripped
26 [8c5b2368|4dfa8351] (00+02/10) Accurately ripped
27 [ed0a1395|390aa15d] (00+02/10) Accurately ripped
Offsetted by -6:
01 [798dd7cb] (03/10) Accurately ripped
02 [072addd6] (02/09) Accurately ripped
03 [e9f53ab2] (03/10) Accurately ripped
04 [ad8c8b14] (03/10) Accurately ripped
05 [b2cd6e5e] (03/10) Accurately ripped
06 [1215610c] (03/10) Accurately ripped
07 [ebe89aab] (03/10) Accurately ripped
08 [dde4fdfe] (02/09) Accurately ripped
09 [02bbd94f] (03/10) Accurately ripped
10 [6f908c8e] (03/10) Accurately ripped
11 [430c38a2] (03/10) Accurately ripped
12 [61e063bc] (03/10) Accurately ripped
13 [5bca7fc5] (03/10) Accurately ripped
14 [f2618572] (03/10) Accurately ripped
15 [9a660a0a] (03/10) Accurately ripped
16 [dae52ee1] (03/10) Accurately ripped
17 [e1832d2c] (03/10) Accurately ripped
18 [f35dc013] (03/10) Accurately ripped
19 [8c6bdccf] (03/10) Accurately ripped
20 [7c5f2dd5] (03/10) Accurately ripped
21 [fd3de58c] (03/10) Accurately ripped
22 [46f9b4f6] (03/10) Accurately ripped
23 [27f3eae6] (03/10) Accurately ripped
24 [3c7847b2] (03/10) Accurately ripped
25 [72305cff] (03/10) Accurately ripped
26 [e8035182] (03/10) Accurately ripped
27 [08aa16a9] (03/10) Accurately ripped
Offsetted by -523:
01 [73959edc] (00/10) No match (V2 was not tested)
02 [9fa3d5da] (00/09) No match (V2 was not tested)
03 [a1420a86] (00/10) No match (V2 was not tested)
04 [31cd8364] (00/10) No match (V2 was not tested)
05 [0dee3ad9] (00/10) No match (V2 was not tested)
06 [45369232] (00/10) No match (V2 was not tested)
07 [729e7b11] (00/10) No match (V2 was not tested)
08 [7c0b4498] (00/09) No match (V2 was not tested)
09 [244b1b61] (00/10) No match (V2 was not tested)
10 [f9692796] (00/10) No match (V2 was not tested)
11 [6f5a0d01] (00/10) No match (V2 was not tested)
12 [7e528f5b] (00/10) No match (V2 was not tested)
13 [686c79b5] (00/10) No match (V2 was not tested)
14 [cb8ae2f7] (00/10) No match (V2 was not tested)
15 [c4b315c3] (00/10) No match (V2 was not tested)
16 [abcc515a] (00/10) No match (V2 was not tested)
17 [db251a77] (00/10) No match (V2 was not tested)
18 [094f314e] (00/10) No match (V2 was not tested)
19 [549e1227] (00/10) No match (V2 was not tested)
20 [ec4e1d96] (00/10) No match (V2 was not tested)
21 [d5340546] (00/10) No match (V2 was not tested)
22 [42602c09] (00/10) No match (V2 was not tested)
23 [a6fe738a] (00/10) No match (V2 was not tested)
24 [62a846e4] (00/10) No match (V2 was not tested)
25 [4c14eeec] (00/10) No match (V2 was not tested)
26 [171ed5ed] (00/10) No match (V2 was not tested)
27 [5505ca8f] (00/10) No match (V2 was not tested)

Track Peak [ CRC32 ] [W/O NULL] [ LOG ]
– 97,8 [04653D34] [4D692B09] CRC32
01 57,8 [802C0DB0] [195C81A6]
02 44,0 [8A189F27] [32C0A704]
03 97,8 [5EAD972F] [FE92E528]
04 52,2 [A4B15AEC] [6B77A53F]
05 54,6 [F075A4E1] [2AD3989D]
06 57,7 [45205BE8] [35FD6307]
07 67,5 [0179FDAA] [A703CF66]
08 61,0 [615CB990] [9B19357F]
09 74,0 [DA50D9C5] [8D845441]
10 84,2 [56BD000F] [8EF03C21]
11 86,2 [7287AC7C] [54F66DCF]
12 56,6 [B4135B57] [451B8216]
13 67,4 [0D476743] [757B9B66]
14 79,1 [B79F3BCE] [282A9438]
15 46,0 [28573D15] [BF90F0DD]
16 79,6 [76DC442A] [E0B3DA58]
17 77,2 [D7FC17BC] [C6AF29C1]
18 37,3 [0F248D56] [B9B84C69]
19 54,3 [8002124F] [1F88C8A3]
20 50,3 [8C5888D5] [A999186B]
21 94,8 [C186EE2E] [589EDA1A]
22 64,7 [B3C32D89] [72802A1C]
23 65,4 [CA878F79] [EC370891]
24 54,6 [DEC4AF6A] [280CCA55]
25 76,9 [157D6616] [ABBD6D2E]
26 89,9 [3DDADECE] [1CEC9FF6]
27 80,2 [7B47896F] [E112DE02]

foobar2000 1.2 / Dynamic Range Meter 1.1.1
log date: 2018-10-11 06:13:22

––––––––––––––––––––––––––––––––––––––––
Analyzed: Rundfunkchor Stockholm, Eric Ericson / Eric Ericson - European Choral Music - CD3
––––––––––––––––––––––––––––––––––––––––

DR Peak RMS Duration Track
––––––––––––––––––––––––––––––––––––––––
DR12 -1.49 dB -24.24 dB 2:31 10-Poulenc: Figure humaine - I. De tous les printemps du monde
DR14 -1.28 dB -24.93 dB 1:52 11-Poulenc: Figure humaine - II. En chantant les servantes s'elancent
DR13 -4.93 dB -28.49 dB 1:28 12-Poulenc: Figure humaine - III. Aussi bas que le silence
DR14 -3.43 dB -22.91 dB 1:58 13-Poulenc: Figure humaine - IV. Toi ma patiente
DR14 -2.03 dB -23.21 dB 1:05 14-Poulenc: Figure humaine - V. Riant du ciel et des planetes
DR12 -6.73 dB -24.79 dB 1:30 15-Poulenc: Figure humaine - VI. Le jour m'etonne et la nuit me fait peur
DR12 -1.98 dB -20.90 dB 2:46 16-Poulenc: Figure humaine - VII. La menace sous le ciel rouge
DR12 -2.24 dB -20.17 dB 5:31 17-Poulenc: Figure humaine - VIII. Liberte
DR12 -0.92 dB -18.03 dB 9:13 26-Tallis: Spem in alium
DR15 -1.91 dB -23.63 dB 11:24 27-Britten: Hymn to St. Cecilia, Op.27
––––––––––––––––––––––––––––––––––––––––

Number of tracks: 10
Official DR value: DR13

Samplerate: 44100 Hz
Channels: 2
Bits per sample: 16
Bitrate: 518 kbps
Codec: FLAC
================================================================================

––––––––––––––––––––––––––––––––––––––––
Analyzed: Stockholmer Kammerchor, Eric Ericson / Eric Ericson - European Choral Music - CD3
––––––––––––––––––––––––––––––––––––––––

DR Peak RMS Duration Track
––––––––––––––––––––––––––––––––––––––––
DR12 -4.76 dB -24.85 dB 2:02 01-Debussy: Trois Chansons de Charles d'Orleans - I. Dieu! qu'il la fait bon regarder!
DR13 -7.13 dB -28.05 dB 2:01 02-Debussy: Trois Chansons de Charles d'Orleans - II. Quant j'ai ouy le tabourin
DR13 -0.19 dB -22.24 dB 2:12 03-Debussy: Trois Chansons de Charles d'Orleans - III. Yver, vous n'estes qu'un villain
DR14 -5.64 dB -26.75 dB 2:43 04-Badings: Trois Chansons bretonnes - I. La nuit en mer
DR14 -5.25 dB -26.56 dB 2:44 05-Badings: Trois Chansons bretonnes - II. La complainte des ames
DR12 -4.77 dB -24.91 dB 2:38 06-Badings: Trois Chansons bretonnes - III. Soir d'ete
DR12 -3.41 dB -23.38 dB 1:43 07-Ravel: Trois Chansons - I. Nicolette
DR16 -4.29 dB -26.38 dB 2:54 08-Ravel: Trois Chansons - II. Trois beaux oiseaux du Paradis
DR12 -2.61 dB -22.43 dB 1:52 09-Ravel: Trois Chansons - III. Ronde
DR13 -8.56 dB -28.33 dB 1:29 18-Martin: Ariel-Chore aus Shakespeares Sturm - Come unto this yellow sands
DR13 -5.30 dB -28.10 dB 3:31 19-Martin: Ariel-Chore aus Shakespeares Sturm - Full fathom five thy father lies
DR12 -5.95 dB -26.04 dB 0:52 20-Martin: Ariel-Chore aus Shakespeares Sturm - Before you can say 'come' and 'go'
DR14 -0.46 dB -21.92 dB 3:37 21-Martin: Ariel-Chore aus Shakespeares Sturm - You are three men of sin
DR12 -3.78 dB -23.47 dB 1:20 22-Martin: Ariel-Chore aus Shakespeares Sturm - Where the bee sucks
DR12 -3.69 dB -21.48 dB 2:28 23-Byrd: This sweet and merry month
DR13 -5.25 dB -23.29 dB 1:52 24-Dowland: What if I never speed
DR12 -2.27 dB -19.06 dB 2:05 25-Morley: Fire! Fire!
––––––––––––––––––––––––––––––––––––––––

Number of tracks: 17
Official DR value: DR13

Samplerate: 44100 Hz
Channels: 2
Bits per sample: 16
Bitrate: 518 kbps
Codec: FLAC
================================================================================


Exact Audio Copy V1.0 beta 3 from 29. August 2011

EAC extraction logfile from 3. July 2015, 2:39

Stockholmer Kammerchor, Eric Ericson / Eric Ericson - European Choral Music - CD4

Used drive : HL-DT-STDVDRAM GU70N Adapter: 0 ID: 0

Read mode : Secure
Utilize accurate stream : Yes
Defeat audio cache : Yes
Make use of C2 pointers : No

Read offset correction : 48
Overread into Lead-In and Lead-Out : No
Fill up missing offset samples with silence : Yes
Delete leading and trailing silent blocks : No
Null samples used in CRC calculations : Yes
Used interface : Native Win32 interface for Win NT & 2000

Used output format : User Defined Encoder
Selected bitrate : 128 kBit/s
Quality : High
Add ID3 tag : No
Command line compressor : C:\Program Files (x86)\Exact Audio Copy\Flac\flac.exe
Additional command line options : -V -8 -T "Date=%year%" -T "Genre=%genre%" %source%


TOC of the extracted CD

Track | Start | Length | Start sector | End sector
––––––––––––––––––––––––––––-
1 | 0:00.00 | 2:22.47 | 0 | 10696
2 | 2:22.47 | 1:21.30 | 10697 | 16801
3 | 3:44.02 | 2:13.23 | 16802 | 26799
4 | 5:57.25 | 2:08.07 | 26800 | 36406
5 | 8:05.32 | 3:13.65 | 36407 | 50946
6 | 11:19.22 | 5:05.68 | 50947 | 73889
7 | 16:25.15 | 6:13.47 | 73890 | 101911
8 | 22:38.62 | 5:01.23 | 101912 | 124509
9 | 27:40.10 | 2:47.55 | 124510 | 137089
10 | 30:27.65 | 5:02.60 | 137090 | 159799
11 | 35:30.50 | 8:29.32 | 159800 | 198006
12 | 44:00.07 | 11:45.03 | 198007 | 250884
13 | 55:45.10 | 7:04.40 | 250885 | 282724


Range status and errors

Selected range

Filename C:\temp\Eric Ericson - European Choral Music\CD4\Eric Ericson - European Choral Music - CD4.wav

Peak level 100.0 %
Extraction speed 2.2 X
Range quality 100.0 %
Test CRC 6EECE209
Copy CRC 6EECE209
Copy OK

No errors occurred


AccurateRip summary

Track 1 cannot be verified as accurate (confidence 4) [C06A6500], AccurateRip returned [EA43EF7B] (AR v2)
Track 2 cannot be verified as accurate (confidence 4) [037BFE81], AccurateRip returned [5A337B4D] (AR v2)
Track 3 cannot be verified as accurate (confidence 4) [92BCC854], AccurateRip returned [4B4A2F28] (AR v2)
Track 4 cannot be verified as accurate (confidence 3) [3934E191], AccurateRip returned [58865FDE] (AR v2)
Track 5 cannot be verified as accurate (confidence 4) [980C8AEF], AccurateRip returned [4C0006B1] (AR v2)
Track 6 cannot be verified as accurate (confidence 4) [14EB3952], AccurateRip returned [E7A14400] (AR v2)
Track 7 cannot be verified as accurate (confidence 4) [09FD20CE], AccurateRip returned [12609E06] (AR v2)
Track 8 cannot be verified as accurate (confidence 4) [CF1614D8], AccurateRip returned [5BCC276C] (AR v2)
Track 9 cannot be verified as accurate (confidence 4) [5CE6E1E4], AccurateRip returned [A630F5DE] (AR v2)
Track 10 cannot be verified as accurate (confidence 4) [CDD312A6], AccurateRip returned [4F4F1164] (AR v2)
Track 11 cannot be verified as accurate (confidence 4) [9A3C0D3C], AccurateRip returned [E825394A] (AR v2)
Track 12 cannot be verified as accurate (confidence 4) [878F54CF], AccurateRip returned [BC080409] (AR v2)
Track 13 cannot be verified as accurate (confidence 3) [868ACC72], AccurateRip returned [05874BC6] (AR v2)

No tracks could be verified as accurate
You may have a different pressing from the one(s) in the database

End of status report

==== Log checksum 655953A7DF9B2EF50EAFFBF50F80955094E2696D566A2BB01D44D5A743BC240B ====

[CUETools log; Date: 11.10.2018 6:20:34; Version: 2.1.4]
[CTDB TOCID: twkQ8SPa6M0qLTF.JctlyFVCSKk-] found.
Track | CTDB Status
1 | (12/12) Accurately ripped
2 | (12/12) Accurately ripped
3 | (12/12) Accurately ripped
4 | (12/12) Accurately ripped
5 | (12/12) Accurately ripped
6 | (12/12) Accurately ripped
7 | (12/12) Accurately ripped
8 | (12/12) Accurately ripped
9 | (12/12) Accurately ripped
10 | (12/12) Accurately ripped
11 | (12/12) Accurately ripped
12 | (12/12) Accurately ripped
13 | (12/12) Accurately ripped
[AccurateRip ID: 00167008-00f1c3b1-b40eb90d] found.
Track [ CRC | V2 ] Status
01 [e44c96bf|c06a6500] (0+2/7) Accurately ripped
02 [f7e2b8d2|037bfe81] (0+2/7) Accurately ripped
03 [f2cc9e7f|92bcc854] (0+2/7) Accurately ripped
04 [f1d182ce|3934e191] (0+2/6) Accurately ripped
05 [84f7495e|980c8aef] (0+2/7) Accurately ripped
06 [044d3743|14eb3952] (0+2/7) Accurately ripped
07 [eced524d|09fd20ce] (0+2/7) Accurately ripped
08 [2186daab|cf1614d8] (0+2/7) Accurately ripped
09 [a7cd33bf|5ce6e1e4] (0+2/7) Accurately ripped
10 [ed6cae30|cdd312a6] (0+2/7) Accurately ripped
11 [22b1dc65|9a3c0d3c] (0+2/7) Accurately ripped
12 [3a5749f7|878f54cf] (0+2/7) Accurately ripped
13 [dcfe7ac4|868acc72] (0+2/6) Accurately ripped
Offsetted by -6:
01 [ea43ef7b] (3/7) Accurately ripped
02 [5a337b4d] (3/7) Accurately ripped
03 [4b4a2f28] (3/7) Accurately ripped
04 [58865fde] (2/6) Accurately ripped
05 [4c0006b1] (3/7) Accurately ripped
06 [e7a14400] (3/7) Accurately ripped
07 [12609e06] (3/7) Accurately ripped
08 [5bcc276c] (3/7) Accurately ripped
09 [a630f5de] (3/7) Accurately ripped
10 [4f4f1164] (3/7) Accurately ripped
11 [e825394a] (3/7) Accurately ripped
12 [bc080409] (3/7) Accurately ripped
13 [05874bc6] (2/6) Accurately ripped

Track Peak [ CRC32 ] [W/O NULL] [ LOG ]
– 100,0 [6EECE209] [7B7C45BB] CRC32
01 100,0 [A6541CE9] [66623DD9]
02 84,9 [C9F8E549] [0037B2A7]
03 81,2 [90C46DCB] [80BACCA7]
04 58,4 [D5ECB55C] [1FE5F754]
05 86,6 [0EF558FF] [35A9FE1A]
06 94,9 [B2EA207D] [0D1E9BE5]
07 51,8 [B228150A] [38324CAC]
08 100,0 [D3C14393] [5FE9BAF0]
09 43,2 [C8299DAB] [22ACC92F]
10 90,7 [D52A8076] [B9C91CA7]
11 84,8 [CBC59408] [3B51AAB3]
12 95,5 [712E2E17] [5BA2E0BF]
13 81,3 [3AA9B588] [F2E9453B]

foobar2000 1.2 / Dynamic Range Meter 1.1.1
log date: 2018-10-11 06:13:55

––––––––––––––––––––––––––––––––––––––––
Analyzed: Rundfunkchor Stockholm, Eric Ericson / Eric Ericson - European Choral Music - CD4
––––––––––––––––––––––––––––––––––––––––

DR Peak RMS Duration Track
––––––––––––––––––––––––––––––––––––––––
DR15 -5.71 dB -27.38 dB 6:14 07-Dallapiccola: Sei cori di Michelangelo il Giovane - I. Il Coro delle Malmaritate
DR14 0.00 dB -20.27 dB 5:01 08-Dallapiccola: Sei cori di Michelangelo il Giovane - II. Il Coro dei Malammogliati
DR13 -7.29 dB -27.40 dB 2:48 09-Pizzetti: Tre composizioni corali - I. Cade la sera
DR12 -0.84 dB -19.64 dB 5:03 10-Pizzetti: Tre composizioni corali - II. Ululate, quia prope est dies Domini
DR14 -1.43 dB -22.41 dB 8:29 11-Pizzetti: Tre composizioni corali - III. Recordare, Domine
DR16 -0.40 dB -24.12 dB 11:45 12-Werle: Nautical Preludes
DR13 -1.79 dB -22.15 dB 7:05 13-Penderecki: Stabat Mater
––––––––––––––––––––––––––––––––––––––––

Number of tracks: 7
Official DR value: DR14

Samplerate: 44100 Hz
Channels: 2
Bits per sample: 16
Bitrate: 498 kbps
Codec: FLAC
================================================================================

––––––––––––––––––––––––––––––––––––––––
Analyzed: Stockholmer Kammerchor, Eric Ericson / Eric Ericson - European Choral Music - CD4
––––––––––––––––––––––––––––––––––––––––

DR Peak RMS Duration Track
––––––––––––––––––––––––––––––––––––––––
DR12 0.00 dB -18.46 dB 2:23 01-Monteverdi: Sestina 'Lagrime d'amante al sepolcro dell'amanta' - I. Incenerite spoglie
DR11 -1.42 dB -20.52 dB 1:21 02-Monteverdi: Sestina 'Lagrime d'amante al sepolcro dell'amanta' - II. Ditelo, o fiumi
DR13 -1.80 dB -20.50 dB 2:13 03-Monteverdi: Sestina 'Lagrime d'amante al sepolcro dell'amanta' - III. Dara la notte
DR13 -4.67 dB -23.42 dB 2:08 04-Monteverdi: Sestina 'Lagrime d'amante al sepolcro dell'amanta' - IV. Ma te raccoglie
DR13 -1.25 dB -21.70 dB 3:14 05-Monteverdi: Sestina 'Lagrime d'amante al sepolcro dell'amanta' - V. O chiome d'or
DR14 -0.45 dB -22.53 dB 5:06 06-Monteverdi: Sestina 'Lagrime d'amante al sepolcro dell'amanta' - VI. Dunque, amate reliquie
––––––––––––––––––––––––––––––––––––––––

Number of tracks: 6
Official DR value: DR13

Samplerate: 44100 Hz
Channels: 2
Bits per sample: 16
Bitrate: 498 kbps
Codec: FLAC
================================================================================


Exact Audio Copy V1.0 beta 3 from 29. August 2011

EAC extraction logfile from 3. July 2015, 9:07

Rundfunkchor Stockholm, Eric Ericson / Eric Ericson - European Choral Music - CD5

Used drive : HL-DT-STDVDRAM GU70N Adapter: 0 ID: 0

Read mode : Secure
Utilize accurate stream : Yes
Defeat audio cache : Yes
Make use of C2 pointers : No

Read offset correction : 48
Overread into Lead-In and Lead-Out : No
Fill up missing offset samples with silence : Yes
Delete leading and trailing silent blocks : No
Null samples used in CRC calculations : Yes
Used interface : Native Win32 interface for Win NT & 2000

Used output format : User Defined Encoder
Selected bitrate : 128 kBit/s
Quality : High
Add ID3 tag : No
Command line compressor : C:\Program Files (x86)\Exact Audio Copy\Flac\flac.exe
Additional command line options : -V -8 -T "Date=%year%" -T "Genre=%genre%" %source%


TOC of the extracted CD

Track | Start | Length | Start sector | End sector
––––––––––––––––––––––––––––-
1 | 0:00.00 | 2:55.57 | 0 | 13181
2 | 2:55.57 | 2:16.35 | 13182 | 23416
3 | 5:12.17 | 3:08.35 | 23417 | 37551
4 | 8:20.52 | 2:10.73 | 37552 | 47374
5 | 10:31.50 | 1:50.22 | 47375 | 55646
6 | 12:21.72 | 2:01.68 | 55647 | 64789
7 | 14:23.65 | 2:10.05 | 64790 | 74544
8 | 16:33.70 | 2:04.12 | 74545 | 83856
9 | 18:38.07 | 18:28.58 | 83857 | 167014
10 | 37:06.65 | 6:33.22 | 167015 | 196511
11 | 43:40.12 | 12:59.50 | 196512 | 254986
12 | 56:39.62 | 1:26.48 | 254987 | 261484
13 | 58:06.35 | 1:38.37 | 261485 | 268871
14 | 59:44.72 | 1:31.68 | 268872 | 275764
15 | 61:16.65 | 2:43.05 | 275765 | 287994
16 | 63:59.70 | 2:11.40 | 287995 | 297859
17 | 66:11.35 | 2:05.50 | 297860 | 307284
18 | 68:17.10 | 1:48.50 | 307285 | 315434


Range status and errors

Selected range

Filename C:\temp\Eric Ericson - European Choral Music\CD5\Eric Ericson - European Choral Music - CD5.wav

Peak level 99.6 %
Extraction speed 2.2 X
Range quality 99.9 %
Test CRC 0972316C
Copy CRC 0972316C
Copy OK

No errors occurred


AccurateRip summary

Track 1 cannot be verified as accurate (confidence 4) [510E8493], AccurateRip returned [3972BFCC] (AR v2)
Track 2 cannot be verified as accurate (confidence 4) [23E71893], AccurateRip returned [F2EE823F] (AR v2)
Track 3 cannot be verified as accurate (confidence 4) [E289BE7E], AccurateRip returned [2270712F] (AR v2)
Track 4 cannot be verified as accurate (confidence 3) [9E78859D], AccurateRip returned [2CFDECA0] (AR v2)
Track 5 cannot be verified as accurate (confidence 4) [D2E19BAF], AccurateRip returned [28E58C8A] (AR v2)
Track 6 cannot be verified as accurate (confidence 4) [9BBFAB32], AccurateRip returned [FDB6ED7D] (AR v2)
Track 7 cannot be verified as accurate (confidence 4) [D6BE9604], AccurateRip returned [1281010B] (AR v2)
Track 8 cannot be verified as accurate (confidence 4) [0BFCA501], AccurateRip returned [98BDCAC6] (AR v2)
Track 9 cannot be verified as accurate (confidence 4) [D2518A5B], AccurateRip returned [AF0B4E58] (AR v2)
Track 10 cannot be verified as accurate (confidence 4) [2C1B9549], AccurateRip returned [AA068F67] (AR v2)
Track 11 cannot be verified as accurate (confidence 4) [94D7E6D9], AccurateRip returned [2753E0D0] (AR v2)
Track 12 cannot be verified as accurate (confidence 4) [DFB33CBA], AccurateRip returned [5873FE29] (AR v2)
Track 13 cannot be verified as accurate (confidence 4) [CD17AB5A], AccurateRip returned [B8D02D98] (AR v2)
Track 14 cannot be verified as accurate (confidence 4) [72CD6DF6], AccurateRip returned [E1E4F9B0] (AR v2)
Track 15 cannot be verified as accurate (confidence 4) [1FBC8072], AccurateRip returned [1A7606DD] (AR v2)
Track 16 cannot be verified as accurate (confidence 4) [F99A89C0], AccurateRip returned [946F4C4F] (AR v2)
Track 17 cannot be verified as accurate (confidence 4) [EED86937], AccurateRip returned [ED06B348] (AR v2)
Track 18 cannot be verified as accurate (confidence 2) [06128F22], AccurateRip returned [6EE6B6F0] (AR v2)

No tracks could be verified as accurate
You may have a different pressing from the one(s) in the database

End of status report

==== Log checksum DE4D207280B37E8C016F3271F40397D21C824F501DC03A5CB2787AFBED294489 ====

[CUETools log; Date: 11.10.2018 6:21:09; Version: 2.1.4]
[CTDB TOCID: qAZAIcFl5fWyoIIn27x0r3IpZRk-] found.
Track | CTDB Status
1 | (12/12) Accurately ripped
2 | (12/12) Accurately ripped
3 | (12/12) Accurately ripped
4 | (12/12) Accurately ripped
5 | (12/12) Accurately ripped
6 | (12/12) Accurately ripped
7 | (12/12) Accurately ripped
8 | (12/12) Accurately ripped
9 | (12/12) Accurately ripped
10 | (12/12) Accurately ripped
11 | (12/12) Accurately ripped
12 | (12/12) Accurately ripped
13 | (12/12) Accurately ripped
14 | (12/12) Accurately ripped
15 | (12/12) Accurately ripped
16 | (12/12) Accurately ripped
17 | (12/12) Accurately ripped
18 | (12/12) Accurately ripped
[AccurateRip ID: 002e49e8-02810485-0c106d12] found.
Track [ CRC | V2 ] Status
01 [0214637c|510e8493] (0+2/7) Accurately ripped
02 [9fc469b1|23e71893] (0+2/7) Accurately ripped
03 [63ddebe4|e289be7e] (0+2/7) Accurately ripped
04 [fcd656f2|9e78859d] (0+2/6) Accurately ripped
05 [51e5ccbb|d2e19baf] (0+2/7) Accurately ripped
06 [2e6b6591|9bbfab32] (0+2/7) Accurately ripped
07 [f70e6621|d6be9604] (0+2/7) Accurately ripped
08 [411287d4|0bfca501] (0+2/7) Accurately ripped
09 [c6a59410|d2518a5b] (0+2/7) Accurately ripped
10 [28877bf5|2c1b9549] (0+2/7) Accurately ripped
11 [8fb28c8e|94d7e6d9] (0+2/7) Accurately ripped
12 [6be6fecf|dfb33cba] (0+2/7) Accurately ripped
13 [d951d9ac|cd17ab5a] (0+2/7) Accurately ripped
14 [7212578b|72cd6df6] (0+2/7) Accurately ripped
15 [1ccddd32|1fbc8072] (0+2/7) Accurately ripped
16 [44d0e2bd|f99a89c0] (0+2/7) Accurately ripped
17 [6df5c312|eed86937] (0+2/7) Accurately ripped
18 [dfdecea8|06128f22] (0+2/4) Accurately ripped
Offsetted by -6:
01 [3972bfcc] (3/7) Accurately ripped
02 [f2ee823f] (3/7) Accurately ripped
03 [2270712f] (3/7) Accurately ripped
04 [2cfdeca0] (2/6) Accurately ripped
05 [28e58c8a] (3/7) Accurately ripped
06 [fdb6ed7d] (3/7) Accurately ripped
07 [1281010b] (3/7) Accurately ripped
08 [98bdcac6] (3/7) Accurately ripped
09 [af0b4e58] (3/7) Accurately ripped
10 [aa068f67] (3/7) Accurately ripped
11 [2753e0d0] (3/7) Accurately ripped
12 [5873fe29] (3/7) Accurately ripped
13 [b8d02d98] (3/7) Accurately ripped
14 [e1e4f9b0] (3/7) Accurately ripped
15 [1a7606dd] (3/7) Accurately ripped
16 [946f4c4f] (3/7) Accurately ripped
17 [ed06b348] (3/7) Accurately ripped
18 [6ee6b6f0] (0/4) No match (V2 was not tested)

Track Peak [ CRC32 ] [W/O NULL] [ LOG ]
– 99,6 [0972316C] [5F9AF812] CRC32
01 80,9 [4A04A67E] [8FD54DF6]
02 83,4 [51C92C4C] [E9865F17]
03 94,1 [277CB97A] [187D08CE]
04 72,7 [01E65AB5] [6CB6D12B]
05 58,7 [9961E008] [D469F420]
06 69,5 [E464F663] [E9587A3A]
07 84,2 [726DA5D5] [F202A58F]
08 65,2 [4F0BDF9D] [C98575D6]
09 98,0 [45E8F5B9] [BD6159AC]
10 91,1 [F17068D4] [2DF69543]
11 88,1 [EF31BBD0] [351C0E95]
12 45,3 [46ABF4A1] [17767396]
13 36,3 [D326A752] [669874AB]
14 74,8 [E98080A7] [EFA175B7]
15 99,6 [6D300AA3] [F4CB00DD]
16 36,9 [008B7FBC] [44813DD0]
17 39,1 [1EAFA9F8] [E06C746A]
18 94,3 [7A8878AD] [64E97F1F]

foobar2000 1.2 / Dynamic Range Meter 1.1.1
log date: 2018-10-11 06:14:27

––––––––––––––––––––––––––––––––––––––––
Analyzed: Rundfunkchor Stockholm, Eric Ericson / Eric Ericson - European Choral Music - CD5 (1-11)
Stockholmer Kammerchor, Eric Ericson / Eric Ericson - European Choral Music - CD5 (12-18)
––––––––––––––––––––––––––––––––––––––––

DR Peak RMS Duration Track
––––––––––––––––––––––––––––––––––––––––
DR13 -1.84 dB -21.07 dB 2:56 01-Reger: Acht geistliche Gesange, Op.138 - I. Der Mensch lebt unt bestehet
DR12 -1.57 dB -18.98 dB 2:16 02-Reger: Acht geistliche Gesange, Op.138 - II. Morgengesang
DR13 -0.53 dB -20.32 dB 3:08 03-Reger: Acht geistliche Gesange, Op.138 - III. Nachtlied
DR12 -2.76 dB -20.89 dB 2:11 04-Reger: Acht geistliche Gesange, Op.138 - IV. Unser lieben Frauen Traum
DR13 -4.61 dB -23.43 dB 1:50 05-Reger: Acht geistliche Gesange, Op.138 - V. Kreuzfahrerlied
DR13 -3.15 dB -22.67 dB 2:02 06-Reger: Acht geistliche Gesange, Op.138 - VI. Das Agnus Dei
DR14 -1.49 dB -21.78 dB 2:10 07-Reger: Acht geistliche Gesange, Op.138 - VII. Schlachtgesang
DR13 -3.71 dB -23.12 dB 2:04 08-Reger: Acht geistliche Gesange, Op.138 - VIII. Wir glauben an einen Gott
DR13 -0.17 dB -19.84 dB 18:29 09-Reger: Ach, Herr, strafe mich nicht, Op.110 Nr. 2
DR13 -0.81 dB -19.12 dB 6:33 10-Strauss: Die Göttin im Putzzimmer
DR15 -1.10 dB -21.64 dB 13:00 11-Strauss: Der Abend
DR14 -6.86 dB -27.15 dB 1:27 12-Poulenc: Sept Chansons - I. La blanche neige
DR12 -8.78 dB -28.50 dB 1:38 13-Poulenc: Sept Chansons - II. A peine defiguree
DR14 -2.52 dB -23.31 dB 1:32 14-Poulenc: Sept Chansons - III. Par une nuit nouvelle
DR15 -0.03 dB -22.81 dB 2:43 15-Poulenc: Sept Chansons - IV. Tous les droits
DR14 -8.66 dB -31.51 dB 2:12 16-Poulenc: Sept Chansons - V. Belle et ressemblante
DR13 -8.14 dB -27.02 dB 2:06 17-Poulenc: Sept Chansons - VI. Marie
DR10 -0.51 dB -17.34 dB 1:49 18-Poulenc: Sept Chansons - VII. Luire
––––––––––––––––––––––––––––––––––––––––

Number of tracks: 18
Official DR value: DR13

Samplerate: 44100 Hz
Channels: 2
Bits per sample: 16
Bitrate: 563 kbps
Codec: FLAC
================================================================================


Exact Audio Copy V1.0 beta 3 from 29. August 2011

EAC extraction logfile from 3. July 2015, 20:53

Rundfunkchor Stockholm, Eric Ericson / Eric Ericson - European Choral Music - CD6

Used drive : HL-DT-STDVDRAM GU70N Adapter: 0 ID: 0

Read mode : Secure
Utilize accurate stream : Yes
Defeat audio cache : Yes
Make use of C2 pointers : No

Read offset correction : 48
Overread into Lead-In and Lead-Out : No
Fill up missing offset samples with silence : Yes
Delete leading and trailing silent blocks : No
Null samples used in CRC calculations : Yes
Used interface : Native Win32 interface for Win NT & 2000

Used output format : User Defined Encoder
Selected bitrate : 128 kBit/s
Quality : High
Add ID3 tag : No
Command line compressor : C:\Program Files (x86)\Exact Audio Copy\Flac\flac.exe
Additional command line options : -V -8 -T "Date=%year%" -T "Genre=%genre%" %source%


TOC of the extracted CD

Track | Start | Length | Start sector | End sector
––––––––––––––––––––––––––––-
1 | 0:00.00 | 8:48.42 | 0 | 39641
2 | 8:48.42 | 8:04.10 | 39642 | 75951
3 | 16:52.52 | 3:13.10 | 75952 | 90436
4 | 20:05.62 | 4:34.20 | 90437 | 111006
5 | 24:40.07 | 3:17.68 | 111007 | 125849
6 | 27:58.00 | 4:19.10 | 125850 | 145284
7 | 32:17.10 | 3:11.57 | 145285 | 159666
8 | 35:28.67 | 4:34.73 | 159667 | 180289
9 | 40:03.65 | 5:26.62 | 180290 | 204801
10 | 45:30.52 | 5:55.03 | 204802 | 231429
11 | 51:25.55 | 6:24.45 | 231430 | 260274
12 | 57:50.25 | 4:15.60 | 260275 | 279459
13 | 62:06.10 | 4:32.42 | 279460 | 299901


Range status and errors

Selected range

Filename C:\temp\Eric Ericson - European Choral Music\CD6\Eric Ericson - European Choral Music - CD6.wav

Peak level 100.0 %
Extraction speed 2.2 X
Range quality 100.0 %
Test CRC 4042AABA
Copy CRC 4042AABA
Copy OK

No errors occurred


AccurateRip summary

Track 1 cannot be verified as accurate (confidence 4) [AECB6C19], AccurateRip returned [87A295D5] (AR v2)
Track 2 cannot be verified as accurate (confidence 4) [AD1825EE], AccurateRip returned [AB1720AC] (AR v2)
Track 3 cannot be verified as accurate (confidence 4) [47C3EC5F], AccurateRip returned [10235F18] (AR v2)
Track 4 cannot be verified as accurate (confidence 4) [4B12E06B], AccurateRip returned [8D9F61C8] (AR v2)
Track 5 cannot be verified as accurate (confidence 3) [2A71C0DD], AccurateRip returned [DD295CD6] (AR v2)
Track 6 cannot be verified as accurate (confidence 4) [27918554], AccurateRip returned [B789A919] (AR v2)
Track 7 cannot be verified as accurate (confidence 4) [5AF9890F], AccurateRip returned [F017FF0E] (AR v2)
Track 8 cannot be verified as accurate (confidence 4) [24F3B74B], AccurateRip returned [93DC6378] (AR v2)
Track 9 cannot be verified as accurate (confidence 4) [E3778616], AccurateRip returned [352BA9A8] (AR v2)
Track 10 cannot be verified as accurate (confidence 4) [D69FCF89], AccurateRip returned [BAD65DDE] (AR v2)
Track 11 cannot be verified as accurate (confidence 4) [D4534311], AccurateRip returned [8A300D6F] (AR v2)
Track 12 cannot be verified as accurate (confidence 4) [3E2EA8BA], AccurateRip returned [BA342909] (AR v2)
Track 13 cannot be verified as accurate (confidence 3) [28429479], AccurateRip returned [DAA87816] (AR v2)

No tracks could be verified as accurate
You may have a different pressing from the one(s) in the database

End of status report

==== Log checksum 8609A2574FCA5970BE209E1D0129EF9F67754C8DA01302B54D4217AC75A28D60 ====

[CUETools log; Date: 11.10.2018 6:21:27; Version: 2.1.4]
[CTDB TOCID: 2AIi1grpgd7h995FXs9EzuD4Iis-] found.
Track | CTDB Status
1 | (13/13) Accurately ripped
2 | (13/13) Accurately ripped
3 | (13/13) Accurately ripped
4 | (13/13) Accurately ripped
5 | (13/13) Accurately ripped
6 | (13/13) Accurately ripped
7 | (13/13) Accurately ripped
8 | (13/13) Accurately ripped
9 | (13/13) Accurately ripped
10 | (13/13) Accurately ripped
11 | (13/13) Accurately ripped
12 | (13/13) Accurately ripped
13 | (13/13) Accurately ripped
[AccurateRip ID: 0021a15f-0147380f-a30f9e0d] found.
Track [ CRC | V2 ] Status
01 [844745d2|aecb6c19] (0+2/7) Accurately ripped
02 [fd5ed0a1|ad1825ee] (0+2/7) Accurately ripped
03 [7116b57a|47c3ec5f] (0+2/7) Accurately ripped
04 [4a7a52fb|4b12e06b] (0+2/7) Accurately ripped
05 [5ae2517e|2a71c0dd] (0+2/6) Accurately ripped
06 [55eba6fd|27918554] (0+2/7) Accurately ripped
07 [0e128efa|5af9890f] (0+2/7) Accurately ripped
08 [fee8c805|24f3b74b] (0+2/7) Accurately ripped
09 [8d560116|e3778616] (0+2/7) Accurately ripped
10 [7ea3a0cd|d69fcf89] (0+2/7) Accurately ripped
11 [f6cd572e|d4534311] (0+2/7) Accurately ripped
12 [dbaf896d|3e2ea8ba] (0+2/7) Accurately ripped
13 [f6c06118|28429479] (0+2/6) Accurately ripped
Offsetted by -6:
01 [87a295d5] (3/7) Accurately ripped
02 [ab1720ac] (3/7) Accurately ripped
03 [10235f18] (3/7) Accurately ripped
04 [8d9f61c8] (3/7) Accurately ripped
05 [dd295cd6] (2/6) Accurately ripped
06 [b789a919] (3/7) Accurately ripped
07 [f017ff0e] (3/7) Accurately ripped
08 [93dc6378] (3/7) Accurately ripped
09 [352ba9a8] (3/7) Accurately ripped
10 [bad65dde] (3/7) Accurately ripped
11 [8a300d6f] (3/7) Accurately ripped
12 [ba342909] (3/7) Accurately ripped
13 [daa87816] (2/6) Accurately ripped

Track Peak [ CRC32 ] [W/O NULL] [ LOG ]
– 100,0 [4042AABA] [685BEDF8] CRC32
01 97,6 [C7082A8D] [0A582159]
02 96,7 [22ED1F66] [5692AA66]
03 99,9 [0302FBC6] [6734E1C0]
04 81,6 [926AF80C] [51F30F35]
05 51,8 [DEDF21FC] [84323B3B]
06 94,4 [46555D8A] [A64BA387]
07 44,7 [E815D626] [D3FF4EB1]
08 79,4 [F984F4E3] [B0503636]
09 100,0 [AECF07AC] [5F7FBCE7]
10 81,0 [E6F1F489] [D8E6B721]
11 96,5 [E48A4C64] [89FD7E55]
12 93,5 [BD0F95A2] [916E4416]
13 99,1 [9ED14053] [249E251A]

foobar2000 1.2 / Dynamic Range Meter 1.1.1
log date: 2018-10-11 06:15:09

––––––––––––––––––––––––––––––––––––––––
Analyzed: Rundfunkchor Stockholm, Eric Ericson / Eric Ericson - European Choral Music - CD6
––––––––––––––––––––––––––––––––––––––––

DR Peak RMS Duration Track
––––––––––––––––––––––––––––––––––––––––
DR14 -0.21 dB -20.38 dB 8:49 01-Jolivet: Epithalame - I. Ouvrons les portes de l'amour
DR14 -0.29 dB -21.19 dB 8:04 02-Jolivet: Epithalame - II. Fille du souffle
DR13 0.00 dB -17.52 dB 3:13 03-Jolivet: Epithalame - III. Au son de sa lyre
DR14 0.00 dB -20.72 dB 5:27 09-Martin: Messe - I. Kyrie
DR16 -1.83 dB -23.79 dB 5:55 10-Martin: Messe - II. Gloria
DR14 -0.30 dB -22.04 dB 6:25 11-Martin: Messe - III. Credo
DR12 -0.58 dB -19.94 dB 4:16 12-Martin: Messe - IV. Sanctus
DR14 -0.08 dB -21.66 dB 4:33 13-Martin: Messe - V. Agnus Dei
––––––––––––––––––––––––––––––––––––––––

Number of tracks: 8
Official DR value: DR14

Samplerate: 44100 Hz
Channels: 2
Bits per sample: 16
Bitrate: 486 kbps
Codec: FLAC
================================================================================

––––––––––––––––––––––––––––––––––––––––
Analyzed: Stockholmer Kammerchor, Eric Ericson / Eric Ericson - European Choral Music - CD6
––––––––––––––––––––––––––––––––––––––––

DR Peak RMS Duration Track
––––––––––––––––––––––––––––––––––––––––
DR16 -1.77 dB -25.30 dB 4:34 04-Messiaen: Cinq Rechants - I. Hayo kapritama
DR16 -5.71 dB -27.94 dB 3:18 05-Messiaen: Cinq Rechants - II. Ma premiere fois terre
DR14 -0.50 dB -20.49 dB 4:19 06-Messiaen: Cinq Rechants - III. Ma robe d'amour
DR14 -6.98 dB -27.08 dB 3:12 07-Messiaen: Cinq Rechants - IV. Niokhama palalan souki
DR14 -2.00 dB -22.60 dB 4:35 08-Messiaen: Cinq Rechants - V. Mayoma kalimolimo
––––––––––––––––––––––––––––––––––––––––

Number of tracks: 5
Official DR value: DR15

Samplerate: 44100 Hz
Channels: 2
Bits per sample: 16
Bitrate: 486 kbps
Codec: FLAC
================================================================================

Eric Ericson, Rundfunkchor Stockholm, Stockholmer Kammerchor - European Choral Music (2014) 6CD Box Set

All thanks to original releaser - A-Z

More interesting music in My Blog