Subcategories
Tags
Language
Tags

Emilio Aragón, Orquesta Sinfónica de Tenerife - Bach to Cuba (2006)

Posted By: ArlegZ
Emilio Aragón, Orquesta Sinfónica de Tenerife - Bach to Cuba (2006)

Emilio Aragón, Orquesta Sinfónica de Tenerife - Bach to Cuba (2006)
EAC | FLAC | Image (Cue & Log) ~ 303 Mb | Total time: 41:33 | Scans included
Classical | Label: Deutsche Grammophon | # 0028947658078 | Recorded: 2006

Emilio Aragón conducts the Tenerife Symphony Orchestra (performing the classical part) together with three Cuban percussionists and Alain Pérez on the double bass. The challenge is to integrate Afro-Cuban rhythms into a classical context such as the Brandenburg concerts, for which Alain Pérez replaces the Bach basso continuo, typical of the Baroque, with the Cuban tumbao bassoon, giving adequate space for percussion, such as the guaguancó, conga, danzón, contradanza, son, bolero… and which could feel comfortable around violins.

Performer:
Orquesta Sinfónica de Tenerife
Emilio Aragón, director

Track List:
01. Concierto de Brandemburgo Nº3 (1er Mov.)
02. Concierto de Brandemburgo Nº5 (1er Mov.)
03. Obertura Nº3 BWV 1068 (Aria)
04. Obertura Nº2 BWV 1067 (Badinaire)
05. Concierto de Brandemburgo Nº3 (3er Mov.)
06. Concierto de Brandemburgo Nº5 (3er Mov.)
07. Concierto de Brandemburgo Nº4 (1er Mov.)
08. Obertura Nº2 BWV 1067 (Rondeau)
09. Concierto de Brandemburgo Nº4 (3er Mov.)
10. Obertura Nº3 BWV 1068 (Gavotte)


Exact Audio Copy V1.3 from 2. September 2016

EAC extraction logfile from 4. October 2018, 0:44

Emilio Aragon / Bach to Cuba

Used drive : ATAPI iHAS124 F Adapter: 1 ID: 0

Read mode : Secure
Utilize accurate stream : Yes
Defeat audio cache : Yes
Make use of C2 pointers : No

Read offset correction : 6
Overread into Lead-In and Lead-Out : No
Fill up missing offset samples with silence : Yes
Delete leading and trailing silent blocks : No
Null samples used in CRC calculations : Yes
Used interface : Native Win32 interface for Win NT & 2000

Used output format : User Defined Encoder
Selected bitrate : 1024 kBit/s
Quality : High
Add ID3 tag : No
Command line compressor : C:\Program Files (x86)\Exact Audio Copy\FLAC\FLAC.EXE
Additional command line options : -8 -V -T "TITLE=%title%" -T "ARTIST=%artist%" -T "ALBUMARTIST=%albumartist%" -T "ALBUM=%albumtitle%" -T "DATE=%year%" -T "TRACKNUMBER=%tracknr%" -T "TRACKTOTAL=%numtracks%" -T "GENRE=%genre%" -T "COMMENT=%comment%" -T "PERFORMER=%albuminterpret%" -T "COMPOSER=%composer%" %source% -o %dest%


TOC of the extracted CD

Track | Start | Length | Start sector | End sector
––––––––––––––––––––––––––––-
1 | 0:00.00 | 4:15.48 | 0 | 19172
2 | 4:15.48 | 3:14.00 | 19173 | 33722
3 | 7:29.48 | 4:01.11 | 33723 | 51808
4 | 11:30.59 | 1:20.43 | 51809 | 57851
5 | 12:51.27 | 5:40.53 | 57852 | 83404
6 | 18:32.05 | 5:30.16 | 83405 | 108170
7 | 24:02.21 | 5:46.51 | 108171 | 134171
8 | 29:48.72 | 1:34.51 | 134172 | 141272
9 | 31:23.48 | 5:11.29 | 141273 | 164626
10 | 36:35.02 | 4:57.36 | 164627 | 186937


Range status and errors

Selected range

Filename C:\EACRip\NOEL\Bach to Cuba (Emilio Aragon) (2006)\Bach to Cuba - Emilio Aragon.wav

Peak level 99.6 %
Extraction speed 7.8 X
Range quality 100.0 %
Test CRC 8E9BBD95
Copy CRC 8E9BBD95
Copy OK

No errors occurred


AccurateRip summary

Track 1 accurately ripped (confidence 2) [3F14C4F8] (AR v1)
Track 2 accurately ripped (confidence 2) [99FB76A6] (AR v1)
Track 3 accurately ripped (confidence 2) [35F3A8B8] (AR v1)
Track 4 accurately ripped (confidence 2) [15BB1FA7] (AR v1)
Track 5 accurately ripped (confidence 2) [EF6CAF6A] (AR v1)
Track 6 accurately ripped (confidence 2) [0E583A40] (AR v1)
Track 7 accurately ripped (confidence 2) [72ECC58F] (AR v1)
Track 8 accurately ripped (confidence 2) [28C5AC98] (AR v1)
Track 9 accurately ripped (confidence 2) [469ABA7A] (AR v1)
Track 10 accurately ripped (confidence 2) [2DF7BBE0] (AR v1)

All tracks accurately ripped

End of status report

–– CUETools DB Plugin V2.1.6

[CTDB TOCID: ltd91uD8LkW2hmMHfx7JtimlbwQ-] found
Submit result: ltd91uD8LkW2hmMHfx7JtimlbwQ- has been confirmed
Track | CTDB Status
1 | (12/13) Accurately ripped
2 | (12/13) Accurately ripped
3 | (13/13) Accurately ripped
4 | (13/13) Accurately ripped
5 | (13/13) Accurately ripped
6 | (13/13) Accurately ripped
7 | (13/13) Accurately ripped
8 | (13/13) Accurately ripped
9 | (12/13) Accurately ripped
10 | (13/13) Accurately ripped


==== Log checksum 6DF0564A3B0E23F33A17E395107B90665D042D040006C817E9D028855FC08696 ====

Emilio Aragón, Orquesta Sinfónica de Tenerife - Bach to Cuba (2006)

Thanks to the original releaser