Subcategories

Early Choral Music at Trinity College, Cambridge [6CD] (2016)

Posted By: ArlegZ
Early Choral Music at Trinity College, Cambridge [6CD] (2016)

Early Choral Music at Trinity College, Cambridge [6CD] (2016)
EAC | FLAC | Image (Cue & Log) ~ 1,65 Gb | Total time: 7:09:35 | Scans included
Classical | Label: Sony Classical | # 88985323472 | Recorded: 1990-1995

Cambridges renowned Trinity College Choir, conducted by Richard Marlow, is heard in a 6-CD compilation of acclaimed Renaissance and early Baroque recordings. In the compositions by Lassus, Victoria, Praetorius, Sweelinck, Monteverdi and Schutz heard here, Gramophone has praised the choirs superb discipline fresh and natural voices as well as Marlows astute and imaginative direction His sensitivity and responsiveness are tireless.

Performer:
The Choir of Trinity College, Cambridge
Richard Marlow, director

Track List:
CD1:
CD1:
Orlando di Lasso (1532-1594)
01. Regina coeli laetare
02. Laetentur coeli
03. Alma redemptoris mater
04. Resonet in laudibus
05. Tui sunt coeli
06. Quem vidistis, pastores?
07. Omnes de Saba
08. Regina coeli laetare
09. Peccantem me quotidie
10. Timor et tremor
11. Popule meus
12. Regina coeli laetare
13. Aurora lucis rutilat
14. Christus resurgens
15. Jesu, nostra redemptio
16. Regina coeli laetare
17. Jam non dicam vos
18. Hodie completi sunt
19. Alleluia, laus et gloria
20. Benedictio et claritas
21. Justorum animae
22. Exsultate justi
23. Regina coeli laetare
CD2:
Tomás Luis de Victoria (1548-1611)
Maundy Thursday
01-03. Lessons of the First Nocturn
04-06. Responsories of the Second Nocturn
Good Friday
07-09. Lessons of the First Nocturn
10-12. Responsories of the Second Nocturn
Holy Saturday
13-15. Lessons of the First Nocturn
16-18. Responsories of the Second Nocturn
CD3:
Jan Pieterszoon Sweelinck (1562-1621)
01. Pseaume 150 - Or soit loué l'Eternel - Soit joinct avecques la voix - Soit le los de sa bonté
02. Pseaume 7 - Mon Dieu, j'ay en toy esperance
03. Pseaume 1 - Qui au conseil des malins - Et semblera un arbre grand et beau
04. Pseaume 100 - Vous tous qui la terr' habitez - Sachez qu'il est le Souverain
05. Pseaume 43 - Revenge moy, pren la querelle
06. Pseaume 62 - Mon am' en Dieu tant seulement
07. Pseaume 19 - Les cieux en chacun lieu - Et n'y a nation - Dont il sort ainsi beau
08. Pseaume 89 - Du Seigneur les bontez
09. Pseaume 37 - Ne sois fasché
10. Pseaume 134 - Or sus, serviteurs du Seigneur
11. Pseaume 34 - Jamais ne cesseray
12. Pseaume 101 - Vouloir m'est pris
13. Pseaume 110 - Le Toutpuissant à mon Seigneur - Le sceptre fort
14. Pseaume 74 - D'où vient, Seigneur - Debout, Seigneur
15. Pseaume 148 - Vous tous les habitans - Louez-le, vous cieux - Il en a faict un mandement
CD4:
Claudio Monteverdi (1567-1643)
01. Dixit Dominus
02. Adoramus te, Christe
03. Lauda Jerusalem
04. Christe, adoramus te
05. Laudate pueri
06. Memento
07. Cantate Domino
08. Beatus vir
09. Letaniae della Beata Vergine Maria
10. Laetatus sum
11. Domine ne in furore tuo
12. Nisi Dominus
CD5:
Michael Praetorius (1571-1621)
01-04. I. Wachet auf!
05-08. II. Nun kommt der Heiden Heiland
09-13. III. In dulci jubilo
14-19. IV. Vom Himmel hoch
20-22. V. Resonet in laudibus
23-30. VI. Wie schön leuchtet
31-32. VII. Puer natus in Bethlehem
CD6:
Heinrich Schütz (1585-1672)
01. Warum toben die Heiden, SWV 23 (Psalm 2)
02. Herr, unser Herrscher, SWV 27 (Psalm 8)
03. Der Herr ist mein Hirt, SWV 33 (Psalm 23)
04. Wie lieblich sind deine Wohnungen, SWV 29 (Psalm 84)
05. Singet dem Herrn ein neues Lied, SWV 35 (Psalm 98)
06. Jauchzet dem Herrn, alle Welt, SWV 36 (Psalm 100)
07. Der Herr sprach zu meinem Herren, SWV 22 (Psalm 110)
08. Nicht uns, Herr, sondern deinem Namen, SWV 43 (Psalm 115)
09. Ich freu mich des, das mir geredt ist, SWV 26 (Psalm 122)
10. Wohl dem, der den Herren fürchtet, SWV 44 (Psalm 128)
11. Danket dem Herrn, denn er ist freundlich, SWV 32 (Psalm 136)
12. An den Wassern zu Babel, SWV 37 (Psalm 137)
13. Alleluja! Lobet den Herren in seinem Heiligtum, SWV 38 (Psalm 150)



Exact Audio Copy V1.3 from 2. September 2016

EAC extraction logfile from 20. August 2017, 20:08

The Choir of Trinity College, Cambridge, Richard Marlow / Orlando di Lasso - Regina Coeli and seasonal motets

Used drive : PLDS DVD-RW DU8A6SH Adapter: 1 ID: 0

Read mode : Secure
Utilize accurate stream : Yes
Defeat audio cache : Yes
Make use of C2 pointers : No

Read offset correction : 6
Overread into Lead-In and Lead-Out : No
Fill up missing offset samples with silence : Yes
Delete leading and trailing silent blocks : No
Null samples used in CRC calculations : Yes
Used interface : Native Win32 interface for Win NT & 2000

Used output format : User Defined Encoder
Selected bitrate : 128 kBit/s
Quality : High
Add ID3 tag : No
Command line compressor : C:\Program Files (x86)\Exact Audio Copy\Flac\flac.exe
Additional command line options : -V -8 -T "Date=%year%" -T "Genre=%genre%" %source%


TOC of the extracted CD

Track | Start | Length | Start sector | End sector
––––––––––––––––––––––––––––-
1 | 0:00.00 | 2:48.23 | 0 | 12622
2 | 2:48.23 | 3:01.02 | 12623 | 26199
3 | 5:49.25 | 3:10.48 | 26200 | 40497
4 | 8:59.73 | 3:19.40 | 40498 | 55462
5 | 12:19.38 | 2:14.20 | 55463 | 65532
6 | 14:33.58 | 1:54.27 | 65533 | 74109
7 | 16:28.10 | 2:04.38 | 74110 | 83447
8 | 18:32.48 | 2:12.50 | 83448 | 93397
9 | 20:45.23 | 3:51.12 | 93398 | 110734
10 | 24:36.35 | 6:10.40 | 110735 | 138524
11 | 30:47.00 | 4:18.73 | 138525 | 157947
12 | 35:05.73 | 2:18.42 | 157948 | 168339
13 | 37:24.40 | 3:28.53 | 168340 | 183992
14 | 40:53.18 | 2:17.20 | 183993 | 194287
15 | 43:10.38 | 6:18.02 | 194288 | 222639
16 | 49:28.40 | 1:57.43 | 222640 | 231457
17 | 51:26.08 | 4:24.50 | 231458 | 251307
18 | 55:50.58 | 3:52.57 | 251308 | 268764
19 | 59:43.40 | 1:02.13 | 268765 | 273427
20 | 60:45.53 | 1:49.27 | 273428 | 281629
21 | 62:35.05 | 2:44.35 | 281630 | 293964
22 | 65:19.40 | 2:32.35 | 293965 | 305399
23 | 67:52.00 | 2:01.34 | 305400 | 314508


Range status and errors

Selected range

Filename C:\temp\Early Choral Music at Trinity College, Cambridge\CD1\Orlando di Lasso - Regina Coeli and seasonal motets.wav

Peak level 94.8 %
Extraction speed 3.7 X
Range quality 100.0 %
Test CRC F2575884
Copy CRC F2575884
Copy OK

No errors occurred


AccurateRip summary

Track 1 not present in database
Track 2 not present in database
Track 3 not present in database
Track 4 not present in database
Track 5 not present in database
Track 6 not present in database
Track 7 not present in database
Track 8 not present in database
Track 9 not present in database
Track 10 not present in database
Track 11 not present in database
Track 12 not present in database
Track 13 not present in database
Track 14 not present in database
Track 15 not present in database
Track 16 not present in database
Track 17 not present in database
Track 18 not present in database
Track 19 not present in database
Track 20 not present in database
Track 21 not present in database
Track 22 not present in database
Track 23 not present in database

None of the tracks are present in the AccurateRip database

End of status report

==== Log checksum 851BA7F410527B9E2F640A30DE41BC3FE735520FB3745AB72F915F48CC572369 ====



Exact Audio Copy V1.3 from 2. September 2016

EAC extraction logfile from 20. August 2017, 21:00

The Choir of Trinity College, Cambridge, Richard Marlow / Victoria - Tenebrae Responsories; Lamentations

Used drive : PLDS DVD-RW DU8A6SH Adapter: 1 ID: 0

Read mode : Secure
Utilize accurate stream : Yes
Defeat audio cache : Yes
Make use of C2 pointers : No

Read offset correction : 6
Overread into Lead-In and Lead-Out : No
Fill up missing offset samples with silence : Yes
Delete leading and trailing silent blocks : No
Null samples used in CRC calculations : Yes
Used interface : Native Win32 interface for Win NT & 2000

Used output format : User Defined Encoder
Selected bitrate : 128 kBit/s
Quality : High
Add ID3 tag : No
Command line compressor : C:\Program Files (x86)\Exact Audio Copy\Flac\flac.exe
Additional command line options : -V -8 -T "Date=%year%" -T "Genre=%genre%" %source%


TOC of the extracted CD

Track | Start | Length | Start sector | End sector
––––––––––––––––––––––––––––-
1 | 0:00.00 | 6:39.53 | 0 | 29977
2 | 6:39.53 | 4:57.55 | 29978 | 52307
3 | 11:37.33 | 6:00.72 | 52308 | 79379
4 | 17:38.30 | 2:47.08 | 79380 | 91912
5 | 20:25.38 | 2:09.40 | 91913 | 101627
6 | 22:35.03 | 2:35.00 | 101628 | 113252
7 | 25:10.03 | 3:44.62 | 113253 | 130114
8 | 28:54.65 | 5:27.20 | 130115 | 154659
9 | 34:22.10 | 5:16.25 | 154660 | 178384
10 | 39:38.35 | 3:17.63 | 178385 | 193222
11 | 42:56.23 | 4:32.72 | 193223 | 213694
12 | 47:29.20 | 3:56.18 | 213695 | 231412
13 | 51:25.38 | 4:56.55 | 231413 | 253667
14 | 56:22.18 | 5:11.37 | 253668 | 277029
15 | 61:33.55 | 7:32.18 | 277030 | 310947
16 | 69:05.73 | 3:13.07 | 310948 | 325429
17 | 72:19.05 | 3:17.20 | 325430 | 340224
18 | 75:36.25 | 3:33.70 | 340225 | 356269


Range status and errors

Selected range

Filename C:\temp\Early Choral Music at Trinity College, Cambridge\CD2\Victoria - Tenebrae Responsories; Lamentations.wav

Peak level 84.7 %
Extraction speed 4.1 X
Range quality 99.9 %
Test CRC 162B7C1F
Copy CRC 162B7C1F
Copy OK

No errors occurred


AccurateRip summary

Track 1 not present in database
Track 2 not present in database
Track 3 not present in database
Track 4 not present in database
Track 5 not present in database
Track 6 not present in database
Track 7 not present in database
Track 8 not present in database
Track 9 not present in database
Track 10 not present in database
Track 11 not present in database
Track 12 not present in database
Track 13 not present in database
Track 14 not present in database
Track 15 not present in database
Track 16 not present in database
Track 17 not present in database
Track 18 not present in database

None of the tracks are present in the AccurateRip database

End of status report

==== Log checksum E36FB70FC2C4A8EB676EFE989E32010703F0B23ECDA1B3D6920312F048092E5E ====


Exact Audio Copy V1.3 from 2. September 2016

EAC extraction logfile from 20. August 2017, 21:48

The Choir of Trinity College, Cambridge, Richard Marlow / Sweelinck - Pseaumes de David

Used drive : PLDS DVD-RW DU8A6SH Adapter: 1 ID: 0

Read mode : Secure
Utilize accurate stream : Yes
Defeat audio cache : Yes
Make use of C2 pointers : No

Read offset correction : 6
Overread into Lead-In and Lead-Out : No
Fill up missing offset samples with silence : Yes
Delete leading and trailing silent blocks : No
Null samples used in CRC calculations : Yes
Used interface : Native Win32 interface for Win NT & 2000

Used output format : User Defined Encoder
Selected bitrate : 128 kBit/s
Quality : High
Add ID3 tag : No
Command line compressor : C:\Program Files (x86)\Exact Audio Copy\Flac\flac.exe
Additional command line options : -V -8 -T "Date=%year%" -T "Genre=%genre%" %source%


TOC of the extracted CD

Track | Start | Length | Start sector | End sector
––––––––––––––––––––––––––––-
1 | 0:00.00 | 7:15.23 | 0 | 32647
2 | 7:15.23 | 5:02.00 | 32648 | 55297
3 | 12:17.23 | 7:25.35 | 55298 | 88707
4 | 19:42.58 | 4:05.25 | 88708 | 107107
5 | 23:48.08 | 2:57.32 | 107108 | 120414
6 | 26:45.40 | 3:01.48 | 120415 | 134037
7 | 29:47.13 | 7:41.60 | 134038 | 168672
8 | 37:28.73 | 3:59.32 | 168673 | 186629
9 | 41:28.30 | 2:02.45 | 186630 | 195824
10 | 43:31.00 | 2:59.40 | 195825 | 209289
11 | 46:30.40 | 2:29.03 | 209290 | 220467
12 | 48:59.43 | 3:18.72 | 220468 | 235389
13 | 52:18.40 | 7:43.65 | 235390 | 270179
14 | 60:02.30 | 5:04.55 | 270180 | 293034
15 | 65:07.10 | 11:40.38 | 293035 | 345572


Range status and errors

Selected range

Filename C:\temp\Early Choral Music at Trinity College, Cambridge\CD3\Sweelinck - Pseaumes de David.wav

Peak level 97.4 %
Extraction speed 4.0 X
Range quality 100.0 %
Test CRC 0FF4BB01
Copy CRC 0FF4BB01
Copy OK

No errors occurred


AccurateRip summary

Track 1 not present in database
Track 2 not present in database
Track 3 not present in database
Track 4 not present in database
Track 5 not present in database
Track 6 not present in database
Track 7 not present in database
Track 8 not present in database
Track 9 not present in database
Track 10 not present in database
Track 11 not present in database
Track 12 not present in database
Track 13 not present in database
Track 14 not present in database
Track 15 not present in database

None of the tracks are present in the AccurateRip database

End of status report

==== Log checksum 58D533C32359B4937C6AF0E106599BB8915FBC1936977185F3BA8A86AAA609DB ====


Exact Audio Copy V1.3 from 2. September 2016

EAC extraction logfile from 21. August 2017, 21:08

The Choir of Trinity College, Cambridge, Richard Marlow / Monteverdi - Dixit Dominus and other motets

Used drive : PLDS DVD-RW DU8A6SH Adapter: 1 ID: 0

Read mode : Secure
Utilize accurate stream : Yes
Defeat audio cache : Yes
Make use of C2 pointers : No

Read offset correction : 6
Overread into Lead-In and Lead-Out : No
Fill up missing offset samples with silence : Yes
Delete leading and trailing silent blocks : No
Null samples used in CRC calculations : Yes
Used interface : Native Win32 interface for Win NT & 2000

Used output format : User Defined Encoder
Selected bitrate : 128 kBit/s
Quality : High
Add ID3 tag : No
Command line compressor : C:\Program Files (x86)\Exact Audio Copy\Flac\flac.exe
Additional command line options : -V -8 -T "Date=%year%" -T "Genre=%genre%" %source%


TOC of the extracted CD

Track | Start | Length | Start sector | End sector
––––––––––––––––––––––––––––-
1 | 0:00.00 | 6:57.25 | 0 | 31299
2 | 6:57.25 | 4:46.45 | 31300 | 52794
3 | 11:43.70 | 5:51.53 | 52795 | 79172
4 | 17:35.48 | 2:56.65 | 79173 | 92437
5 | 20:32.38 | 5:16.30 | 92438 | 116167
6 | 25:48.68 | 7:15.05 | 116168 | 148797
7 | 33:03.73 | 1:53.72 | 148798 | 157344
8 | 34:57.70 | 5:15.15 | 157345 | 180984
9 | 40:13.10 | 9:33.13 | 180985 | 223972
10 | 49:46.23 | 6:28.07 | 223973 | 253079
11 | 56:14.30 | 4:12.10 | 253080 | 271989
12 | 60:26.40 | 8:50.43 | 271990 | 311782


Range status and errors

Selected range

Filename C:\temp\Early Choral Music at Trinity College, Cambridge\CD4\Monteverdi - Dixit Dominus and other motets.wav

Peak level 98.7 %
Extraction speed 3.6 X
Range quality 100.0 %
Test CRC 0E2C7920
Copy CRC 0E2C7920
Copy OK

No errors occurred


AccurateRip summary

Track 1 cannot be verified as accurate (confidence 1) [07C4BE12], AccurateRip returned [A448FB5E] (AR v2)
Track 2 cannot be verified as accurate (confidence 1) [08EFCC84], AccurateRip returned [2DCBD0A4] (AR v2)
Track 3 cannot be verified as accurate (confidence 1) [B0386027], AccurateRip returned [6ADEEB46] (AR v2)
Track 4 cannot be verified as accurate (confidence 1) [524952FC], AccurateRip returned [45143AF6] (AR v2)
Track 5 cannot be verified as accurate (confidence 1) [C60D7C73], AccurateRip returned [A563235C] (AR v2)
Track 6 cannot be verified as accurate (confidence 1) [9C387171], AccurateRip returned [30F4629A] (AR v2)
Track 7 cannot be verified as accurate (confidence 1) [93A14E4C], AccurateRip returned [20755B6E] (AR v2)
Track 8 cannot be verified as accurate (confidence 1) [518AA89A], AccurateRip returned [5719EA5E] (AR v2)
Track 9 cannot be verified as accurate (confidence 1) [C5273562], AccurateRip returned [91EB9098] (AR v2)
Track 10 cannot be verified as accurate (confidence 1) [238A704B], AccurateRip returned [04CE0164] (AR v2)
Track 11 cannot be verified as accurate (confidence 1) [60D9ACB9], AccurateRip returned [CE52E1D8] (AR v2)
Track 12 cannot be verified as accurate (confidence 1) [DC7F7138], AccurateRip returned [66EDC5D8] (AR v2)

No tracks could be verified as accurate
You may have a different pressing from the one(s) in the database

End of status report

==== Log checksum DD72028C803731D07EB93CC3F617A41D5BB5EA2C99ACDEE4F329488741FBF7F7 ====


Exact Audio Copy V1.3 from 2. September 2016

EAC extraction logfile from 21. August 2017, 21:58

The Choir of Trinity College, Cambridge, Richard Marlow / Michael Praetorius - In dulci jubilo

Used drive : PLDS DVD-RW DU8A6SH Adapter: 1 ID: 0

Read mode : Secure
Utilize accurate stream : Yes
Defeat audio cache : Yes
Make use of C2 pointers : No

Read offset correction : 6
Overread into Lead-In and Lead-Out : No
Fill up missing offset samples with silence : Yes
Delete leading and trailing silent blocks : No
Null samples used in CRC calculations : Yes
Used interface : Native Win32 interface for Win NT & 2000

Used output format : User Defined Encoder
Selected bitrate : 128 kBit/s
Quality : High
Add ID3 tag : No
Command line compressor : C:\Program Files (x86)\Exact Audio Copy\Flac\flac.exe
Additional command line options : -V -8 -T "Date=%year%" -T "Genre=%genre%" %source%


TOC of the extracted CD

Track | Start | Length | Start sector | End sector
––––––––––––––––––––––––––––-
1 | 0:00.00 | 2:49.40 | 0 | 12714
2 | 2:49.40 | 2:41.70 | 12715 | 24859
3 | 5:31.35 | 2:06.45 | 24860 | 34354
4 | 7:38.05 | 1:23.07 | 34355 | 40586
5 | 9:01.12 | 3:25.38 | 40587 | 55999
6 | 12:26.50 | 1:34.32 | 56000 | 63081
7 | 14:01.07 | 2:03.53 | 63082 | 72359
8 | 16:04.60 | 3:33.07 | 72360 | 88341
9 | 19:37.67 | 1:33.38 | 88342 | 95354
10 | 21:11.30 | 0:47.50 | 95355 | 98929
11 | 21:59.05 | 1:31.67 | 98930 | 105821
12 | 23:30.72 | 2:09.65 | 105822 | 115561
13 | 25:40.62 | 2:46.35 | 115562 | 128046
14 | 28:27.22 | 2:34.13 | 128047 | 139609
15 | 31:01.35 | 2:19.70 | 139610 | 150104
16 | 33:21.30 | 1:45.67 | 150105 | 158046
17 | 35:07.22 | 3:15.08 | 158047 | 172679
18 | 38:22.30 | 3:11.50 | 172680 | 187054
19 | 41:34.05 | 2:46.32 | 187055 | 199536
20 | 44:20.37 | 2:43.50 | 199537 | 211811
21 | 47:04.12 | 2:35.53 | 211812 | 223489
22 | 49:39.65 | 1:31.30 | 223490 | 230344
23 | 51:11.20 | 1:12.02 | 230345 | 235746
24 | 52:23.22 | 1:34.13 | 235747 | 242809
25 | 53:57.35 | 1:37.22 | 242810 | 250106
26 | 55:34.57 | 1:14.68 | 250107 | 255724
27 | 56:49.50 | 1:34.07 | 255725 | 262781
28 | 58:23.57 | 1:33.18 | 262782 | 269774
29 | 59:57.00 | 1:05.72 | 269775 | 274721
30 | 61:02.72 | 1:34.70 | 274722 | 281841
31 | 62:37.67 | 2:22.28 | 281842 | 292519
32 | 65:00.20 | 5:05.72 | 292520 | 315466


Range status and errors

Selected range

Filename C:\temp\Early Choral Music at Trinity College, Cambridge\CD5\Michael Praetorius - In dulci jubilo.wav

Peak level 98.8 %
Extraction speed 3.7 X
Range quality 100.0 %
Test CRC 96113C76
Copy CRC 96113C76
Copy OK

No errors occurred


AccurateRip summary

Track 1 not present in database
Track 2 not present in database
Track 3 not present in database
Track 4 not present in database
Track 5 not present in database
Track 6 not present in database
Track 7 not present in database
Track 8 not present in database
Track 9 not present in database
Track 10 not present in database
Track 11 not present in database
Track 12 not present in database
Track 13 not present in database
Track 14 not present in database
Track 15 not present in database
Track 16 not present in database
Track 17 not present in database
Track 18 not present in database
Track 19 not present in database
Track 20 not present in database
Track 21 not present in database
Track 22 not present in database
Track 23 not present in database
Track 24 not present in database
Track 25 not present in database
Track 26 not present in database
Track 27 not present in database
Track 28 not present in database
Track 29 not present in database
Track 30 not present in database
Track 31 not present in database
Track 32 not present in database

None of the tracks are present in the AccurateRip database

End of status report

==== Log checksum 43E34C948733C6C10B7C13EA9DD6711D23BAB1E8510381F1E70A62A5865FEB4E ====


Exact Audio Copy V1.3 from 2. September 2016

EAC extraction logfile from 22. August 2017, 21:18

The Choir of Trinity College, Cambridge, His Majestys Sagbutts & Cornetts, Richard Marlow / Schütz - Psalmen Davids

Used drive : PLDS DVD-RW DU8A6SH Adapter: 1 ID: 0

Read mode : Secure
Utilize accurate stream : Yes
Defeat audio cache : Yes
Make use of C2 pointers : No

Read offset correction : 6
Overread into Lead-In and Lead-Out : No
Fill up missing offset samples with silence : Yes
Delete leading and trailing silent blocks : No
Null samples used in CRC calculations : Yes
Used interface : Native Win32 interface for Win NT & 2000

Used output format : User Defined Encoder
Selected bitrate : 128 kBit/s
Quality : High
Add ID3 tag : No
Command line compressor : C:\Program Files (x86)\Exact Audio Copy\Flac\flac.exe
Additional command line options : -V -8 -T "Date=%year%" -T "Genre=%genre%" %source%


TOC of the extracted CD

Track | Start | Length | Start sector | End sector
––––––––––––––––––––––––––––-
1 | 0:00.00 | 4:09.44 | 0 | 18718
2 | 4:09.44 | 3:55.10 | 18719 | 36353
3 | 8:04.54 | 4:18.45 | 36354 | 55748
4 | 12:23.24 | 6:54.73 | 55749 | 86871
5 | 19:18.22 | 4:54.45 | 86872 | 108966
6 | 24:12.67 | 4:01.45 | 108967 | 127086
7 | 28:14.37 | 3:21.60 | 127087 | 142221
8 | 31:36.22 | 5:19.55 | 142222 | 166201
9 | 36:56.02 | 4:05.62 | 166202 | 184638
10 | 41:01.64 | 3:35.23 | 184639 | 200786
11 | 44:37.12 | 5:18.25 | 200787 | 224661
12 | 49:55.37 | 5:48.30 | 224662 | 250791
13 | 55:43.67 | 8:20.40 | 250792 | 288331


Range status and errors

Selected range

Filename C:\temp\Early Choral Music at Trinity College, Cambridge\CD6\Schutz - Psalmen Davids.wav

Peak level 92.7 %
Extraction speed 3.6 X
Range quality 100.0 %
Test CRC 3A762984
Copy CRC 3A762984
Copy OK

No errors occurred


AccurateRip summary

Track 1 not present in database
Track 2 not present in database
Track 3 not present in database
Track 4 not present in database
Track 5 not present in database
Track 6 not present in database
Track 7 not present in database
Track 8 not present in database
Track 9 not present in database
Track 10 not present in database
Track 11 not present in database
Track 12 not present in database
Track 13 not present in database

None of the tracks are present in the AccurateRip database

End of status report

==== Log checksum D35867FF4305BFBAA36D1B26278499B78DC64535D32C5AF3CFC364DA03B5C23D ====


Early Choral Music at Trinity College, Cambridge [6CD] (2016)

Thanks to the original releaser