Subcategories
Tags
Language
Tags

Jean-Louis Haguenauer, Soloists - Claude Debussy: Integrale des Melodies (Complete Songs) (2014) 4CD Box Set

Posted By: Designol
Jean-Louis Haguenauer, Soloists - Claude Debussy: Integrale des Melodies (Complete Songs) (2014) 4CD Box Set

Claude Debussy: Intégrale des Mélodies (Complete Songs) (2014) 4CD Box Set
Liliana Faraon & Magali Léger, sopranos; Marie-Ange Todorovitch, mezzo-soprano
Gilles Ragon, tenor; François Le Roux, baritone
Jean-Louis Haguenauer, piano Blüthner

EAC | FLAC | Image (Cue&Log) ~ 1 Gb | Mp3 (CBR320) ~ 642 Mb | Artwork included
Genre: Classical | Label: Ligia Digital | # LIDI 0201285-14 | Time: 04:39:24

The historic four-CD set is the first compilation of all the voice and piano compositions of Debussy—containing over 100 songs and five hours of music.

A three-CD set released on EMI in the 1980s was considered Debussy’s entire output in the voice and piano canon at the time. Since then, many new songs by the iconic composer have been discovered and are included on “Melodies Integrale.”

The project also marks the first time anyone has recorded Debussy’s music on his own piano and the first time Haguenauer played his idol’s cherished instrument.

“As a young boy, I was familiar with one of the big vocal interpreters of Debussy, Irène Joachim,” said Haguenauer. “When I was 18, I accompanied classes she gave on his vocal music, and that began the crazy love I then developed. It took a while to fully internalize, but that was the determining factor of my love for Debussy.”

Haguenauer has worked with Debussy’s music for decades and had already recorded most of the composer’s solo piano output. “So this project is a just another facet of it for me,” he said.

While Haguenauer had worked on the project for three years, the CDs were recorded in only three weeks in summer 2012 at Musée Labenche in Brive-la-gaillarde, France, on Debussy’s own beautifully restored Blüthner piano. The historic instrument features the Aliquot System, incorporating a fourth string in the treble section which resonates instead of being hit by hammers, creating a unique sound especially suited to his music.

Debussy found the piano in 1905 while on vacation and brought it to his home in Paris, where it stayed until his death in 1918. It was then moved to a different part of France because of war. When Haguenauer heard about it, he went to try the piano, and it convinced him that he wanted to tackle the complete recordings project because the sound of the piano was so relevant to Debussy’s music.

Five French singers contributed to the album: sopranos Liliana Faraon and Magali Léger, mezzo-soprano Marie-Ange Todorovitch, tenor Gilles Ragon and baritone François Le Roux.

Haguenauer also collaborated on the project with musicologist Denis Herlin—the foremost Debussy expert in France.

Jean-Louis Haguenauer, Soloists - Claude Debussy: Integrale des Melodies (Complete Songs) (2014) 4CD Box Set



Liliana Faraon & Magali Léger, sopranos
Marie-Ange Todorovitch, mezzo-soprano
Gilles Ragon, tenor
François Le Roux, baritone
Jean-Louis Haguenauer, piano Blüthner (1905)

Tracklist:

Claude Debussy (1862-1918)

CD1 (01:11:28)

01. Nuit d'étoiles (2:50)
02. Madrid (3:41)
03. Caprice (1:26)
04. Aimons-nous et dormons (2:23)
05. Les Baisers (2:05)
06. Rondel chinois (2:53)
07. Tragédie (1:29)
08. Jane (2:10)
09. La Fille aux cheveux de lin (3:37)
10. Rondeau (2:19)
11. Triolet à Philis (Zéphyr) (1:25)
12. Souhait (2:11)
13. Les Papillons (1:38)
14. Fantoches (1:22)
15. Rêverie (1:48)
16. Fête galante (2:03)
17. Sérénade (1:50)
18. Pierrot (1:30)
19. Les Roses (1:31)
20. Le Lilas (1:45)
21. L'Archet (2:36)
22. Le matelot qui tombe à l'eau (1:14)
23. Romance: 'Non, les baisers d'amour…' (1:33)
24. Flots, palmes,sables (4:32)
25. Les Elfes (6:58)
26. Il dort encore (2:55)
27. Pantomime (2:23)
28. Mandoline (version Vasnier) (1:43)
29. En sourdine (version Vasnier) (2:43)
30. Clair de lune (version Vasnier) (2:57)


CD2 (01:12:38)

01. Coquetterie posthume (3:04)
02. Chanson espagnole (3:15)
03. Romance: 'Silence inneffable…' (2:30)
04. Musique (2:00)
05. Paysage sentimental (3:07)
06. Romance: 'Voici que le printemps…' (2:33)
07. La Romance d'Ariel (4:11)
08. Regret (2:07)
09. Apparition (3:38)
10. Séguidille (4:16)
11. L'Ombre des arbres (2:25)
12. Chevaux de bois (2:56)
13. Green (1:47)
14. C'est l'extase langoureuse (2:54)
15. Il pleure dans mon coeur (2:40)
16. Chevaux de bois (2:57)
17. Spleen (2:22)

Cinq Poèmes de Ch. Baudelaire
18. No.1 Le Balcon (7:32)
19. No.2 Harmonie du soir (4:05)
20. No.3 Le Jet d'eau (5:14)
21. No.4 Recueillement (4:10)
22. No.5 La Mort des Amants (2:55)


CD3 (01:09:26)

01. Mandoline (version éditée) (1:42)
02. La Belle au bois dormant (2:44)
03. Romance: 'Voici que le printemps…' (2:13)
04. Paysage sentimental (version éditée) (3:05)
05. Fleur des blés (1:47)
06. Beau soir (2:04)
07. Romance: 'L’âme évaporée…' (1:40)
08. Romance: Les Cloches (2:07)

Fêtes galantes I
09. No.1 En sourdine (2:44)
10. No.2 Fantoches (1:15)
11. No.3 Clair de lune (2:40)

Trois mélodies sur des poèmes de Paul Verlaine
12. No.1 La mer est plus belle (2:18)
13. No.2 Le son du cor s’afflige (2:40)
14. No.3 L’échelonnement des haies (1:21)

15. Les Angélus (1:56)

Proses lyriques
16. No.1 De rêve (6:15)
17. No.2 De grève (3:35)
18. No.3 De fleurs (5:33)
19. No.4 De soir (4:07)

Chansons de Bilitis
20. No.1 La Flûte de Pan (2:42)
21. No.2 La Chevelure (3:20)
22. No.3 Le Tombeau des Naïades (2:35)

Nuits blanches
23. No.1 [Nuit sans fin] (2:04)
24. No.2 [Pourquoi ?] (4:06)

25. Berceuse sur une vieille chanson poitevine (2:53)


CD4 (01:05:53)

01. Dans le jardin (2:21)

Ariettes oubliées (Deuxième édition)
02. No.1 C'est l'extase langoureuse (2:44)
03. No.2 Il pleure dans mon coeur (2:43)
04. No.3 L'ombre des arbres (2:16)
05. No.4 Chevaux de bois (3:00)
06. No.5 Green (1:57)
07. No.6 Spleen (2:28)

Trois Chansons de France
08. No.1 Rondel 'Le temps a laissié son manteau' (1:13)
09. No.2 La Grotte (2:16)
10. No.3 Rondel 'Pour ce que plaisance est morte' (2:21)

11. Colloque sentimental (Première version) (4:03)

Fêtes galantes II
12. No.1 Les Ingénus (2:02)
13. No.2 Le Faune (2:03)
14. No.3 Colloque sentimental (4:04)

Le Promenoir des deux amants
15. No.1 Auprès de cette grotte (2:19)
16. No.2 Crois mon conseil, chère Climène (1:47)
17. No.3 Je tremble (1:46)

Trois Ballades de François Villon
18. No.1 Ballade de Villon à s'amye (4:29)
19. No.2 Ballade que Villon feit à la requeste de sa mère pour prier Nostre-Dame (4:21)
20. No.3 Ballade des femmes de Paris (2:26)

Trois Poèmes de Stéphane Mallarmé
21. No.1 Soupir (2:47)
22. No.2 Placet futiles (2:14)
23. No.3 Eventail (2:25)

24. Noël des enfants qui n'ont plus de maison (5:49)


Exact Audio Copy V1.3 from 2. September 2016

EAC extraction logfile from 6. December 2017, 18:51

Jean-Louis Haguenauer / Debussy - Intégrale des Mélodies - CD1

Used drive : PLDS DVD-RW DU8A6SH Adapter: 1 ID: 0

Read mode : Secure
Utilize accurate stream : Yes
Defeat audio cache : Yes
Make use of C2 pointers : No

Read offset correction : 6
Overread into Lead-In and Lead-Out : No
Fill up missing offset samples with silence : Yes
Delete leading and trailing silent blocks : No
Null samples used in CRC calculations : Yes
Used interface : Native Win32 interface for Win NT & 2000

Used output format : User Defined Encoder
Selected bitrate : 128 kBit/s
Quality : High
Add ID3 tag : No
Command line compressor : C:\Program Files (x86)\Exact Audio Copy\Flac\flac.exe
Additional command line options : -V -8 -T "Date=%year%" -T "Genre=%genre%" %source%


TOC of the extracted CD

Track | Start | Length | Start sector | End sector
––––––––––––––––––––––––––––-
1 | 0:00.00 | 2:49.48 | 0 | 12722
2 | 2:49.48 | 3:41.17 | 12723 | 29314
3 | 6:30.65 | 1:25.56 | 29315 | 35745
4 | 7:56.46 | 2:22.44 | 35746 | 46439
5 | 10:19.15 | 2:04.62 | 46440 | 55801
6 | 12:24.02 | 2:53.16 | 55802 | 68792
7 | 15:17.18 | 1:28.38 | 68793 | 75430
8 | 16:45.56 | 2:10.03 | 75431 | 85183
9 | 18:55.59 | 3:37.28 | 85184 | 101486
10 | 22:33.12 | 2:19.26 | 101487 | 111937
11 | 24:52.38 | 1:24.64 | 111938 | 118301
12 | 26:17.27 | 2:10.41 | 118302 | 128092
13 | 28:27.68 | 1:37.50 | 128093 | 135417
14 | 30:05.43 | 1:22.29 | 135418 | 141596
15 | 31:27.72 | 1:47.73 | 141597 | 149694
16 | 33:15.70 | 2:03.01 | 149695 | 158920
17 | 35:18.71 | 1:49.43 | 158921 | 167138
18 | 37:08.39 | 1:29.43 | 167139 | 173856
19 | 38:38.07 | 1:31.05 | 173857 | 180686
20 | 40:09.12 | 1:45.14 | 180687 | 188575
21 | 41:54.26 | 2:35.60 | 188576 | 200260
22 | 44:30.11 | 1:13.41 | 200261 | 205776
23 | 45:43.52 | 1:32.72 | 205777 | 212748
24 | 47:16.49 | 4:32.21 | 212749 | 233169
25 | 51:48.70 | 6:57.60 | 233170 | 264504
26 | 58:46.55 | 2:55.05 | 264505 | 277634
27 | 61:41.60 | 2:23.10 | 277635 | 288369
28 | 64:04.70 | 1:42.38 | 288370 | 296057
29 | 65:47.33 | 2:43.11 | 296058 | 308293
30 | 68:30.44 | 2:56.72 | 308294 | 321565


Range status and errors

Selected range

Filename C:\temp\Debussy - Integrale des Melodies\CD1\Debussy - Integrale des Melodies - CD1.wav

Peak level 100.0 %
Extraction speed 3.8 X
Range quality 100.0 %
Test CRC 3DC2F2AB
Copy CRC 3DC2F2AB
Copy OK

No errors occurred


AccurateRip summary

Track 1 not present in database
Track 2 not present in database
Track 3 not present in database
Track 4 not present in database
Track 5 not present in database
Track 6 not present in database
Track 7 not present in database
Track 8 not present in database
Track 9 not present in database
Track 10 not present in database
Track 11 not present in database
Track 12 not present in database
Track 13 not present in database
Track 14 not present in database
Track 15 not present in database
Track 16 not present in database
Track 17 not present in database
Track 18 not present in database
Track 19 not present in database
Track 20 not present in database
Track 21 not present in database
Track 22 not present in database
Track 23 not present in database
Track 24 not present in database
Track 25 not present in database
Track 26 not present in database
Track 27 not present in database
Track 28 not present in database
Track 29 not present in database
Track 30 not present in database

None of the tracks are present in the AccurateRip database

End of status report

==== Log checksum 1BBB44DDA724FA817E2EDE393DE0E5350482BD7E70B7DF39744C9EBD112D6122 ====

[CUETools log; Date: 01.11.2018 5:16:39; Version: 2.1.4]
[CTDB TOCID: 00fnyByLwUg.WUYXCZJknmOAUmU-] found.
Track | CTDB Status
1 | (3/3) Accurately ripped
2 | (3/3) Accurately ripped
3 | (3/3) Accurately ripped
4 | (3/3) Accurately ripped
5 | (3/3) Accurately ripped
6 | (3/3) Accurately ripped
7 | (3/3) Accurately ripped
8 | (3/3) Accurately ripped
9 | (3/3) Accurately ripped
10 | (3/3) Accurately ripped
11 | (3/3) Accurately ripped
12 | (3/3) Accurately ripped
13 | (3/3) Accurately ripped
14 | (3/3) Accurately ripped
15 | (3/3) Accurately ripped
16 | (3/3) Accurately ripped
17 | (3/3) Accurately ripped
18 | (3/3) Accurately ripped
19 | (3/3) Accurately ripped
20 | (3/3) Accurately ripped
21 | (3/3) Accurately ripped
22 | (3/3) Accurately ripped
23 | (3/3) Accurately ripped
24 | (3/3) Accurately ripped
25 | (3/3) Accurately ripped
26 | (3/3) Accurately ripped
27 | (3/3) Accurately ripped
28 | (3/3) Accurately ripped
29 | (3/3) Accurately ripped
30 | (2/3) Accurately ripped
[AccurateRip ID: 0048d699-060a3737-b410bf1e] disk not present in database.

Track Peak [ CRC32 ] [W/O NULL] [ LOG ]
– 100,0 [3DC2F2AB] [3CFD82A0] CRC32
01 99,1 [ADCFE1A5] [FDB1A8A7]
02 71,8 [0E397B70] [A92FF804]
03 77,8 [FE0FCCCB] [4831D645]
04 61,6 [B0BC22A5] [66738CF1]
05 93,8 [43D69B59] [5C8AC459]
06 88,9 [D5DA5494] [F9CD33FB]
07 60,6 [120404A3] [42774030]
08 80,3 [30A8F059] [9890B4CB]
09 100,0 [E67B0165] [EC1CCBA5]
10 82,3 [DA7119EA] [0295AAF7]
11 57,1 [E8486573] [0A7E03E5]
12 52,5 [E556AC1A] [E70AFAE2]
13 64,4 [6806E717] [A9E9E9C1]
14 64,2 [981E1665] [D98789C2]
15 91,4 [91069DAD] [6D4DEA5B]
16 65,9 [93B90131] [6CDC9986]
17 73,4 [3D6D5D6A] [63A40B2F]
18 73,5 [8906437A] [1044017E]
19 91,2 [552BBC1C] [C058F9A6]
20 98,9 [F49BE083] [221CA402]
21 68,4 [5C2F5B2D] [65739E40]
22 43,4 [FD382609] [D6150648]
23 66,2 [66D932E0] [21B41CD9]
24 99,2 [625F5813] [5620F531]
25 100,0 [5FDCEB14] [1519986A]
26 81,7 [01A5EE2C] [7AB58D8E]
27 84,0 [28FDFD02] [7EE497B7]
28 54,3 [75352688] [248342E9]
29 81,3 [C2143428] [7EB77387]
30 88,7 [D785D948] [04EC9719]

foobar2000 1.2 / Dynamic Range Meter 1.1.1
log date: 2018-11-01 06:25:21

––––––––––––––––––––––––––––––––––––––––
Analyzed: Gilles Ragon, Jean-Louis Haguenauer / Debussy - Intégrale des Mélodies - CD1
––––––––––––––––––––––––––––––––––––––––

DR Peak RMS Duration Track
––––––––––––––––––––––––––––––––––––––––
DR12 -4.35 dB -22.31 dB 1:29 07-Tragédie
DR12 -3.84 dB -21.94 dB 1:22 14-Fantoches
DR13 -3.29 dB -23.20 dB 2:36 21-L'Archet
––––––––––––––––––––––––––––––––––––––––

Number of tracks: 3
Official DR value: DR12

Samplerate: 44100 Hz
Channels: 2
Bits per sample: 16
Bitrate: 522 kbps
Codec: FLAC
================================================================================

––––––––––––––––––––––––––––––––––––––––
Analyzed: Liliana Faraon, Jean-Louis Haguenauer / Debussy - Intégrale des Mélodies - CD1
––––––––––––––––––––––––––––––––––––––––

DR Peak RMS Duration Track
––––––––––––––––––––––––––––––––––––––––
DR14 -0.07 dB -19.29 dB 2:50 01-Nuit d'étoiles
DR11 -0.55 dB -17.13 dB 2:05 05-Les Baisers
DR13 -1.02 dB -21.27 dB 2:53 06-Rondel chinois
DR12 0.00 dB -17.92 dB 3:37 09-La Fille aux cheveux de lin
DR12 -3.81 dB -22.45 dB 1:38 13-Les Papillons
DR12 -0.78 dB -18.82 dB 1:48 15-Rêverie
DR11 -3.62 dB -21.23 dB 2:03 16-Fête galante
DR11 -2.69 dB -18.70 dB 1:50 17-Sérénade
DR12 -2.67 dB -20.19 dB 1:30 18-Pierrot
DR13 -0.80 dB -19.27 dB 1:31 19-Les Roses
DR12 -0.09 dB -17.35 dB 1:45 20-Le Lilas
DR12 -7.25 dB -25.06 dB 1:14 22-Le matelot qui tombe à l'eau
DR12 -0.06 dB -17.36 dB 4:32 24-Flots, palmes,sables
DR11 -1.75 dB -18.86 dB 2:55 26-Il dort encore
DR13 -1.51 dB -20.37 dB 2:23 27-Pantomime
DR13 -1.03 dB -22.16 dB 2:57 30-Clair de lune (version Vasnier)
––––––––––––––––––––––––––––––––––––––––

Number of tracks: 16
Official DR value: DR12

Samplerate: 44100 Hz
Channels: 2
Bits per sample: 16
Bitrate: 522 kbps
Codec: FLAC
================================================================================

––––––––––––––––––––––––––––––––––––––––
Analyzed: Magali Léger, Jean-Louis Haguenauer / Debussy - Intégrale des Mélodies - CD1
––––––––––––––––––––––––––––––––––––––––

DR Peak RMS Duration Track
––––––––––––––––––––––––––––––––––––––––
DR12 -2.17 dB -19.44 dB 1:26 03-Caprice
DR12 -4.21 dB -21.62 dB 2:23 04-Aimons-nous et dormons
DR13 -1.90 dB -21.10 dB 2:10 08-Jane
DR13 -1.69 dB -21.45 dB 2:19 10-Rondeau
DR10 -4.85 dB -22.68 dB 1:25 11-Triolet à Philis (Zéphyr)
DR12 -5.59 dB -25.26 dB 2:11 12-Souhait
DR13 -3.58 dB -21.43 dB 1:33 23-Romance: 'Non, les baisers d'amour…'
DR14 0.00 dB -20.45 dB 6:58 25-Les Elfes
DR13 -5.30 dB -22.33 dB 1:43 28-Mandoline (version Vasnier)
DR12 -1.79 dB -20.71 dB 2:43 29-En sourdine (version Vasnier)
––––––––––––––––––––––––––––––––––––––––

Number of tracks: 10
Official DR value: DR12

Samplerate: 44100 Hz
Channels: 2
Bits per sample: 16
Bitrate: 522 kbps
Codec: FLAC
================================================================================

––––––––––––––––––––––––––––––––––––––––
Statistics for: 02-Madrid
Number of samples: 9756096
Duration: 3:41
––––––––––––––––––––––––––––––––––––––––

Left Right

Peak Value: -3.93 dB –- -2.87 dB
Avg RMS: -22.67 dB –- -22.58 dB
DR channel: 14.03 dB –- 15.11 dB
––––––––––––––––––––––––––––––––––––––––

Official DR Value: DR15

Samplerate: 44100 Hz
Channels: 2
Bits per sample: 16
Bitrate: 522 kbps
Codec: FLAC
================================================================================


Exact Audio Copy V1.3 from 2. September 2016

EAC extraction logfile from 6. December 2017, 19:33

Jean-Louis Haguenauer / Debussy - Intégrale des Mélodies - CD2

Used drive : PLDS DVD-RW DU8A6SH Adapter: 1 ID: 0

Read mode : Secure
Utilize accurate stream : Yes
Defeat audio cache : Yes
Make use of C2 pointers : No

Read offset correction : 6
Overread into Lead-In and Lead-Out : No
Fill up missing offset samples with silence : Yes
Delete leading and trailing silent blocks : No
Null samples used in CRC calculations : Yes
Used interface : Native Win32 interface for Win NT & 2000

Used output format : User Defined Encoder
Selected bitrate : 128 kBit/s
Quality : High
Add ID3 tag : No
Command line compressor : C:\Program Files (x86)\Exact Audio Copy\Flac\flac.exe
Additional command line options : -V -8 -T "Date=%year%" -T "Genre=%genre%" %source%


TOC of the extracted CD

Track | Start | Length | Start sector | End sector
––––––––––––––––––––––––––––-
1 | 0:00.00 | 3:04.36 | 0 | 13835
2 | 3:04.36 | 3:15.24 | 13836 | 28484
3 | 6:19.60 | 2:29.51 | 28485 | 39710
4 | 8:49.36 | 2:00.35 | 39711 | 48745
5 | 10:49.71 | 3:07.18 | 48746 | 62788
6 | 13:57.14 | 2:32.65 | 62789 | 74253
7 | 16:30.04 | 4:11.01 | 74254 | 93079
8 | 20:41.05 | 2:07.30 | 93080 | 102634
9 | 22:48.35 | 3:37.70 | 102635 | 118979
10 | 26:26.30 | 4:16.35 | 118980 | 138214
11 | 30:42.65 | 2:24.50 | 138215 | 149064
12 | 33:07.40 | 2:55.41 | 149065 | 162230
13 | 36:03.06 | 1:46.60 | 162231 | 170240
14 | 37:49.66 | 2:53.60 | 170241 | 183275
15 | 40:43.51 | 2:39.56 | 183276 | 195256
16 | 43:23.32 | 2:56.67 | 195257 | 208523
17 | 46:20.24 | 2:21.43 | 208524 | 219141
18 | 48:41.67 | 7:31.70 | 219142 | 253036
19 | 56:13.62 | 4:05.12 | 253037 | 271423
20 | 60:18.74 | 5:13.63 | 271424 | 294961
21 | 65:32.62 | 4:10.35 | 294962 | 313746
22 | 69:43.22 | 2:54.71 | 313747 | 326867


Range status and errors

Selected range

Filename C:\temp\Debussy - Integrale des Melodies\CD2\Debussy - Integrale des Melodies - CD2.wav

Peak level 98.4 %
Extraction speed 3.8 X
Range quality 100.0 %
Test CRC 1E1F2FF5
Copy CRC 1E1F2FF5
Copy OK

No errors occurred


AccurateRip summary

Track 1 not present in database
Track 2 not present in database
Track 3 not present in database
Track 4 not present in database
Track 5 not present in database
Track 6 not present in database
Track 7 not present in database
Track 8 not present in database
Track 9 not present in database
Track 10 not present in database
Track 11 not present in database
Track 12 not present in database
Track 13 not present in database
Track 14 not present in database
Track 15 not present in database
Track 16 not present in database
Track 17 not present in database
Track 18 not present in database
Track 19 not present in database
Track 20 not present in database
Track 21 not present in database
Track 22 not present in database

None of the tracks are present in the AccurateRip database

End of status report

==== Log checksum 4A4D3241235EB6BEA1345C527FC8A8EE1EB89E50B1A94D35F60E7DFC0D2DEEB4 ====

[CUETools log; Date: 01.11.2018 5:16:57; Version: 2.1.4]
[CTDB TOCID: T9Dk46zs3ar06yDLh0fJs29sZT0-] found.
Track | CTDB Status
1 | (4/4) Accurately ripped
2 | (4/4) Accurately ripped
3 | (4/4) Accurately ripped
4 | (4/4) Accurately ripped
5 | (4/4) Accurately ripped
6 | (4/4) Accurately ripped
7 | (4/4) Accurately ripped
8 | (4/4) Accurately ripped
9 | (4/4) Accurately ripped
10 | (4/4) Accurately ripped
11 | (4/4) Accurately ripped
12 | (4/4) Accurately ripped
13 | (4/4) Accurately ripped
14 | (4/4) Accurately ripped
15 | (4/4) Accurately ripped
16 | (4/4) Accurately ripped
17 | (4/4) Accurately ripped
18 | (4/4) Accurately ripped
19 | (4/4) Accurately ripped
20 | (4/4) Accurately ripped
21 | (4/4) Accurately ripped
22 | (4/4) Accurately ripped
[AccurateRip ID: 0034ecd9-035ad8ce-4d110616] disk not present in database.

Track Peak [ CRC32 ] [W/O NULL] [ LOG ]
– 98,4 [1E1F2FF5] [3A5B10A6] CRC32
01 87,6 [09698730] [B20C71F2]
02 92,7 [90AB276B] [0497A350]
03 96,4 [11D2083D] [8FD224AB]
04 70,9 [EB179A93] [75051A8D]
05 41,5 [8047E094] [6EDDF74C]
06 78,4 [14C6926B] [317A9803]
07 98,4 [8AF2DB19] [BF812AAB]
08 93,8 [CCB17A3D] [0AEC8C6D]
09 96,4 [E0CD2983] [131A6515]
10 94,9 [A5AE3D37] [68686CBE]
11 42,9 [F933600A] [D4C71D04]
12 69,6 [73017A64] [7BF00CB9]
13 66,9 [242F13E4] [0AF4BC35]
14 78,7 [ED017E48] [DE7C5C12]
15 76,6 [164E83F9] [9165565F]
16 56,5 [F4CE2DE9] [10CFD768]
17 76,7 [3D1CA721] [46E84BA7]
18 56,0 [49F83BEE] [B3DB0FEF]
19 45,3 [5732F247] [EAD3CDA2]
20 50,5 [44844640] [3F2EC5EA]
21 52,9 [85DD61EE] [7FEF3F6A]
22 55,9 [BAB10192] [3632B152]

foobar2000 1.2 / Dynamic Range Meter 1.1.1
log date: 2018-11-01 06:25:54

––––––––––––––––––––––––––––––––––––––––
Analyzed: Gilles Ragon, Jean-Louis Haguenauer / Debussy - Intégrale des Mélodies - CD2
––––––––––––––––––––––––––––––––––––––––

DR Peak RMS Duration Track
––––––––––––––––––––––––––––––––––––––––
DR14 -7.63 dB -27.28 dB 3:07 05-Paysage sentimental
DR15 -5.03 dB -25.14 dB 7:32 18-Cinq Poèmes de Ch. Baudelaire - No.1 Le Balcon
DR14 -6.87 dB -27.94 dB 4:05 19-Cinq Poèmes de Ch. Baudelaire - No.2 Harmonie du soir
DR15 -5.92 dB -26.95 dB 5:14 20-Cinq Poèmes de Ch. Baudelaire - No.3 Le Jet d'eau
DR15 -5.52 dB -26.77 dB 4:10 21-Cinq Poèmes de Ch. Baudelaire - No.4 Recueillement
DR14 -5.05 dB -25.39 dB 2:55 22-Cinq Poèmes de Ch. Baudelaire - No.5 La Mort des Amants
––––––––––––––––––––––––––––––––––––––––

Number of tracks: 6
Official DR value: DR14

Samplerate: 44100 Hz
Channels: 2
Bits per sample: 16
Bitrate: 501 kbps
Codec: FLAC
================================================================================

––––––––––––––––––––––––––––––––––––––––
Analyzed: Liliana Faraon, Jean-Louis Haguenauer / Debussy - Intégrale des Mélodies - CD2
––––––––––––––––––––––––––––––––––––––––

DR Peak RMS Duration Track
––––––––––––––––––––––––––––––––––––––––
DR12 -1.14 dB -19.61 dB 3:04 01-Coquetterie posthume
DR13 -0.31 dB -20.46 dB 2:30 03-Romance: 'Silence inneffable…'
DR12 -2.99 dB -22.66 dB 2:00 04-Musique
DR12 -0.13 dB -18.61 dB 4:11 07-La Romance d'Ariel
DR11 -0.55 dB -17.67 dB 2:07 08-Regret
DR12 -0.32 dB -18.94 dB 3:38 09-Apparition
DR11 -0.45 dB -15.56 dB 4:16 10-Séguidille
––––––––––––––––––––––––––––––––––––––––

Number of tracks: 7
Official DR value: DR12

Samplerate: 44100 Hz
Channels: 2
Bits per sample: 16
Bitrate: 501 kbps
Codec: FLAC
================================================================================

––––––––––––––––––––––––––––––––––––––––
Analyzed: Liliana Faraon, Marie-Ange Todorovitch, Jean-Louis Haguenauer / Debussy - Intégrale des Mélodies - CD2 (1)
Magali Léger, Jean-Louis Haguenauer / Debussy - Intégrale des Mélodies - CD2 (2-9)
––––––––––––––––––––––––––––––––––––––––

DR Peak RMS Duration Track
––––––––––––––––––––––––––––––––––––––––
DR13 -0.65 dB -18.80 dB 3:15 02-Chanson espagnole
DR12 -2.11 dB -21.54 dB 2:33 06-Romance: 'Voici que le printemps…'
DR14 -7.34 dB -27.94 dB 2:25 11-L'Ombre des arbres
DR13 -3.14 dB -22.71 dB 2:56 12-Chevaux de bois
DR14 -3.48 dB -24.66 dB 1:47 13-Green
DR13 -2.08 dB -24.34 dB 2:54 14-C'est l'extase langoureuse
DR13 -2.31 dB -22.89 dB 2:40 15-Il pleure dans mon coeur
DR12 -4.95 dB -22.49 dB 2:57 16-Chevaux de bois
DR11 -2.30 dB -21.42 dB 2:22 17-Spleen
––––––––––––––––––––––––––––––––––––––––

Number of tracks: 9
Official DR value: DR13

Samplerate: 44100 Hz
Channels: 2
Bits per sample: 16
Bitrate: 501 kbps
Codec: FLAC
================================================================================


Exact Audio Copy V1.3 from 2. September 2016

EAC extraction logfile from 6. December 2017, 21:16

Jean-Louis Haguenauer / Debussy - Intégrale des Mélodies - CD3

Used drive : PLDS DVD-RW DU8A6SH Adapter: 1 ID: 0

Read mode : Secure
Utilize accurate stream : Yes
Defeat audio cache : Yes
Make use of C2 pointers : No

Read offset correction : 6
Overread into Lead-In and Lead-Out : No
Fill up missing offset samples with silence : Yes
Delete leading and trailing silent blocks : No
Null samples used in CRC calculations : Yes
Used interface : Native Win32 interface for Win NT & 2000

Used output format : User Defined Encoder
Selected bitrate : 128 kBit/s
Quality : High
Add ID3 tag : No
Command line compressor : C:\Program Files (x86)\Exact Audio Copy\Flac\flac.exe
Additional command line options : -V -8 -T "Date=%year%" -T "Genre=%genre%" %source%


TOC of the extracted CD

Track | Start | Length | Start sector | End sector
––––––––––––––––––––––––––––-
1 | 0:00.00 | 1:41.53 | 0 | 7627
2 | 1:41.53 | 2:44.26 | 7628 | 19953
3 | 4:26.04 | 2:12.67 | 19954 | 29920
4 | 6:38.71 | 3:05.23 | 29921 | 43818
5 | 9:44.19 | 1:47.00 | 43819 | 51843
6 | 11:31.19 | 2:04.22 | 51844 | 61165
7 | 13:35.41 | 1:39.48 | 61166 | 68638
8 | 15:15.14 | 2:07.13 | 68639 | 78176
9 | 17:22.27 | 2:44.35 | 78177 | 90511
10 | 20:06.62 | 1:15.26 | 90512 | 96162
11 | 21:22.13 | 2:40.25 | 96163 | 108187
12 | 24:02.38 | 2:17.39 | 108188 | 118501
13 | 26:20.02 | 2:39.38 | 118502 | 130464
14 | 28:59.40 | 1:20.72 | 130465 | 136536
15 | 30:20.37 | 1:55.60 | 136537 | 145221
16 | 32:16.22 | 6:14.38 | 145222 | 173309
17 | 38:30.60 | 3:35.31 | 173310 | 189465
18 | 42:06.16 | 5:32.43 | 189466 | 214408
19 | 47:38.59 | 4:07.31 | 214409 | 232964
20 | 51:46.15 | 2:42.26 | 232965 | 245140
21 | 54:28.41 | 3:19.49 | 245141 | 260114
22 | 57:48.15 | 2:35.30 | 260115 | 271769
23 | 60:23.45 | 2:04.12 | 271770 | 281081
24 | 62:27.57 | 4:05.44 | 281082 | 299500
25 | 66:33.26 | 2:52.39 | 299501 | 312439


Range status and errors

Selected range

Filename C:\temp\Debussy - Integrale des Melodies\CD3\Debussy - Integrale des Melodies - CD3.wav

Peak level 90.8 %
Extraction speed 1.1 X
Range quality 99.6 %
Test CRC 07E11EDB
Copy CRC 07E11EDB
Copy OK

No errors occurred


AccurateRip summary

Track 1 not present in database
Track 2 not present in database
Track 3 not present in database
Track 4 not present in database
Track 5 not present in database
Track 6 not present in database
Track 7 not present in database
Track 8 not present in database
Track 9 not present in database
Track 10 not present in database
Track 11 not present in database
Track 12 not present in database
Track 13 not present in database
Track 14 not present in database
Track 15 not present in database
Track 16 not present in database
Track 17 not present in database
Track 18 not present in database
Track 19 not present in database
Track 20 not present in database
Track 21 not present in database
Track 22 not present in database
Track 23 not present in database
Track 24 not present in database
Track 25 not present in database

None of the tracks are present in the AccurateRip database

End of status report

==== Log checksum 67086443852C68680CEA8748EE96BB31A72ACF4ACCA9AAFF3FF4DF5411FED019 ====

[CUETools log; Date: 01.11.2018 5:17:15; Version: 2.1.4]
[CTDB TOCID: QOn.dvVmY5KLx9V3j7vC5LJAFkc-] found.
Track | CTDB Status
1 | (3/3) Accurately ripped
2 | (3/3) Accurately ripped
3 | (3/3) Accurately ripped
4 | (3/3) Accurately ripped
5 | (3/3) Accurately ripped
6 | (3/3) Accurately ripped
7 | (3/3) Accurately ripped
8 | (3/3) Accurately ripped
9 | (3/3) Accurately ripped
10 | (3/3) Accurately ripped
11 | (3/3) Accurately ripped
12 | (3/3) Accurately ripped
13 | (3/3) Accurately ripped
14 | (3/3) Accurately ripped
15 | (3/3) Accurately ripped
16 | (3/3) Accurately ripped
17 | (3/3) Accurately ripped
18 | (3/3) Accurately ripped
19 | (3/3) Accurately ripped
20 | (3/3) Accurately ripped
21 | (3/3) Accurately ripped
22 | (3/3) Accurately ripped
23 | (3/3) Accurately ripped
24 | (3/3) Accurately ripped
25 | (2/3) Accurately ripped
[AccurateRip ID: 0037f3f8-040d3180-60104519] disk not present in database.

Track Peak [ CRC32 ] [W/O NULL] [ LOG ]
– 90,8 [07E11EDB] [92BEEF8C] CRC32
01 44,7 [AAEEB9B5] [B8043404]
02 84,6 [E9A7F48A] [C066CE94]
03 54,6 [D19C0A47] [3F469389]
04 68,7 [F5DF8BEF] [7A9E832A]
05 61,4 [C29E53F0] [472F73BF]
06 61,6 [A5157F99] [8F2F497E]
07 47,0 [44A9A55C] [121AD972]
08 39,5 [4C3CA791] [07DF4978]
09 35,2 [0685C975] [EAF35CF4]
10 85,8 [91DA98D8] [04505D0C]
11 61,9 [E6449FB4] [4E70F183]
12 81,6 [D846C456] [6635BF87]
13 71,0 [04E25B60] [BE873069]
14 88,0 [812563F6] [866A7167]
15 87,9 [1C7A9DD8] [00A289A0]
16 89,3 [AA99A43C] [58D238B9]
17 69,0 [BD89AC55] [62761187]
18 85,4 [1BF5F172] [55AB0CB5]
19 63,7 [0415180E] [FDD1E466]
20 26,8 [71971F7E] [24D63072]
21 85,5 [8B02E40C] [4781D244]
22 90,8 [4C454B8C] [C953835F]
23 76,0 [1E056760] [026314F9]
24 85,1 [9FA31E02] [51D55407]
25 40,3 [890C7494] [E2634136]

foobar2000 1.2 / Dynamic Range Meter 1.1.1
log date: 2018-11-01 06:26:31

––––––––––––––––––––––––––––––––––––––––
Analyzed: Gilles Ragon, Jean-Louis Haguenauer / Debussy - Intégrale des Mélodies - CD3
––––––––––––––––––––––––––––––––––––––––

DR Peak RMS Duration Track
––––––––––––––––––––––––––––––––––––––––
DR14 -6.99 dB -26.25 dB 1:42 01-Mandoline (version éditée)
DR13 -1.45 dB -21.49 dB 2:44 02-La Belle au bois dormant
DR12 -6.55 dB -26.64 dB 1:40 07-Romance: 'L’âme évaporée…'
DR13 -8.05 dB -27.54 dB 2:07 08-Romance: Les Cloches
DR13 -9.06 dB -27.67 dB 2:44 09-Fêtes galantes I - No.1 En sourdine
DR14 -1.32 dB -20.86 dB 1:15 10-Fêtes galantes I - No.2 Fantoches
DR14 -4.16 dB -24.57 dB 2:40 11-Fêtes galantes I - No.3 Clair de lune
DR14 -0.98 dB -21.84 dB 6:15 16-Proses lyriques - No.1 De rêve
DR14 -3.22 dB -23.92 dB 3:35 17-Proses lyriques - No.2 De grève
DR13 -1.36 dB -21.27 dB 5:33 18-Proses lyriques - No.3 De fleurs
DR14 -3.91 dB -23.56 dB 4:07 19-Proses lyriques - No.4 De soir
DR15 -2.38 dB -24.20 dB 2:04 23-Nuits blanches - No.1 [Nuit sans fin]
DR14 -1.39 dB -21.65 dB 4:06 24-Nuits blanches - No.2 [Pourquoi ?]
––––––––––––––––––––––––––––––––––––––––

Number of tracks: 13
Official DR value: DR14

Samplerate: 44100 Hz
Channels: 2
Bits per sample: 16
Bitrate: 498 kbps
Codec: FLAC
================================================================================

––––––––––––––––––––––––––––––––––––––––
Analyzed: Magali Léger, Jean-Louis Haguenauer / Debussy - Intégrale des Mélodies - CD3 (1-4)
Marie-Ange Todorovitch, Jean-Louis Haguenauer / Debussy - Intégrale des Mélodies - CD3 (5-11)
––––––––––––––––––––––––––––––––––––––––

DR Peak RMS Duration Track
––––––––––––––––––––––––––––––––––––––––
DR14 -5.25 dB -24.46 dB 2:13 03-Romance: 'Voici que le printemps…'
DR14 -3.25 dB -23.47 dB 3:05 04-Paysage sentimental (version éditée)
DR12 -4.23 dB -22.90 dB 1:47 05-Fleur des blés
DR14 -4.20 dB -24.69 dB 2:04 06-Beau soir
DR11 -1.76 dB -19.04 dB 2:18 12-Trois mélodies sur des poèmes de Paul Verlaine - No.1 La mer est plus belle
DR13 -2.97 dB -22.66 dB 2:40 13-Trois mélodies sur des poèmes de Paul Verlaine - No.2 Le son du cor s’afflige
DR12 -1.11 dB -19.12 dB 1:21 14-Trois mélodies sur des poèmes de Paul Verlaine - No.3 L’échelonnement des haies
DR11 -1.12 dB -20.00 dB 1:56 15-Les Angélus
DR12 -11.41 dB -29.13 dB 2:42 20-Chansons de Bilitis - No.1 La Flûte de Pan
DR12 -1.35 dB -20.93 dB 3:20 21-Chansons de Bilitis - No.2 La Chevelure
DR12 -0.83 dB -19.71 dB 2:35 22-Chansons de Bilitis - No.3 Le Tombeau des Naïades
––––––––––––––––––––––––––––––––––––––––

Number of tracks: 11
Official DR value: DR12

Samplerate: 44100 Hz
Channels: 2
Bits per sample: 16
Bitrate: 498 kbps
Codec: FLAC
================================================================================

foobar2000 1.2 / Dynamic Range Meter 1.1.1
log date: 2018-11-01 06:26:14

––––––––––––––––––––––––––––––––––––––––
Statistics for: 25-Berceuse sur une vieille chanson poitevine
Number of samples: 7608132
Duration: 2:53
––––––––––––––––––––––––––––––––––––––––

Left Right

Peak Value: -9.93 dB –- -7.89 dB
Avg RMS: -29.10 dB –- -29.37 dB
DR channel: 14.27 dB –- 14.32 dB
––––––––––––––––––––––––––––––––––––––––

Official DR Value: DR14

Samplerate: 44100 Hz
Channels: 2
Bits per sample: 16
Bitrate: 498 kbps
Codec: FLAC
================================================================================


Exact Audio Copy V1.3 from 2. September 2016

EAC extraction logfile from 6. December 2017, 23:07

Jean-Louis Haguenauer / Debussy - Intégrale des Mélodies - CD4

Used drive : PLDS DVD-RW DU8A6SH Adapter: 1 ID: 0

Read mode : Secure
Utilize accurate stream : Yes
Defeat audio cache : Yes
Make use of C2 pointers : No

Read offset correction : 6
Overread into Lead-In and Lead-Out : No
Fill up missing offset samples with silence : Yes
Delete leading and trailing silent blocks : No
Null samples used in CRC calculations : Yes
Used interface : Native Win32 interface for Win NT & 2000

Used output format : User Defined Encoder
Selected bitrate : 128 kBit/s
Quality : High
Add ID3 tag : No
Command line compressor : C:\Program Files (x86)\Exact Audio Copy\Flac\flac.exe
Additional command line options : -V -8 -T "Date=%year%" -T "Genre=%genre%" %source%


TOC of the extracted CD

Track | Start | Length | Start sector | End sector
––––––––––––––––––––––––––––-
1 | 0:00.00 | 2:21.29 | 0 | 10603
2 | 2:21.29 | 2:44.13 | 10604 | 22916
3 | 5:05.42 | 2:43.36 | 22917 | 35177
4 | 7:49.03 | 2:15.44 | 35178 | 45346
5 | 10:04.47 | 2:59.65 | 45347 | 58836
6 | 13:04.37 | 1:56.57 | 58837 | 67593
7 | 15:01.19 | 2:27.61 | 67594 | 78679
8 | 17:29.05 | 1:12.57 | 78680 | 84136
9 | 18:41.62 | 2:15.60 | 84137 | 94321
10 | 20:57.47 | 2:20.57 | 94322 | 104878
11 | 23:18.29 | 4:03.33 | 104879 | 123136
12 | 27:21.62 | 2:01.59 | 123137 | 132270
13 | 29:23.46 | 2:02.72 | 132271 | 141492
14 | 31:26.43 | 4:04.03 | 141493 | 159795
15 | 35:30.46 | 2:18.39 | 159796 | 170184
16 | 37:49.10 | 1:46.69 | 170185 | 178203
17 | 39:36.04 | 1:45.52 | 178204 | 186130
18 | 41:21.56 | 4:28.47 | 186131 | 206277
19 | 45:50.28 | 4:20.57 | 206278 | 225834
20 | 50:11.10 | 2:26.23 | 225835 | 236807
21 | 52:37.33 | 2:47.19 | 236808 | 249351
22 | 55:24.52 | 2:14.18 | 249352 | 259419
23 | 57:38.70 | 2:24.73 | 259420 | 270292
24 | 60:03.68 | 5:48.60 | 270293 | 296452


Range status and errors

Selected range

Filename C:\temp\Debussy - Integrale des Melodies\CD4\Debussy - Integrale des Melodies - CD4.wav

Peak level 98.5 %
Extraction speed 3.7 X
Range quality 100.0 %
Test CRC E320B6D8
Copy CRC E320B6D8
Copy OK

No errors occurred


AccurateRip summary

Track 1 not present in database
Track 2 not present in database
Track 3 not present in database
Track 4 not present in database
Track 5 not present in database
Track 6 not present in database
Track 7 not present in database
Track 8 not present in database
Track 9 not present in database
Track 10 not present in database
Track 11 not present in database
Track 12 not present in database
Track 13 not present in database
Track 14 not present in database
Track 15 not present in database
Track 16 not present in database
Track 17 not present in database
Track 18 not present in database
Track 19 not present in database
Track 20 not present in database
Track 21 not present in database
Track 22 not present in database
Track 23 not present in database
Track 24 not present in database

None of the tracks are present in the AccurateRip database

End of status report

==== Log checksum 2BB8578FFEDA5676C90C162CB694D09B69119488476EA3F758D4E65AE1627C0E ====

[CUETools log; Date: 01.11.2018 5:17:31; Version: 2.1.4]
[CTDB TOCID: S7E26lj1wZFJrwL1E7wI_5gS2Hc-] found.
Track | CTDB Status
1 | (3/3) Accurately ripped
2 | (3/3) Accurately ripped
3 | (3/3) Accurately ripped
4 | (3/3) Accurately ripped
5 | (3/3) Accurately ripped
6 | (3/3) Accurately ripped
7 | (3/3) Accurately ripped
8 | (3/3) Accurately ripped
9 | (3/3) Accurately ripped
10 | (3/3) Accurately ripped
11 | (3/3) Accurately ripped
12 | (3/3) Accurately ripped
13 | (3/3) Accurately ripped
14 | (3/3) Accurately ripped
15 | (3/3) Accurately ripped
16 | (3/3) Accurately ripped
17 | (3/3) Accurately ripped
18 | (3/3) Accurately ripped
19 | (3/3) Accurately ripped
20 | (3/3) Accurately ripped
21 | (3/3) Accurately ripped
22 | (3/3) Accurately ripped
23 | (3/3) Accurately ripped
24 | (2/3) Accurately ripped
[AccurateRip ID: 00347647-0396a66f-370f7018] disk not present in database.

Track Peak [ CRC32 ] [W/O NULL] [ LOG ]
– 98,5 [E320B6D8] [A66D00CC] CRC32
01 48,3 [A2A26FA0] [97D44167]
02 53,1 [ECB2CDC4] [07B68B02]
03 58,7 [87F72631] [E6B631BD]
04 51,6 [464D4C08] [BEB4EA24]
05 70,9 [9F43D3FE] [99B4BF32]
06 48,6 [8F602DB8] [A455279D]
07 83,9 [8C6361D7] [D1F04248]
08 73,6 [1463EE78] [75F91E3A]
09 44,9 [40BEE68F] [91656A97]
10 62,2 [28478317] [3251E686]
11 71,0 [EBB3C328] [E1888303]
12 64,6 [3E44FC27] [A5C86295]
13 27,8 [2EB1E827] [DB628D05]
14 75,0 [EBA6B7B7] [FACE5247]
15 30,8 [627DB554] [5C847BE5]
16 64,6 [93DF0048] [02DDC189]
17 77,0 [3730A81C] [290C8537]
18 86,1 [A3B9B50B] [7A80B4BE]
19 61,3 [2E5CC020] [47F9E830]
20 76,4 [D3E53BE6] [F8B56642]
21 57,4 [4476EF37] [0DA254B4]
22 77,8 [10C09054] [0EB8F0BC]
23 70,5 [CC65C996] [BEF1898E]
24 98,5 [093FF117] [FA516F68]

foobar2000 1.2 / Dynamic Range Meter 1.1.1
log date: 2018-11-01 06:26:54

––––––––––––––––––––––––––––––––––––––––
Analyzed: François Le Roux, Jean-Louis Haguenauer / Debussy - Intégrale des Mélodies - CD4
––––––––––––––––––––––––––––––––––––––––

DR Peak RMS Duration Track
––––––––––––––––––––––––––––––––––––––––
DR12 -2.66 dB -19.84 dB 1:13 08-Trois Chansons de France - No.1 Rondel 'Le temps a laissié son manteau'
DR13 -6.95 dB -26.34 dB 2:16 09-Trois Chansons de France - No.2 La Grotte
DR14 -4.11 dB -24.29 dB 2:21 10-Trois Chansons de France - No.3 Rondel 'Pour ce que plaisance est morte'
DR15 -2.97 dB -25.26 dB 4:03 11-Colloque sentimental (Première version)
DR15 -3.79 dB -27.39 dB 2:02 12-Fêtes galantes II - No.1 Les Ingénus
DR12 -11.09 dB -29.96 dB 2:03 13-Fêtes galantes II - No.2 Le Faune
DR16 -2.50 dB -26.44 dB 4:04 14-Fêtes galantes II - No.3 Colloque sentimental
DR13 -10.21 dB -28.21 dB 2:19 15-Le Promenoir des deux amants - No.1 Auprès de cette grotte
DR13 -3.79 dB -24.83 dB 1:47 16-Le Promenoir des deux amants - No.2 Crois mon conseil, chère Climène
DR14 -2.26 dB -24.09 dB 1:46 17-Le Promenoir des deux amants - No.3 Je tremble
DR17 -1.29 dB -24.73 dB 4:29 18-Trois Ballades de François Villon - No.1 Ballade de Villon à s'amye
DR17 -4.24 dB -27.74 dB 4:21 19-Trois Ballades de François Villon - No.2 Ballade que Villon feit à la requeste de sa mère pour prier Nostre-Dame
DR12 -2.34 dB -19.61 dB 2:26 20-Trois Ballades de François Villon - No.3 Ballade des femmes de Paris
––––––––––––––––––––––––––––––––––––––––

Number of tracks: 13
Official DR value: DR14

Samplerate: 44100 Hz
Channels: 2
Bits per sample: 16
Bitrate: 476 kbps
Codec: FLAC
================================================================================

––––––––––––––––––––––––––––––––––––––––
Analyzed: Gilles Ragon, Jean-Louis Haguenauer / Debussy - Intégrale des Mélodies - CD4 (1-7)
Magali Léger, Jean-Louis Haguenauer / Debussy - Intégrale des Mélodies - CD4 (8-10)
––––––––––––––––––––––––––––––––––––––––

DR Peak RMS Duration Track
––––––––––––––––––––––––––––––––––––––––
DR13 -6.31 dB -26.82 dB 2:21 01-Dans le jardin
DR14 -5.48 dB -26.70 dB 2:44 02-Ariettes oubliées (Deuxième édition) - No.1 C'est l'extase langoureuse
DR14 -4.62 dB -25.17 dB 2:43 03-Ariettes oubliées (Deuxième édition) - No.2 Il pleure dans mon coeur
DR16 -5.73 dB -28.01 dB 2:16 04-Ariettes oubliées (Deuxième édition) - No.3 L'ombre des arbres
DR13 -2.98 dB -21.77 dB 3:00 05-Ariettes oubliées (Deuxième édition) - No.4 Chevaux de bois
DR15 -6.26 dB -25.60 dB 1:57 06-Ariettes oubliées (Deuxième édition) - No.5 Green
DR14 -1.52 dB -22.73 dB 2:28 07-Ariettes oubliées (Deuxième édition) - No.6 Spleen
DR12 -4.81 dB -25.48 dB 2:47 21-Trois Poèmes de Stéphane Mallarmé - No.1 Soupir
DR13 -2.18 dB -21.92 dB 2:14 22-Trois Poèmes de Stéphane Mallarmé - No.2 Placet futiles
DR13 -3.03 dB -24.18 dB 2:25 23-Trois Poèmes de Stéphane Mallarmé - No.3 Eventail
––––––––––––––––––––––––––––––––––––––––

Number of tracks: 10
Official DR value: DR14

Samplerate: 44100 Hz
Channels: 2
Bits per sample: 16
Bitrate: 476 kbps
Codec: FLAC
================================================================================

foobar2000 1.2 / Dynamic Range Meter 1.1.1
log date: 2018-11-01 06:26:42

––––––––––––––––––––––––––––––––––––––––
Statistics for: 24-Noël des enfants qui n'ont plus de maison
Number of samples: 15382080
Duration: 5:49
––––––––––––––––––––––––––––––––––––––––

Left Right

Peak Value: -0.13 dB –- -0.13 dB
Avg RMS: -19.33 dB –- -20.54 dB
DR channel: 13.24 dB –- 14.57 dB
––––––––––––––––––––––––––––––––––––––––

Official DR Value: DR14

Samplerate: 44100 Hz
Channels: 2
Bits per sample: 16
Bitrate: 476 kbps
Codec: FLAC
================================================================================

Jean-Louis Haguenauer, Soloists - Claude Debussy: Integrale des Melodies (Complete Songs) (2014) 4CD Box Set

All thanks to original releaser - A-Z

More interesting music in My Blog