Subcategories
Tags
Language
Tags

Grateful Dead - Dave's Picks Vol. 25: 1977-11-06 Broome County Veterans Memorial Arena, Binghamton, NY (2018)

Posted By: SERTiL
Grateful Dead - Dave's Picks Vol. 25: 1977-11-06 Broome County Veterans Memorial Arena, Binghamton, NY (2018)

Grateful Dead - Dave's Picks Vol. 25: 1977-11-06 Broome County Veterans Memorial Arena, Binghamton, NY (2018)
EAC Rip | FLAC (tracks)+cue, log, front cover | 932 MB
Label: Rhino – R2-564621 | Tracks: 23 | Time: 165:49 min
Classic Rock, Psychedelic Rock

"We left with our minds sufficiently blown and still peaking…"

We're headed back to that peak with the newly returned tapes from Broome County Veterans Memorial Arena, Binghamton, 11/6/77. The Grateful Dead's last touring show of 1977 finds them going for broke, taking chances on fan favorites like "Jack Straw," "Friend Of The Devil," and "The Music Never Stopped," carving out righteous grooves on a one-of-kind "Scarlet>Fire" and a tremendous "Truckin'." An ultra high energy show, with a first set that rivals the second? Not unheard of, but definitely rare. Hear for yourself…

DAVE'S PICKS VOLUME 25 features liner notes by Rob Bleetstein, photos by Bob Minkin, and original art by our 2018 Dave's Picks Artist-In-Residence Tim McDonagh. As always, it has been mastered to HDCD specs by Jeffrey Norman and it is limited to 18,000 individually numbered copies.

Tracklist:

Disc 1
1. Mississippi Half-Step Uptown Toodeloo [12:22]
2. Jack Straw [7:18]
3. Tennessee Jed [9:24]
4. Mexicali Blues> [3:19]
5. Me And My Uncle [3:30]
6. Friend Of The Devil [9:38]
7. New Minglewood Blues [5:34]
8. Dupree’s Diamond Blues [6:11]
9. Passenger [4:43]
10. Dire Wolf [5:18]
11. The Music Never Stopped [8:05]

Disc 2
1. Samson And Delilah [9:10]
2. Sunrise [4:45]
3. Scarlet Begonias> [10:46]
4. Fire On The Mountain> [9:36]
5. Good Lovin’ [7:09]

Disc 3
1. St. Stephen> [7:55]
2. Drums> [2:48]
3. Not Fade Away> [9:44]
4. Wharf Rat> [11:09]
5. St. Stephen> [1:04]
6. Truckin’ [11:32]
7. Johnny B. Goode [5:09]

Exact Audio Copy V1.0 beta 3 from 29. August 2011

EAC extraction logfile from 27. January 2018, 18:28

Grateful Dead / Dave's Picks Vol. 25, Broome County Arena, Binghamton, NY, 11/06/77

Used drive : HL-DT-STBD-RE WH12LS39 Adapter: 1 ID: 1

Read mode : Secure
Utilize accurate stream : Yes
Defeat audio cache : Yes
Make use of C2 pointers : No

Read offset correction : 667
Overread into Lead-In and Lead-Out : No
Fill up missing offset samples with silence : Yes
Delete leading and trailing silent blocks : No
Null samples used in CRC calculations : Yes
Used interface : Native Win32 interface for Win NT & 2000
Gap handling : Appended to previous track

Used output format : User Defined Encoder
Selected bitrate : 1024 kBit/s
Quality : High
Add ID3 tag : No
Command line compressor : C:\Program Files (x86)\Exact Audio Copy\FLAC\FLAC.EXE
Additional command line options : -8 -V -T "ARTIST=%artist%" -T "TITLE=%title%" -T "ALBUM=%albumtitle%" -T "DATE=%year%" -T "TRACKNUMBER=%tracknr%" -T "GENRE=%genre%" -T "PERFORMER=%albuminterpret%" -T "COMPOSER=%composer%" %haslyrics%–tag-from-file=LYRICS="%lyricsfile%"%haslyrics% -T "ALBUMARTIST=%albumartist%" -T "DISCNUMBER=%cdnumber%" -T "TOTALDISCS=%totalcds%" -T "TOTALTRACKS=%numtracks%" -T "COMMENT=%comment%" %source% -o %dest%


TOC of the extracted CD

Track | Start | Length | Start sector | End sector
––––––––––––––––––––––––––––-
1 | 0:00.00 | 12:21.50 | 0 | 55624
2 | 12:21.50 | 7:17.68 | 55625 | 88467
3 | 19:39.43 | 9:24.12 | 88468 | 130779
4 | 29:03.55 | 3:18.47 | 130780 | 145676
5 | 32:22.27 | 3:29.55 | 145677 | 161406
6 | 35:52.07 | 9:38.01 | 161407 | 204757
7 | 45:30.08 | 5:33.45 | 204758 | 229777
8 | 51:03.53 | 6:10.55 | 229778 | 257582
9 | 57:14.33 | 4:42.39 | 257583 | 278771
10 | 61:56.72 | 5:18.10 | 278772 | 302631
11 | 67:15.07 | 8:04.43 | 302632 | 338974


Track 1

Filename E:\Rips\Grateful Dead\Dave's Picks Vol 25 Broome County Arena, Binghamton, NY, 11-06-77\01 Mississippi Half-Step Uptown Toodeloo.wav

Pre-gap length 0:00:02.00

Peak level 97.7 %
Extraction speed 1.3 X
Track quality 99.9 %
Test CRC 5B4C35C7
Copy CRC 5B4C35C7
Track not present in AccurateRip database
Copy OK

Track 2

Filename E:\Rips\Grateful Dead\Dave's Picks Vol 25 Broome County Arena, Binghamton, NY, 11-06-77\02 Jack Straw.wav

Peak level 97.7 %
Extraction speed 1.5 X
Track quality 99.9 %
Test CRC 95119DAC
Copy CRC 95119DAC
Track not present in AccurateRip database
Copy OK

Track 3

Filename E:\Rips\Grateful Dead\Dave's Picks Vol 25 Broome County Arena, Binghamton, NY, 11-06-77\03 Tennessee Jed.wav

Peak level 97.7 %
Extraction speed 1.8 X
Track quality 100.0 %
Test CRC 1449697D
Copy CRC 1449697D
Track not present in AccurateRip database
Copy OK

Track 4

Filename E:\Rips\Grateful Dead\Dave's Picks Vol 25 Broome County Arena, Binghamton, NY, 11-06-77\04 Mexicali Blues.wav

Peak level 97.7 %
Extraction speed 1.8 X
Track quality 100.0 %
Test CRC 4A3F8F87
Copy CRC 4A3F8F87
Track not present in AccurateRip database
Copy OK

Track 5

Filename E:\Rips\Grateful Dead\Dave's Picks Vol 25 Broome County Arena, Binghamton, NY, 11-06-77\05 Me And My Uncle.wav

Peak level 97.7 %
Extraction speed 1.8 X
Track quality 100.0 %
Test CRC F7495865
Copy CRC F7495865
Track not present in AccurateRip database
Copy OK

Track 6

Filename E:\Rips\Grateful Dead\Dave's Picks Vol 25 Broome County Arena, Binghamton, NY, 11-06-77\06 Friend Of The Devil.wav

Peak level 97.7 %
Extraction speed 2.1 X
Track quality 99.9 %
Test CRC 484B04C1
Copy CRC 484B04C1
Track not present in AccurateRip database
Copy OK

Track 7

Filename E:\Rips\Grateful Dead\Dave's Picks Vol 25 Broome County Arena, Binghamton, NY, 11-06-77\07 New Minglewood Blues.wav

Peak level 97.7 %
Extraction speed 2.2 X
Track quality 100.0 %
Test CRC 0B005C8B
Copy CRC 0B005C8B
Track not present in AccurateRip database
Copy OK

Track 8

Filename E:\Rips\Grateful Dead\Dave's Picks Vol 25 Broome County Arena, Binghamton, NY, 11-06-77\08 Dupree's Diamond Blues.wav

Peak level 97.7 %
Extraction speed 2.3 X
Track quality 100.0 %
Test CRC 340CB487
Copy CRC 340CB487
Track not present in AccurateRip database
Copy OK

Track 9

Filename E:\Rips\Grateful Dead\Dave's Picks Vol 25 Broome County Arena, Binghamton, NY, 11-06-77\09 Passenger.wav

Peak level 97.7 %
Extraction speed 2.1 X
Track quality 99.9 %
Test CRC 2904C0A2
Copy CRC 2904C0A2
Track not present in AccurateRip database
Copy OK

Track 10

Filename E:\Rips\Grateful Dead\Dave's Picks Vol 25 Broome County Arena, Binghamton, NY, 11-06-77\10 Dire Wolf.wav

Peak level 97.7 %
Extraction speed 2.5 X
Track quality 100.0 %
Test CRC 960D644D
Copy CRC 960D644D
Track not present in AccurateRip database
Copy OK

Track 11

Filename E:\Rips\Grateful Dead\Dave's Picks Vol 25 Broome County Arena, Binghamton, NY, 11-06-77\11 The Music Never Stopped.wav

Peak level 97.7 %
Extraction speed 2.7 X
Track quality 100.0 %
Test CRC 01D84FCF
Copy CRC 01D84FCF
Track not present in AccurateRip database
Copy OK


None of the tracks are present in the AccurateRip database

No errors occurred

End of status report

–– CUETools DB Plugin V2.1.4

[CTDB TOCID: wLGRTGF3iYbvN8TOto70QnwWEM8-] found
Submit result: wLGRTGF3iYbvN8TOto70QnwWEM8- has been confirmed
Track | CTDB Status
1 | (17/17) Accurately ripped
2 | (17/17) Accurately ripped
3 | (17/17) Accurately ripped
4 | (17/17) Accurately ripped
5 | (17/17) Accurately ripped
6 | (17/17) Accurately ripped
7 | (17/17) Accurately ripped
8 | (17/17) Accurately ripped
9 | (17/17) Accurately ripped
10 | (17/17) Accurately ripped
11 | (17/17) Accurately ripped


==== Log checksum 2DADD8085609F5FCA33E729A75589A9307DF3AA7AC1F877FD351F0A0211D58B6 ====

––––––––––––––––––––––––––––––

Exact Audio Copy V1.0 beta 3 from 29. August 2011

EAC extraction logfile from 27. January 2018, 19:47

Grateful Dead / Dave's Picks Vol. 25, Broome County Arena, Binghamton, NY, 11/06/77

Used drive : HL-DT-STBD-RE WH12LS39 Adapter: 1 ID: 1

Read mode : Secure
Utilize accurate stream : Yes
Defeat audio cache : Yes
Make use of C2 pointers : No

Read offset correction : 667
Overread into Lead-In and Lead-Out : No
Fill up missing offset samples with silence : Yes
Delete leading and trailing silent blocks : No
Null samples used in CRC calculations : Yes
Used interface : Native Win32 interface for Win NT & 2000
Gap handling : Appended to previous track

Used output format : User Defined Encoder
Selected bitrate : 1024 kBit/s
Quality : High
Add ID3 tag : No
Command line compressor : C:\Program Files (x86)\Exact Audio Copy\FLAC\FLAC.EXE
Additional command line options : -8 -V -T "ARTIST=%artist%" -T "TITLE=%title%" -T "ALBUM=%albumtitle%" -T "DATE=%year%" -T "TRACKNUMBER=%tracknr%" -T "GENRE=%genre%" -T "PERFORMER=%albuminterpret%" -T "COMPOSER=%composer%" %haslyrics%–tag-from-file=LYRICS="%lyricsfile%"%haslyrics% -T "ALBUMARTIST=%albumartist%" -T "DISCNUMBER=%cdnumber%" -T "TOTALDISCS=%totalcds%" -T "TOTALTRACKS=%numtracks%" -T "COMMENT=%comment%" %source% -o %dest%


TOC of the extracted CD

Track | Start | Length | Start sector | End sector
––––––––––––––––––––––––––––-
1 | 0:00.00 | 9:09.74 | 0 | 41248
2 | 9:09.74 | 4:44.73 | 41249 | 62621
3 | 13:54.72 | 10:45.43 | 62622 | 111039
4 | 24:40.40 | 9:36.31 | 111040 | 154270
5 | 34:16.71 | 6:37.73 | 154271 | 184118


Track 1

Filename E:\Rips\Grateful Dead\Dave's Picks Vol 25 Broome County Arena, Binghamton, NY, 11-06-77\12 Samson And Delilah.wav

Pre-gap length 0:00:02.00

Peak level 97.7 %
Extraction speed 1.2 X
Track quality 100.0 %
Test CRC 59E51A08
Copy CRC 59E51A08
Track not present in AccurateRip database
Copy OK

Track 2

Filename E:\Rips\Grateful Dead\Dave's Picks Vol 25 Broome County Arena, Binghamton, NY, 11-06-77\13 Sunrise.wav

Peak level 97.7 %
Extraction speed 1.4 X
Track quality 100.0 %
Test CRC 00C69113
Copy CRC 00C69113
Track not present in AccurateRip database
Copy OK

Track 3

Filename E:\Rips\Grateful Dead\Dave's Picks Vol 25 Broome County Arena, Binghamton, NY, 11-06-77\14 Scarlet Begonias.wav

Peak level 97.7 %
Extraction speed 1.7 X
Track quality 100.0 %
Test CRC 879C9E77
Copy CRC 879C9E77
Track not present in AccurateRip database
Copy OK

Track 4

Filename E:\Rips\Grateful Dead\Dave's Picks Vol 25 Broome County Arena, Binghamton, NY, 11-06-77\15 Fire On The Mountain.wav

Peak level 97.7 %
Extraction speed 1.9 X
Track quality 100.0 %
Test CRC E722F039
Copy CRC E722F039
Track not present in AccurateRip database
Copy OK

Track 5

Filename E:\Rips\Grateful Dead\Dave's Picks Vol 25 Broome County Arena, Binghamton, NY, 11-06-77\16 Good Lovin.wav

Peak level 97.7 %
Extraction speed 2.0 X
Track quality 100.0 %
Test CRC 99F58206
Copy CRC 99F58206
Track not present in AccurateRip database
Copy OK


None of the tracks are present in the AccurateRip database

No errors occurred

End of status report

–– CUETools DB Plugin V2.1.4

[CTDB TOCID: njjhyZuvR011S5fX.1V9nq1i5lY-] found
Submit result: njjhyZuvR011S5fX.1V9nq1i5lY- has been confirmed
Track | CTDB Status
1 | (18/18) Accurately ripped
2 | (18/18) Accurately ripped
3 | (18/18) Accurately ripped
4 | (18/18) Accurately ripped
5 | (18/18) Accurately ripped


==== Log checksum A33CE1E8E003E27153777A6C4B34A5DF12D7811B20F6B86505BCA7EAD1350293 ====

––––––––––––––––––––––––––––––

Exact Audio Copy V1.0 beta 3 from 29. August 2011

EAC extraction logfile from 27. January 2018, 22:40

Grateful Dead / Dave's Picks Vol. 25, Broome County Arena, Binghamton, NY, 11/06/77

Used drive : HL-DT-STBD-RE WH12LS39 Adapter: 1 ID: 1

Read mode : Secure
Utilize accurate stream : Yes
Defeat audio cache : Yes
Make use of C2 pointers : No

Read offset correction : 667
Overread into Lead-In and Lead-Out : No
Fill up missing offset samples with silence : Yes
Delete leading and trailing silent blocks : No
Null samples used in CRC calculations : Yes
Used interface : Native Win32 interface for Win NT & 2000
Gap handling : Appended to previous track

Used output format : User Defined Encoder
Selected bitrate : 1024 kBit/s
Quality : High
Add ID3 tag : No
Command line compressor : C:\Program Files (x86)\Exact Audio Copy\FLAC\FLAC.EXE
Additional command line options : -8 -V -T "ARTIST=%artist%" -T "TITLE=%title%" -T "ALBUM=%albumtitle%" -T "DATE=%year%" -T "TRACKNUMBER=%tracknr%" -T "GENRE=%genre%" -T "PERFORMER=%albuminterpret%" -T "COMPOSER=%composer%" %haslyrics%–tag-from-file=LYRICS="%lyricsfile%"%haslyrics% -T "ALBUMARTIST=%albumartist%" -T "DISCNUMBER=%cdnumber%" -T "TOTALDISCS=%totalcds%" -T "TOTALTRACKS=%numtracks%" -T "COMMENT=%comment%" %source% -o %dest%


TOC of the extracted CD

Track | Start | Length | Start sector | End sector
––––––––––––––––––––––––––––-
1 | 0:00.00 | 8:22.41 | 0 | 37690
2 | 8:22.41 | 2:47.42 | 37691 | 50257
3 | 11:10.08 | 9:44.18 | 50258 | 94075
4 | 20:54.26 | 11:08.72 | 94076 | 144247
5 | 32:03.23 | 1:03.53 | 144248 | 149025
6 | 33:07.01 | 11:32.38 | 149026 | 200963
7 | 44:39.39 | 5:08.54 | 200964 | 224117


Track 1

Filename E:\Rips\Grateful Dead\Dave's Picks Vol 25 Broome County Arena, Binghamton, NY, 11-06-77\17 St. Stephen.wav

Pre-gap length 0:00:02.00

Peak level 97.7 %
Extraction speed 1.2 X
Track quality 100.0 %
Test CRC 4C32D17A
Copy CRC 4C32D17A
Track not present in AccurateRip database
Copy OK

Track 2

Filename E:\Rips\Grateful Dead\Dave's Picks Vol 25 Broome County Arena, Binghamton, NY, 11-06-77\18 Drums.wav

Peak level 97.1 %
Extraction speed 1.2 X
Track quality 100.0 %
Test CRC 2AECA462
Copy CRC 2AECA462
Track not present in AccurateRip database
Copy OK

Track 3

Filename E:\Rips\Grateful Dead\Dave's Picks Vol 25 Broome County Arena, Binghamton, NY, 11-06-77\19 Not Fade Away.wav

Peak level 97.7 %
Extraction speed 1.6 X
Track quality 100.0 %
Test CRC 2973D9AB
Copy CRC 2973D9AB
Track not present in AccurateRip database
Copy OK

Track 4

Filename E:\Rips\Grateful Dead\Dave's Picks Vol 25 Broome County Arena, Binghamton, NY, 11-06-77\20 Wharf Rat.wav

Peak level 97.7 %
Extraction speed 1.8 X
Track quality 99.9 %
Test CRC 82B0737B
Copy CRC 82B0737B
Track not present in AccurateRip database
Copy OK

Track 5

Filename E:\Rips\Grateful Dead\Dave's Picks Vol 25 Broome County Arena, Binghamton, NY, 11-06-77\21 St. Stephen.wav

Peak level 97.7 %
Extraction speed 0.9 X
Track quality 99.8 %
Test CRC 6893FE77
Copy CRC 6893FE77
Track not present in AccurateRip database
Copy OK

Track 6

Filename E:\Rips\Grateful Dead\Dave's Picks Vol 25 Broome County Arena, Binghamton, NY, 11-06-77\22 Truckin'.wav

Peak level 97.7 %
Extraction speed 2.0 X
Track quality 99.9 %
Test CRC 5A4146E4
Copy CRC 5A4146E4
Track not present in AccurateRip database
Copy OK

Track 7

Filename E:\Rips\Grateful Dead\Dave's Picks Vol 25 Broome County Arena, Binghamton, NY, 11-06-77\23 Johnny B. Goode.wav

Peak level 97.7 %
Extraction speed 2.2 X
Track quality 100.0 %
Test CRC EE27024B
Copy CRC EE27024B
Track not present in AccurateRip database
Copy OK


None of the tracks are present in the AccurateRip database

No errors occurred

End of status report

–– CUETools DB Plugin V2.1.4

[CTDB TOCID: 1TbuozCcMOWfAq06Prod7wiWYjU-] found
Submit result: 1TbuozCcMOWfAq06Prod7wiWYjU- has been confirmed
Track | CTDB Status
1 | (17/17) Accurately ripped
2 | (17/17) Accurately ripped
3 | (17/17) Accurately ripped
4 | (17/17) Accurately ripped
5 | (17/17) Accurately ripped
6 | (17/17) Accurately ripped
7 | (17/17) Accurately ripped


==== Log checksum 63FDD1D177AFC80C7847FB7C932BE9CDB19586EB8F727B820EEDA216B7E6264F ====


Thanks to the Original customer.