Subcategories
Please register here if you want to download anything!

If domain in your address bar is different from the list below
PLEASE LEAVE THAT SITE IMMEDIATELY
❗IT'S A DANGEROUS FAKE❗



Spicy Magazines for Men! ;-)

Cyprien Katsaris - Mikis Theodorakis: Works for Piano & Orchestra (2010) 2CDs [Cyprien Katsaris Archives Vol. 20]

Posted By: Designol
Cyprien Katsaris - Mikis Theodorakis: Works for Piano & Orchestra (2010) 2CDs [Cyprien Katsaris Archives Vol. 20]

Mikis Theodorakis: Works for Piano & Orchestra (2010) 2CDs
Cyprien Katsaris, piano; Orchestre Symphonique de RTL; Mikis Theodorakis, conductor

EAC | FLAC | Image (Cue&Log) ~ 499 Mb | Mp3 (CBR320) ~263 Mb | Scans ~ 50 Mb
Classical, Contemporary | Label: Piano 21 | # P21-027-A | Time: 01:54:42

This double CD presents a good opportunity to discover the symphonic works of the world-famous Greek composer Mikis Theodorakis (*1925), a living legend in his own country. It contains the Suite no. 1 for Piano and Orchestra and the Piano Concerto, written in the fifties, when Theodorakis was still at the Paris Conservatoire, and the Symphony no. 2, УThe Song of the EarthФ (based on Suite no. 1 and the ballet Antigone), which marks the composerТs return to his symphonic writing, after 20 years of struggle and suffering for his country and his people.

Discover the first studio recording on CD of this landmark Symphony no. 2 and the fascinating Suite and Concerto, in unique recordings, made in 1982 on the occasion of performances at the Echternach International Festival (Luxembourg) and in Antwerp. Theodorakis himself conducts the RTL Symphony Orchestra, and Cyprien Katsaris demonstrates in all three works his legendary virtuosity and unsurpassed artistry.

I have been lucky enough to work closely with Cyprien Katsaris on several European tours, during which we performed three of my works for piano and orchestra: the Suite no. 1, the Concerto and the Second Symphony. So I have no hesitation in claiming that as a musician and a pianist, he is a unique phenomenon, both on account of his astonishing, I would even say superhuman, technique and his faultless musicianship. For this reason, I consider myself to have been privileged to hear my works interpreted by Katsaris and moreover, to have experienced, every time I conducted him, a profound emotion and perfect aesthetic sense.

Mikis Theodorakis

Cyprien Katsaris - Mikis Theodorakis: Works for Piano & Orchestra (2010) 2CDs [Cyprien Katsaris Archives Vol. 20]



Cyprien Katsaris - Mikis Theodorakis: Works for Piano & Orchestra (2010) 2CDs [Cyprien Katsaris Archives Vol. 20]



Tracklist:

CD1:

Suite No.1 for Piano and Orchestra
01. I. Allegro - Poco meno (2:47)
02. II. Allegro - Andante con moto - Andante (4:04)
03. III. Andante sostenuto (3:21)
04. IV. Allegro - Tempo prmo, ma poco sostenuto (9:39)
05. V. Calmo (3:41)

Concerto for Piano and Orchestra
06. I. Allegro ma non troppo (15:17)
07. II. Andante (6:39)
08. III. Finale (8:05)


CD2:

Symphony No.2 'The Earth's Song'
01. I. Andante - Andante moderato - Andante ca… (18:12)
02. II. Presto - Adagio - Vivace - Adagio - Andante (14:03)
03. III. Andante - Andante cantabile - Lento (15:42)
04. IV. Finale (Presto - Adagio - Dolce) (13:14)


Exact Audio Copy V1.0 beta 1 from 15. November 2010

EAC extraction logfile from 5. November 2011, 11:46

Cyprien Katsaris / Archives Vol.20 - Theodorakis (CD1)

Used drive : Optiarc DVD RW AD-7203A Adapter: 4 ID: 1

Read mode : Secure
Utilize accurate stream : Yes
Defeat audio cache : Yes
Make use of C2 pointers : No

Read offset correction : 48
Overread into Lead-In and Lead-Out : No
Fill up missing offset samples with silence : Yes
Delete leading and trailing silent blocks : No
Null samples used in CRC calculations : Yes
Used interface : Native Win32 interface for Win NT & 2000

Used output format : User Defined Encoder
Selected bitrate : 128 kBit/s
Quality : High
Add ID3 tag : No
Command line compressor : C:\Program Files\FLAC\flac.exe
Additional command line options : -T "COMMENT=Ripped by GFox" -8 -V %s


TOC of the extracted CD

Track | Start | Length | Start sector | End sector
––––––––––––––––––––––––––––-
1 | 0:00.00 | 2:47.05 | 0 | 12529
2 | 2:47.05 | 4:03.56 | 12530 | 30810
3 | 6:50.61 | 3:20.53 | 30811 | 45863
4 | 10:11.39 | 9:39.23 | 45864 | 89311
5 | 19:50.62 | 3:41.06 | 89312 | 105892
6 | 23:31.68 | 15:16.44 | 105893 | 174636
7 | 38:48.37 | 6:38.71 | 174637 | 204557
8 | 45:27.33 | 8:04.39 | 204558 | 240896


Range status and errors

Selected range

Filename D:\EAC\Cyprien Katsaris - Archives Vol.20 - Theodorakis (CD1).wav

Peak level 100.0 %
Extraction speed 0.5 X
Range quality 100.0 %
Test CRC 1403E22F
Copy CRC 1403E22F
Copy OK

No errors occurred


AccurateRip summary

Track 1 accurately ripped (confidence 1) [4356C4FB]
Track 2 accurately ripped (confidence 1) [D855E336]
Track 3 accurately ripped (confidence 1) [E6543254]
Track 4 accurately ripped (confidence 1) [0B0C241A]
Track 5 accurately ripped (confidence 1) [45892B54]
Track 6 accurately ripped (confidence 1) [FF5CFC62]
Track 7 accurately ripped (confidence 1) [509330BD]
Track 8 accurately ripped (confidence 1) [0A1806BB]

All tracks accurately ripped

End of status report

==== Log checksum C09A34460161602E434344F94C476EDA304A6E9F6E04DE678050052CCF1DFBF9 ====

foobar2000 1.2 / Dynamic Range Meter 1.1.1
log date: 2017-12-21 01:58:34

––––––––––––––––––––––––––––––––––––––––
Analyzed: Cyprien Katsaris / Archives Vol.20 - Theodorakis (CD1)
––––––––––––––––––––––––––––––––––––––––

DR Peak RMS Duration Track
––––––––––––––––––––––––––––––––––––––––
DR13 0.00 dB -17.37 dB 2:47 01-Suite No.1 for Piano and Orchestra - I. Allegro - Poco meno
DR11 0.00 dB -15.66 dB 4:04 02-Suite No.1 for Piano and Orchestra - II. Allegro - Andante con moto - Andante
DR13 -0.19 dB -19.67 dB 3:21 03-Suite No.1 for Piano and Orchestra - III. Andante sostenuto
DR14 -0.27 dB -18.72 dB 9:39 04-Suite No.1 for Piano and Orchestra - IV. Allegro - Tempo prmo, ma poco sostenuto
DR14 -14.03 dB -34.97 dB 3:41 05-Suite No.1 for Piano and Orchestra - V. Calmo
DR12 0.00 dB -17.74 dB 15:17 06-Concerto for Piano and Orchestra - I. Allegro ma non troppo
DR11 0.00 dB -14.91 dB 6:39 07-Concerto for Piano and Orchestra - II. Andante
DR12 0.00 dB -16.01 dB 8:05 08-Concerto for Piano and Orchestra - III. Finale
––––––––––––––––––––––––––––––––––––––––

Number of tracks: 8
Official DR value: DR12

Samplerate: 44100 Hz
Channels: 2
Bits per sample: 16
Bitrate: 611 kbps
Codec: FLAC
================================================================================


Exact Audio Copy V1.0 beta 1 from 15. November 2010

EAC extraction logfile from 5. November 2011, 14:55

Cyprien Katsaris / Archives Vol.20 - Theodorakis (CD2)

Used drive : Optiarc DVD RW AD-7203A Adapter: 4 ID: 1

Read mode : Secure
Utilize accurate stream : Yes
Defeat audio cache : Yes
Make use of C2 pointers : No

Read offset correction : 48
Overread into Lead-In and Lead-Out : No
Fill up missing offset samples with silence : Yes
Delete leading and trailing silent blocks : No
Null samples used in CRC calculations : Yes
Used interface : Native Win32 interface for Win NT & 2000

Used output format : User Defined Encoder
Selected bitrate : 128 kBit/s
Quality : High
Add ID3 tag : No
Command line compressor : C:\Program Files\FLAC\flac.exe
Additional command line options : -T "COMMENT=Ripped by GFox" -8 -V %s


TOC of the extracted CD

Track | Start | Length | Start sector | End sector
––––––––––––––––––––––––––––-
1 | 0:00.00 | 18:11.40 | 0 | 81864
2 | 18:11.40 | 14:03.15 | 81865 | 145104
3 | 32:14.55 | 15:41.62 | 145105 | 215741
4 | 47:56.42 | 13:13.57 | 215742 | 275273


Range status and errors

Selected range

Filename D:\EAC\Cyprien Katsaris - Archives Vol.20 - Theodorakis (CD2).wav

Peak level 100.0 %
Extraction speed 0.8 X
Range quality 99.9 %
Test CRC FD23051B
Copy CRC FD23051B
Copy OK

No errors occurred


AccurateRip summary

Track 1 accurately ripped (confidence 1) [020A8413]
Track 2 accurately ripped (confidence 1) [D924761E]
Track 3 accurately ripped (confidence 1) [C660C70B]
Track 4 accurately ripped (confidence 1) [4302F67C]

All tracks accurately ripped

End of status report

==== Log checksum 11AF37E19B6D1AD481F161407397BC6384975977F89E56A1448F4E1CB9DBE7E9 ====

foobar2000 1.2 / Dynamic Range Meter 1.1.1
log date: 2017-12-21 02:01:19

––––––––––––––––––––––––––––––––––––––––
Analyzed: Cyprien Katsaris / Archives Vol.20 - Theodorakis (CD2)
––––––––––––––––––––––––––––––––––––––––

DR Peak RMS Duration Track
––––––––––––––––––––––––––––––––––––––––
DR12 0.00 dB -16.54 dB 18:12 01-Symphony No.2 'The Earth's Song' - I. Andante - Andante moderato - Andante ca…
DR14 0.00 dB -19.79 dB 14:03 02-Symphony No.2 'The Earth's Song' - II. Presto - Adagio - Vivace - Adagio - An…
DR15 -2.20 dB -23.42 dB 15:42 03-Symphony No.2 'The Earth's Song' - III. Andante - Andante cantabile - Lento
DR14 -0.27 dB -20.06 dB 13:14 04-Symphony No.2 'The Earth's Song' - IV. Finale (Presto - Adagio - Dolce)
––––––––––––––––––––––––––––––––––––––––

Number of tracks: 4
Official DR value: DR14

Samplerate: 44100 Hz
Channels: 2
Bits per sample: 16
Bitrate: 604 kbps
Codec: FLAC
================================================================================

Cyprien Katsaris - Mikis Theodorakis: Works for Piano & Orchestra (2010) 2CDs [Cyprien Katsaris Archives Vol. 20]

All thanks to original releaser - GFox

More interesting music in My Blog