Subcategories
Tags
Language
Tags

Curtis Mayfield & The Impressions - The Anthology 1961-1977 (1992) 2CDs

Posted By: Designol
Curtis Mayfield & The Impressions - The Anthology 1961-1977 (1992) 2CDs

Curtis Mayfield & The Impressions - The Anthology 1961-1977 (1992) 2CDs
EAC | FLAC | Image (Cue&Log) ~ 769 Mb | Mp3 (CBR320) ~ 329 Mb | Scans included
Soul, Funk, R&B | Label: MCA | # MCAD2-10664 | Time: 02:14:33

The Anthology 1961-1977 is a compilation album of songs by Curtis Mayfield when he was with the Impressions and when he was solo. Of the 40 tracks, 30 are from Mayfield's time with the Impressions. The album includes liner notes written by Robert Pruter. In 2003, the album was ranked number 178 on Rolling Stone's 500 Greatest Albums of All Time.

MCA's double-disc The Anthology 1961-1977 is the definitive overview of Curtis Mayfield's career, as the only compilation to draw from both his solo work and the best of his output with the Impressions. In fact, even discounting the four Curtom tracks that spill over onto disc two, the first disc's 26 selections constitute far and away the most extensive Impressions best-of on the market. Toss in ten of the most essential Mayfield solo tracks, and the result is breathtaking in its progression from romantic soul, often informed by doo wop and gospel, to expansive, ambitiously arranged funk jams. It's also fascinating to hear Mayfield's social conscience emerging as the '60s progress, since he was among the very first R&B artists to explore political issues in his music, paving the way for countless others to do so during the '70s. If you're only interested in Mayfield's funkier solo work, Rhino's The Very Best of Curtis Mayfield features all but one of the solo tracks included here, plus several more. But in order to fully grasp Mayfield's impact on R&B and his talent as a singer, songwriter, musician, and producer, The Anthology 1961-1977 is absolutely essential.

Review by Steve Huey, Allmusic.com

Curtis Mayfield & The Impressions - The Anthology 1961-1977 (1992) 2CDs



Tracklist:

CD1:

01. Gypsy Woman (2:21)
02. Grow Closer Together (2:14)
03. Never Let Me Go (2:30)
04. Little Young Lover (2:14)
05. Minstrel And Queen (2:18)
06. I'm The One Who Loves You (2:27)
07. Sad Sad Girl And Boy (2:42)
08. It's All Right (2:49)
09. Talking About My Baby (2:32)
10. I'm So Proud (2:50)
11. Keep On Pushing (2:34)
12. You Must Believe Me (2:32)
13. See The Real Me (2:24)
14. Amen (3:29)
15. I've Been Trying (2:46)
16. People Get Ready (2:38)
17. It's Hard To Believe (2:25)
18. Woman's Got Soul (2:18)
19. Meeting Over Yonder (2:20)
20. I Need You (2:48)
21. You've Been Cheatin' (2:36)
22. Man Oh Man (3:06)
23. Can't Satisfy (2:38)
24. We're A Winner (2:25)
25. I Loved And I Lost (3:15)
26. We're Rolling On (Part One) (2:17)

CD2:

01. Fool For You (2:54)
02. This Is My Country (2:48)
03. Choice Of Colors (3:18)
04. Check Out Your Mind (3:29)
05. Move On Up (8:55)
06. (Don't Worry) If There's A Hell Below, We're All Going To Go (7:53)
07. The Makings Of You (3:45)
08. Beautiful Brother Of Mine (7:27)
09. Freddie's Dead (5:27)
10. Superfly (3:53)
11. Pusherman (5:04)
12. So In Love (5:13)
13. Only You Babe (single edit) (3:32)
14. Do Do Wap Is Strong In Here (single edit) (3:28)


Exact Audio Copy V1.3 from 2. September 2016

EAC extraction logfile from 27. August 2018, 18:15

Curtis Mayfield & The Impressions / Curtis Mayfield & The Impressions: The Anthology 1961 - 1977 (Disc 1)

Used drive : ATAPI iHAS124 F Adapter: 1 ID: 1

Read mode : Secure
Utilize accurate stream : Yes
Defeat audio cache : Yes
Make use of C2 pointers : No

Read offset correction : 6
Overread into Lead-In and Lead-Out : No
Fill up missing offset samples with silence : Yes
Delete leading and trailing silent blocks : No
Null samples used in CRC calculations : Yes
Used interface : Native Win32 interface for Win NT & 2000

Used output format : User Defined Encoder
Selected bitrate : 1024 kBit/s
Quality : High
Add ID3 tag : No
Command line compressor : C:\Program Files (x86)\Exact Audio Copy\Flac\flac.exe
Additional command line options : -V -6 %source% -o %dest%


TOC of the extracted CD

Track | Start | Length | Start sector | End sector
––––––––––––––––––––––––––––-
1 | 0:00.00 | 2:20.40 | 0 | 10539
2 | 2:20.40 | 2:13.52 | 10540 | 20566
3 | 4:34.17 | 2:29.50 | 20567 | 31791
4 | 7:03.67 | 2:14.08 | 31792 | 41849
5 | 9:18.00 | 2:17.57 | 41850 | 52181
6 | 11:35.57 | 2:26.68 | 52182 | 63199
7 | 14:02.50 | 2:41.62 | 63200 | 75336
8 | 16:44.37 | 2:48.38 | 75337 | 87974
9 | 19:33.00 | 2:31.57 | 87975 | 99356
10 | 22:04.57 | 2:49.53 | 99357 | 112084
11 | 24:54.35 | 2:33.65 | 112085 | 123624
12 | 27:28.25 | 2:32.35 | 123625 | 135059
13 | 30:00.60 | 2:23.67 | 135060 | 145851
14 | 32:24.52 | 3:29.35 | 145852 | 161561
15 | 35:54.12 | 2:46.18 | 161562 | 174029
16 | 38:40.30 | 2:38.37 | 174030 | 185916
17 | 41:18.67 | 2:24.63 | 185917 | 196779
18 | 43:43.55 | 2:17.40 | 196780 | 207094
19 | 46:01.20 | 2:20.15 | 207095 | 217609
20 | 48:21.35 | 2:47.67 | 217610 | 230201
21 | 51:09.27 | 2:35.45 | 230202 | 241871
22 | 53:44.72 | 3:06.00 | 241872 | 255821
23 | 56:50.72 | 2:38.00 | 255822 | 267671
24 | 59:28.72 | 2:24.60 | 267672 | 278531
25 | 61:53.57 | 3:15.30 | 278532 | 293186
26 | 65:09.12 | 2:17.25 | 293187 | 303486


Range status and errors

Selected range

Filename D:\WORKING\Curtis Mayfield & The Impressions- The Anthology 1961 - 1977 (Disc 1).wav

Peak level 100.0 %
Extraction speed 6.8 X
Range quality 100.0 %
Test CRC F2C03F13
Copy CRC F2C03F13
Copy OK

No errors occurred


AccurateRip summary

Track 1 accurately ripped (confidence 15) [8ABAF27B] (AR v2)
Track 2 accurately ripped (confidence 14) [68E45E36] (AR v2)
Track 3 accurately ripped (confidence 14) [E145EF36] (AR v2)
Track 4 accurately ripped (confidence 14) [2D586EEE] (AR v2)
Track 5 accurately ripped (confidence 13) [E33231AA] (AR v2)
Track 6 accurately ripped (confidence 14) [469799DB] (AR v2)
Track 7 accurately ripped (confidence 14) [5BDF2676] (AR v2)
Track 8 accurately ripped (confidence 15) [20E0FB97] (AR v2)
Track 9 accurately ripped (confidence 14) [89E31854] (AR v2)
Track 10 accurately ripped (confidence 14) [978FDF87] (AR v2)
Track 11 accurately ripped (confidence 15) [D4628634] (AR v2)
Track 12 accurately ripped (confidence 14) [76CCC17D] (AR v2)
Track 13 accurately ripped (confidence 14) [1B97F0B7] (AR v2)
Track 14 accurately ripped (confidence 15) [B4A6940F] (AR v2)
Track 15 accurately ripped (confidence 14) [848DA980] (AR v2)
Track 16 accurately ripped (confidence 15) [7FD23941] (AR v2)
Track 17 accurately ripped (confidence 14) [8AB07206] (AR v2)
Track 18 accurately ripped (confidence 14) [9F5020DE] (AR v2)
Track 19 accurately ripped (confidence 14) [4A9AC18B] (AR v2)
Track 20 accurately ripped (confidence 14) [C61F2250] (AR v2)
Track 21 accurately ripped (confidence 14) [28D319A3] (AR v2)
Track 22 accurately ripped (confidence 14) [A1F61799] (AR v2)
Track 23 accurately ripped (confidence 12) [07E0744F] (AR v2)
Track 24 accurately ripped (confidence 12) [AA3878DF] (AR v2)
Track 25 accurately ripped (confidence 12) [966C21AE] (AR v2)
Track 26 accurately ripped (confidence 13) [0F02117C] (AR v2)

All tracks accurately ripped

End of status report

–– CUETools DB Plugin V2.1.6

[CTDB TOCID: K8oe4L01eaQTxg77CWbNBfQtfA8-] found
Submit result: K8oe4L01eaQTxg77CWbNBfQtfA8- has been confirmed
Track | CTDB Status
1 | (28/28) Accurately ripped
2 | (28/28) Accurately ripped
3 | (28/28) Accurately ripped
4 | (28/28) Accurately ripped
5 | (27/28) Accurately ripped
6 | (28/28) Accurately ripped
7 | (28/28) Accurately ripped
8 | (28/28) Accurately ripped
9 | (28/28) Accurately ripped
10 | (28/28) Accurately ripped
11 | (28/28) Accurately ripped
12 | (28/28) Accurately ripped
13 | (28/28) Accurately ripped
14 | (28/28) Accurately ripped
15 | (28/28) Accurately ripped
16 | (28/28) Accurately ripped
17 | (28/28) Accurately ripped
18 | (28/28) Accurately ripped
19 | (28/28) Accurately ripped
20 | (28/28) Accurately ripped
21 | (28/28) Accurately ripped
22 | (28/28) Accurately ripped
23 | (27/28) Accurately ripped
24 | (27/28) Accurately ripped
25 | (27/28) Accurately ripped
26 | (28/28) Accurately ripped


==== Log checksum FE8D9D22A47828D8BB34695F7D6FAE2B2EE2149BDEFBC519F7ED96C6E213B856 ====

foobar2000 1.2 / Dynamic Range Meter 1.1.1
log date: 2018-09-14 20:50:16

––––––––––––––––––––––––––––––––––––––––
Analyzed: The Impressions / Curtis Mayfield & The Impressions: The Anthology 1961 - 1977 (Disc 1)
––––––––––––––––––––––––––––––––––––––––

DR Peak RMS Duration Track
––––––––––––––––––––––––––––––––––––––––
DR11 -1.82 dB -18.09 dB 2:21 01-Gypsy Woman
DR13 -3.38 dB -19.85 dB 2:14 02-Grow Closer Together
DR12 -1.58 dB -18.02 dB 2:30 03-Never Let Me Go
DR11 -0.61 dB -16.25 dB 2:14 04-Little Young Lover
DR12 -4.48 dB -20.46 dB 2:18 05-Minstrel And Queen
DR11 -2.29 dB -18.42 dB 2:27 06-I'm The One Who Loves You
DR11 -3.36 dB -18.05 dB 2:42 07-Sad Sad Girl And Boy
DR11 -4.07 dB -17.56 dB 2:49 08-It's All Right
DR11 -4.24 dB -19.04 dB 2:32 09-Talking About My Baby
DR11 -3.67 dB -16.86 dB 2:50 10-I'm So Proud
DR11 -3.67 dB -18.40 dB 2:34 11-Keep On Pushing
DR12 -3.81 dB -18.08 dB 2:32 12-You Must Believe Me
DR10 -6.21 dB -18.91 dB 2:24 13-See The Real Me
DR11 -3.51 dB -17.44 dB 3:29 14-Amen
DR11 -1.58 dB -18.77 dB 2:46 15-I've Been Trying
DR10 -3.47 dB -17.46 dB 2:38 16-People Get Ready
DR11 -4.23 dB -17.47 dB 2:25 17-It's Hard To Believe
DR12 -2.46 dB -16.81 dB 2:18 18-Woman's Got Soul
DR11 -0.82 dB -14.98 dB 2:20 19-Meeting Over Yonder
DR14 -0.88 dB -17.56 dB 2:48 20-I Need You
DR11 -1.72 dB -15.44 dB 2:36 21-You've Been Cheatin'
DR10 -1.39 dB -15.14 dB 3:06 22-Man Oh Man
DR12 0.00 dB -14.02 dB 2:38 23-Can't Satisfy
DR11 -1.25 dB -15.14 dB 2:25 24-We're A Winner
DR13 -0.37 dB -16.97 dB 3:15 25-I Loved And I Lost
DR12 -0.48 dB -15.33 dB 2:17 26-We're Rolling On (Part One)
––––––––––––––––––––––––––––––––––––––––

Number of tracks: 26
Official DR value: DR11

Samplerate: 44100 Hz
Channels: 2
Bits per sample: 16
Bitrate: 739 kbps
Codec: FLAC
================================================================================


Exact Audio Copy V1.3 from 2. September 2016

EAC extraction logfile from 27. August 2018, 18:48

Curtis Mayfield & The Impressions / Curtis Mayfield & The Impressions: The Anthology 1961 - 1977 (Disc 2)

Used drive : ATAPI iHAS124 F Adapter: 1 ID: 1

Read mode : Secure
Utilize accurate stream : Yes
Defeat audio cache : Yes
Make use of C2 pointers : No

Read offset correction : 6
Overread into Lead-In and Lead-Out : No
Fill up missing offset samples with silence : Yes
Delete leading and trailing silent blocks : No
Null samples used in CRC calculations : Yes
Used interface : Native Win32 interface for Win NT & 2000

Used output format : User Defined Encoder
Selected bitrate : 1024 kBit/s
Quality : High
Add ID3 tag : No
Command line compressor : C:\Program Files (x86)\Exact Audio Copy\Flac\flac.exe
Additional command line options : -V -6 %source% -o %dest%


TOC of the extracted CD

Track | Start | Length | Start sector | End sector
––––––––––––––––––––––––––––-
1 | 0:00.00 | 2:54.35 | 0 | 13084
2 | 2:54.35 | 2:48.12 | 13085 | 25696
3 | 5:42.47 | 3:18.10 | 25697 | 40556
4 | 9:00.57 | 3:28.63 | 40557 | 56219
5 | 12:29.45 | 8:54.55 | 56220 | 96324
6 | 21:24.25 | 7:52.70 | 96325 | 131794
7 | 29:17.20 | 3:45.22 | 131795 | 148691
8 | 33:02.42 | 7:26.73 | 148692 | 182214
9 | 40:29.40 | 5:27.00 | 182215 | 206739
10 | 45:56.40 | 3:53.12 | 206740 | 224226
11 | 49:49.52 | 5:03.73 | 224227 | 247024
12 | 54:53.50 | 5:13.20 | 247025 | 270519
13 | 60:06.70 | 3:32.12 | 270520 | 286431
14 | 63:39.07 | 3:27.63 | 286432 | 302019


Range status and errors

Selected range

Filename D:\WORKING\Curtis Mayfield & The Impressions - The Anthology 1961 - 1977 (Disc 2).wav

Peak level 100.0 %
Extraction speed 6.8 X
Range quality 100.0 %
Test CRC 53613846
Copy CRC 53613846
Copy OK

No errors occurred


AccurateRip summary

Track 1 accurately ripped (confidence 13) [135F602C] (AR v2)
Track 2 accurately ripped (confidence 13) [6DF64F45] (AR v2)
Track 3 accurately ripped (confidence 13) [8F6CBC6D] (AR v2)
Track 4 accurately ripped (confidence 13) [539E6D9E] (AR v2)
Track 5 accurately ripped (confidence 14) [E033A00D] (AR v2)
Track 6 accurately ripped (confidence 13) [47D0271C] (AR v2)
Track 7 accurately ripped (confidence 12) [52D345EC] (AR v2)
Track 8 accurately ripped (confidence 13) [B2BFC38E] (AR v2)
Track 9 accurately ripped (confidence 12) [7DC4CBC4] (AR v2)
Track 10 accurately ripped (confidence 13) [47F812F5] (AR v2)
Track 11 accurately ripped (confidence 13) [3DA59688] (AR v2)
Track 12 accurately ripped (confidence 13) [B2FA27B8] (AR v2)
Track 13 accurately ripped (confidence 13) [CBC141AD] (AR v2)
Track 14 accurately ripped (confidence 13) [6DA977D6] (AR v2)

All tracks accurately ripped

End of status report

–– CUETools DB Plugin V2.1.6

[CTDB TOCID: EQoszX_kD_25mVHGoCuVn5ZyMPc-] found
Submit result: EQoszX_kD_25mVHGoCuVn5ZyMPc- has been confirmed
Track | CTDB Status
1 | (28/29) Accurately ripped
2 | (29/29) Accurately ripped
3 | (29/29) Accurately ripped
4 | (29/29) Accurately ripped
5 | (29/29) Accurately ripped
6 | (28/29) Accurately ripped
7 | (29/29) Accurately ripped
8 | (29/29) Accurately ripped
9 | (29/29) Accurately ripped
10 | (29/29) Accurately ripped
11 | (29/29) Accurately ripped
12 | (28/29) Accurately ripped
13 | (29/29) Accurately ripped
14 | (29/29) Accurately ripped


==== Log checksum 15B4680B8634726FF5263D27F67AD26ED8C8D17D70BF034D1EF4811BD1EB61E4 ====

foobar2000 1.2 / Dynamic Range Meter 1.1.1
log date: 2018-09-14 20:50:41

––––––––––––––––––––––––––––––––––––––––
Analyzed: Curtis Mayfield / Curtis Mayfield & The Impressions: The Anthology 1961 - 1977 (Disc 2)
––––––––––––––––––––––––––––––––––––––––

DR Peak RMS Duration Track
––––––––––––––––––––––––––––––––––––––––
DR13 -1.44 dB -16.44 dB 8:55 05-Move On Up
DR12 -1.41 dB -15.16 dB 7:53 06-(Don't Worry) If There's A Hell Below, We're All Going To Go
DR13 -2.05 dB -17.78 dB 3:45 07-The Makings Of You
DR14 -0.02 dB -16.88 dB 7:27 08-Beautiful Brother Of Mine
DR11 -2.52 dB -16.39 dB 5:27 09-Freddie's Dead
DR11 -3.04 dB -15.60 dB 3:53 10-Superfly
DR13 -1.54 dB -16.90 dB 5:04 11-Pusherman
DR11 -4.11 dB -17.44 dB 5:13 12-So In Love
DR10 -4.29 dB -16.40 dB 3:32 13-Only You Babe (single edit)
DR15 0.00 dB -16.95 dB 3:28 14-Do Do Wap Is Strong In Here (single edit)
––––––––––––––––––––––––––––––––––––––––

Number of tracks: 10
Official DR value: DR12

Samplerate: 44100 Hz
Channels: 2
Bits per sample: 16
Bitrate: 815 kbps
Codec: FLAC
================================================================================

––––––––––––––––––––––––––––––––––––––––
Analyzed: The Impressions / Curtis Mayfield & The Impressions: The Anthology 1961 - 1977 (Disc 2)
––––––––––––––––––––––––––––––––––––––––

DR Peak RMS Duration Track
––––––––––––––––––––––––––––––––––––––––
DR10 -0.68 dB -13.44 dB 2:54 01-Fool For You
DR11 -1.71 dB -15.34 dB 2:48 02-This Is My Country
DR12 -0.74 dB -15.62 dB 3:18 03-Choice Of Colors
DR14 -0.89 dB -16.94 dB 3:29 04-Check Out Your Mind
––––––––––––––––––––––––––––––––––––––––

Number of tracks: 4
Official DR value: DR12

Samplerate: 44100 Hz
Channels: 2
Bits per sample: 16
Bitrate: 815 kbps
Codec: FLAC
================================================================================

Curtis Mayfield & The Impressions - The Anthology 1961-1977 (1992) 2CDs

Curtis Mayfield & The Impressions - The Anthology 1961-1977 (1992) 2CDs