Subcategories

Chitta - Beauty All Around (1998)

Posted By: gribovar
Chitta - Beauty All Around (1998)

Chitta - Beauty All Around (1998)
EAC Rip | FLAC (tracks+.cue+log) - 224 MB | MP3 CBR 320 kbps (LAME 3.93) - 119 MB | Covers - 69 MB
Genre: New Age | RAR 3% Rec. | Label: Fønix Musik (FMF CD 1135)

Gentle melodies, radiating the beauty of life. With nature sounds & dolphins in the background.
Tracklist:
01. New Dawn
02. Invitiation
03. Silent Meeting
04. Pizzicato
05. Beauty All Around
06. Ocean Dance

Total time: 50:25

Exact Audio Copy V1.5 from 20. February 2020

EAC extraction logfile from 25. June 2020, 23:54

Chitta / Beauty All Around

Used drive : ASUS DRW-24F1ST a Adapter: 1 ID: 1

Read mode : Secure
Utilize accurate stream : Yes
Defeat audio cache : Yes
Make use of C2 pointers : No

Read offset correction : 6
Overread into Lead-In and Lead-Out : No
Fill up missing offset samples with silence : Yes
Delete leading and trailing silent blocks : No
Null samples used in CRC calculations : Yes
Used interface : Native Win32 interface for Win NT & 2000
Gap handling : Appended to previous track

Used output format : User Defined Encoder
Selected bitrate : 896 kBit/s
Quality : High
Add ID3 tag : No
Command line compressor : C:\Program Files (x86)\Exact Audio Copy\Flac\flac.exe
Additional command line options : -8 -V -T "COMMENT=ripped by DrStandBy special for new-team.org" -T "ARTIST=%artist%" -T "TITLE=%title%" -T "ALBUM=%albumtitle%" -T "DATE=%year%" -T "TRACKNUMBER=%tracknr%" -T "GENRE=%genre%" %source%


TOC of the extracted CD

Track | Start | Length | Start sector | End sector
––––––––––––––––––––––––––––-
1 | 0:00.00 | 6:44.00 | 0 | 30299
2 | 6:44.00 | 4:59.02 | 30300 | 52726
3 | 11:43.02 | 8:27.20 | 52727 | 90771
4 | 20:10.22 | 5:13.15 | 90772 | 114261
5 | 25:23.37 | 12:18.15 | 114262 | 169626
6 | 37:41.52 | 12:43.48 | 169627 | 226899


Track 1

Filename Q:\1998 - Chitta - Beauty All Around (FMF CD 1135)\01. Chitta - New Dawn.wav

Pre-gap length 0:00:02.00

Peak level 66.1 %
Extraction speed 1.9 X
Track quality 100.0 %
Test CRC 1752357A
Copy CRC 1752357A
Accurately ripped (confidence 2) [CCB53D21] (AR v2)
Copy OK

Track 2

Filename Q:\1998 - Chitta - Beauty All Around (FMF CD 1135)\02. Chitta - Invitiation.wav

Pre-gap length 0:00:01.25

Peak level 69.2 %
Extraction speed 2.1 X
Track quality 100.0 %
Test CRC 6DB4F2AB
Copy CRC 6DB4F2AB
Accurately ripped (confidence 2) [F0887531] (AR v2)
Copy OK

Track 3

Filename Q:\1998 - Chitta - Beauty All Around (FMF CD 1135)\03. Chitta - Silent Meeting.wav

Peak level 99.9 %
Extraction speed 2.3 X
Track quality 99.9 %
Test CRC 006EB3E3
Copy CRC 006EB3E3
Accurately ripped (confidence 2) [CB404701] (AR v2)
Copy OK

Track 4

Filename Q:\1998 - Chitta - Beauty All Around (FMF CD 1135)\04. Chitta - Pizzicato.wav

Peak level 68.1 %
Extraction speed 2.6 X
Track quality 100.0 %
Test CRC 9DE9A2F3
Copy CRC 9DE9A2F3
Accurately ripped (confidence 2) [5E9BFDAE] (AR v2)
Copy OK

Track 5

Filename Q:\1998 - Chitta - Beauty All Around (FMF CD 1135)\05. Chitta - Beauty All Around.wav

Peak level 90.8 %
Extraction speed 3.1 X
Track quality 100.0 %
Test CRC A5BB641B
Copy CRC A5BB641B
Accurately ripped (confidence 2) [D51387D5] (AR v2)
Copy OK

Track 6

Filename Q:\1998 - Chitta - Beauty All Around (FMF CD 1135)\06. Chitta - Ocean Dance.wav

Pre-gap length 0:00:03.00

Peak level 90.2 %
Extraction speed 3.5 X
Track quality 100.0 %
Test CRC F537EFF5
Copy CRC F537EFF5
Accurately ripped (confidence 2) [7DAB6BA6] (AR v2)
Copy OK


All tracks accurately ripped

No errors occurred

End of status report

–– AcoustID Plugin V1.2.0

Total fingerprints: 6


–– CUETools DB Plugin V2.1.6

[CTDB TOCID: 5z0P9Wz.YEuKwCfgU734Y.SO91k-] found
Submit result: 5z0P9Wz.YEuKwCfgU734Y.SO91k- has been confirmed
Track | CTDB Status
1 | (3/3) Accurately ripped
2 | (3/3) Accurately ripped
3 | (3/3) Accurately ripped
4 | (3/3) Accurately ripped
5 | (3/3) Accurately ripped
6 | (3/3) Accurately ripped


==== Log checksum FE2F3D88D9E8D3493FA7F2C42183585F048A4E3E718AD32B8918028DE74C362C ====

[CUETools log; Date: 30.06.2020 15:03:10; Version: 2.1.4]
[CTDB TOCID: 5z0P9Wz.YEuKwCfgU734Y.SO91k-] found.
Track | CTDB Status
1 | (4/4) Accurately ripped
2 | (4/4) Accurately ripped
3 | (4/4) Accurately ripped
4 | (4/4) Accurately ripped
5 | (4/4) Accurately ripped
6 | (4/4) Accurately ripped
[AccurateRip ID: 000a722c-00395c8a-380bd106] found.
Track [ CRC | V2 ] Status
01 [bb3d3a45|ccb53d21] (0+2/2) Accurately ripped
02 [ac011b95|f0887531] (0+2/2) Accurately ripped
03 [f8e04866|cb404701] (0+2/2) Accurately ripped
04 [8d0c6f27|5e9bfdae] (0+2/2) Accurately ripped
05 [4dd67a28|d51387d5] (0+2/2) Accurately ripped
06 [7c0ff820|7dab6ba6] (0+2/2) Accurately ripped

Track Peak [ CRC32 ] [W/O NULL] [ LOG ]
– 99,9 [5EE11904] [8033BB78]
01 66,1 [1752357A] [CCFB5357] CRC32
02 69,2 [6DB4F2AB] [5B589C08] CRC32
03 99,9 [006EB3E3] [EF25359A] CRC32
04 68,1 [9DE9A2F3] [A003D11F] CRC32
05 90,8 [A5BB641B] [28F8F36F] CRC32
06 90,2 [F537EFF5] [BE518C1A] CRC32

Thanks to DrStandBy