Subcategories
Tags
Language
Tags

Buddy Holly - Reminiscing/Showcase (2000)

Posted By: popsakov
Buddy Holly - Reminiscing/Showcase (2000)

Buddy Holly - Reminiscing/Showcase (2000)
EAC Rip | WavPack (Img) + Cue + Log ~ 297 Mb | MP3 CBR320 ~ 135 Mb
Scans Included (JPG, 300 dpi) | RAR 5% Recovery
Early Pop/Rock, Rock & Roll, Rockabilly | BGO Records #BGOCD511

In recent decades, both Reminiscing and Showcase have enjoyed less than stellar reputations among Buddy Holly fans and '50s rock purists, as both albums were made up of the products of producer Norman Petty's posthumous redubbing of Holly's unfinished demos. Apart from the bizarre inclusion of "Wait Till the Sun Shines, Nellie" – a B-side chosen by Petty for the single of the title track – Reminiscing is a very solid album, and was essential to the maintaining of Holly's memory, reaching number three in a six-month run on the U.K. charts in 1963; one can just about lay odds that various members of the Beatles and the Rolling Stones were among the listeners of this album or its successor. Showcase, which sold just about as well, is a slightly less consistent record overall, but has some killer rock & roll tracks, including versions of "Rock Around With Ollie Vee," "Shake, Rattle and Roll," and "Blue Suede Shoes," plus the glittering acoustic number "You're the One" (with Waylon Jennings providing the handclaps). Moreover, even as a two-LP on one CD release, it's rather bite-sized at 48 minutes of music – Holly, like more rock & rollers of his day, made his points quickly. Despite their shortcomings as authentic documents of what Holly might have done with the songs, these are fun albums and fit together perfectly, as enjoyable accounts (if not, for obvious reasons, as revealing) of the talent involved as any LPs that Elvis Presley or Chuck Berry ever released. The fall 2000 release also benefits from state-of-the-art sound and superb annotation by John Tobler.
~ Bruce Eder, All Music

***************

Buddy Holly - Reminiscing/Showcase (2000)

Buddy Holly - Reminiscing/Showcase (2000)

Track List:

Reminiscing
01. Reminiscing [1:57]
02. Slippin' And Slidin' [3:31]
03. Bo Diddley [2:22]
04. Wait Till The Sun Shines, Nellie [1:56]
05. Baby, Won't You Come Out Tonight [1:55]
06. Brown Eyed Hansome Man [2:05]
07. Because I Love You [2:40]
08. It's Not My Fault [1:52]
09. I'm Gonna Set My Foot Down [2:19]
10. Changing All Those Changes [1:44]
11. Rock-A-Bye-Rock [2:24]

Showcase
12. Shake, Rattle And Roll [1:24]
13. Rock Around With Ollie Vee [2:13]
14. Honky Tonk [3:28]
15. I Guess I Was A Fool [2:16]
16. Ummm, Oh Yeah [1:54]
17. You're The One [1:32]
18. Blue Suede Shoes [1:55]
19. Come Back Baby [1:49]
20. Rip It Up [1:28]
21. Love's Made A Fool Of You [2:00]
22. Gone [1:12]
23. Girl On My Mind [2:17]

Exact Audio Copy V1.0 beta 3 from 29. August 2011

EAC extraction logfile from 22. November 2014, 17:28

Buddy Holly / Reminiscing & Showcase

Used drive : PLEXTOR DVDR PX-716A Adapter: 3 ID: 0

Read mode : Secure
Utilize accurate stream : Yes
Defeat audio cache : Yes
Make use of C2 pointers : No

Read offset correction : 30
Overread into Lead-In and Lead-Out : No
Fill up missing offset samples with silence : Yes
Delete leading and trailing silent blocks : No
Null samples used in CRC calculations : Yes
Used interface : Native Win32 interface for Win NT & 2000

Used output format : User Defined Encoder
Selected bitrate : 1024 kBit/s
Quality : High
Add ID3 tag : No
Command line compressor : C:\Program Files (x86)\Exact Audio Copy\wavpack.exe
Additional command line options : -hlm %source%


TOC of the extracted CD

Track | Start | Length | Start sector | End sector
––––––––––––––––––––––––––––-
1 | 0:00.00 | 1:56.57 | 0 | 8756
2 | 1:56.57 | 3:31.25 | 8757 | 24606
3 | 5:28.07 | 2:22.18 | 24607 | 35274
4 | 7:50.25 | 1:55.67 | 35275 | 43966
5 | 9:46.17 | 1:54.47 | 43967 | 52563
6 | 11:40.64 | 2:05.16 | 52564 | 61954
7 | 13:46.05 | 2:40.17 | 61955 | 73971
8 | 16:26.22 | 1:52.35 | 73972 | 82406
9 | 18:18.57 | 2:18.50 | 82407 | 92806
10 | 20:37.32 | 1:44.00 | 92807 | 100606
11 | 22:21.32 | 2:23.70 | 100607 | 111401
12 | 24:45.27 | 1:23.73 | 111402 | 117699
13 | 26:09.25 | 2:12.45 | 117700 | 127644
14 | 28:21.70 | 3:28.25 | 127645 | 143269
15 | 31:50.20 | 2:15.45 | 143270 | 153439
16 | 34:05.65 | 1:53.47 | 153440 | 161961
17 | 35:59.37 | 1:32.13 | 161962 | 168874
18 | 37:31.50 | 1:54.52 | 168875 | 177476
19 | 39:26.27 | 1:48.60 | 177477 | 185636
20 | 41:15.12 | 1:27.70 | 185637 | 192231
21 | 42:43.07 | 2:00.20 | 192232 | 201251
22 | 44:43.27 | 1:11.63 | 201252 | 206639
23 | 45:55.15 | 2:16.72 | 206640 | 216911


Range status and errors

Selected range

Filename D:\wwphil\Buddy Holly - Reminiscing & Showcase\Buddy Holly - Reminiscing & Showcase.wav

Peak level 98.8 %
Extraction speed 3.8 X
Range quality 100.0 %
Test CRC 461A5A56
Copy CRC 461A5A56
Copy OK

No errors occurred


AccurateRip summary

Track 1 accurately ripped (confidence 2) [65FA5014] (AR v1)
Track 2 accurately ripped (confidence 2) [234077E1] (AR v1)
Track 3 accurately ripped (confidence 2) [286187A4] (AR v1)
Track 4 accurately ripped (confidence 2) [DD86B10F] (AR v1)
Track 5 accurately ripped (confidence 2) [AC276FD2] (AR v1)
Track 6 accurately ripped (confidence 2) [33E070A2] (AR v1)
Track 7 accurately ripped (confidence 2) [830B67BC] (AR v1)
Track 8 accurately ripped (confidence 2) [8295893F] (AR v1)
Track 9 accurately ripped (confidence 2) [450373B3] (AR v1)
Track 10 accurately ripped (confidence 2) [B3647F71] (AR v1)
Track 11 accurately ripped (confidence 2) [0AACB511] (AR v1)
Track 12 accurately ripped (confidence 2) [241A3F9F] (AR v1)
Track 13 accurately ripped (confidence 2) [C0403FDD] (AR v1)
Track 14 accurately ripped (confidence 2) [0BCE7984] (AR v1)
Track 15 accurately ripped (confidence 2) [ECDE588F] (AR v1)
Track 16 accurately ripped (confidence 2) [D79D5C40] (AR v1)
Track 17 accurately ripped (confidence 2) [5051118A] (AR v1)
Track 18 accurately ripped (confidence 2) [9DC302B8] (AR v1)
Track 19 accurately ripped (confidence 2) [55A9F0CB] (AR v1)
Track 20 accurately ripped (confidence 2) [1395EB29] (AR v1)
Track 21 accurately ripped (confidence 2) [E08CFC56] (AR v1)
Track 22 accurately ripped (confidence 2) [C22BD7AB] (AR v1)
Track 23 accurately ripped (confidence 2) [4F2BCAB4] (AR v1)

All tracks accurately ripped

End of status report

==== Log checksum A6F8C7259D0AA407167BD4628F466001F4DC49878F43CA1B8FCD120D1FB4D0B3 ====

foobar2000 1.3.16 / Dynamic Range Meter 1.1.1
log date: 2018-01-19 12:19:38

––––––––––––––––––––––––––––––––––––––––
Analyzed: Buddy Holly / Reminiscing & Showcase
––––––––––––––––––––––––––––––––––––––––

DR Peak RMS Duration Track
––––––––––––––––––––––––––––––––––––––––
DR9 -2.00 dB -12.27 dB 1:57 01-Reminiscing
DR10 -1.79 dB -12.71 dB 3:31 02-Slippin' And Slidin'
DR8 -1.19 dB -10.47 dB 2:22 03-Bo Diddley
DR9 -1.55 dB -11.29 dB 1:56 04-Wait Till The Sun Shines, Nellie
DR10 -1.10 dB -11.86 dB 1:55 05-Baby, Won't You Come Out Tonight
DR9 -1.99 dB -11.50 dB 2:05 06-Brown Eyed Hansome Man
DR10 -1.75 dB -13.22 dB 2:40 07-Because I Love You
DR9 -1.27 dB -12.08 dB 1:52 08-It's Not My Fault
DR9 -1.57 dB -11.30 dB 2:19 09-I'm Gonna Set My Foot Down
DR10 -1.35 dB -12.24 dB 1:44 10-Changing All Those Changes
DR10 -1.49 dB -12.96 dB 2:24 11-Rock-A-Bye-Rock
DR11 -0.10 dB -12.66 dB 1:24 12-Shake, Rattle And Roll
DR9 -0.10 dB -11.00 dB 2:13 13-Rock Around With Ollie Vee
DR12 -0.10 dB -14.35 dB 3:28 14-Honky Tonk
DR12 -0.10 dB -15.34 dB 2:16 15-I Guess I Was A Fool
DR12 -0.10 dB -14.49 dB 1:54 16-Ummm, Oh Yeah
DR15 -0.10 dB -16.95 dB 1:32 17-You're The One
DR11 -0.10 dB -12.87 dB 1:55 18-Blue Suede Shoes
DR10 -0.20 dB -11.91 dB 1:49 19-Come Back Baby
DR12 -0.10 dB -13.22 dB 1:28 20-Rip It Up
DR12 -0.10 dB -13.81 dB 2:00 21-Love's Made A Fool Of You
DR10 -0.10 dB -13.38 dB 1:12 22-Gone
DR9 -0.10 dB -12.32 dB 2:17 23-Girl On My Mind
––––––––––––––––––––––––––––––––––––––––

Number of tracks: 23
Official DR value: DR10

Samplerate: 44100 Hz
Channels: 2
Bits per sample: 16
Bitrate: 767 kbps
Codec: WavPack
================================================================================

[CUETools log; Date: 19.01.2018 12:19:28; Version: 2.1.5]
[CTDB TOCID: B8ToTQZT2NHi9AdrIHL16_XUSdI-] found.
Track | CTDB Status
1 | (2/2) Accurately ripped
2 | (2/2) Accurately ripped
3 | (2/2) Accurately ripped
4 | (2/2) Accurately ripped
5 | (2/2) Accurately ripped
6 | (2/2) Accurately ripped
7 | (2/2) Accurately ripped
8 | (2/2) Accurately ripped
9 | (2/2) Accurately ripped
10 | (2/2) Accurately ripped
11 | (2/2) Accurately ripped
12 | (2/2) Accurately ripped
13 | (2/2) Accurately ripped
14 | (2/2) Accurately ripped
15 | (2/2) Accurately ripped
16 | (2/2) Accurately ripped
17 | (2/2) Accurately ripped
18 | (2/2) Accurately ripped
19 | (2/2) Accurately ripped
20 | (2/2) Accurately ripped
21 | (2/2) Accurately ripped
22 | (2/2) Accurately ripped
23 | (2/2) Accurately ripped
[AccurateRip ID: 0029d472-02b09b35-450b4c17] found.
Track [ CRC | V2 ] Status
01 [65fa5014|c35922af] (2+3/5) Accurately ripped
02 [234077e1|47249561] (2+3/5) Accurately ripped
03 [286187a4|00e21e5a] (2+3/5) Accurately ripped
04 [dd86b10f|32aed7c4] (2+3/5) Accurately ripped
05 [ac276fd2|ac2b19d3] (2+3/5) Accurately ripped
06 [33e070a2|ba366003] (2+3/5) Accurately ripped
07 [830b67bc|1cca2362] (2+3/5) Accurately ripped
08 [8295893f|b243b138] (2+3/5) Accurately ripped
09 [450373b3|de0f18d3] (2+3/5) Accurately ripped
10 [b3647f71|471580d7] (2+3/5) Accurately ripped
11 [0aacb511|e299b193] (2+3/5) Accurately ripped
12 [241a3f9f|3d284225] (2+3/5) Accurately ripped
13 [c0403fdd|ed4f7165] (2+3/5) Accurately ripped
14 [0bce7984|1f74539d] (2+3/5) Accurately ripped
15 [ecde588f|78feecbe] (2+3/5) Accurately ripped
16 [d79d5c40|4960e0cb] (2+3/5) Accurately ripped
17 [5051118a|422ad7c3] (2+3/5) Accurately ripped
18 [9dc302b8|e51d57bb] (2+3/5) Accurately ripped
19 [55a9f0cb|ecd8ab30] (2+3/5) Accurately ripped
20 [1395eb29|5ca90186] (2+3/5) Accurately ripped
21 [e08cfc56|4e4aedc6] (2+3/5) Accurately ripped
22 [c22bd7ab|7fc3fd46] (2+3/5) Accurately ripped
23 [4f2bcab4|5d732542] (2+3/5) Accurately ripped
Offsetted by -1363:
01 [0fce22af] (0/5) No match (V2 was not tested)
02 [e1f184fb] (0/5) No match (V2 was not tested)
03 [925c719d] (0/5) No match (V2 was not tested)
04 [94945429] (0/5) No match (V2 was not tested)
05 [de60be3c] (0/5) No match (V2 was not tested)
06 [a5e50ffc] (0/5) No match (V2 was not tested)
07 [507511d5] (0/5) No match (V2 was not tested)
08 [3615155f] (0/5) No match (V2 was not tested)
09 [ef611862] (0/5) No match (V2 was not tested)
10 [1835d8eb] (0/5) No match (V2 was not tested)
11 [4fa753a5] (0/5) No match (V2 was not tested)
12 [caa37ea2] (0/5) No match (V2 was not tested)
13 [af199d3a] (0/5) No match (V2 was not tested)
14 [96903d00] (0/5) No match (V2 was not tested)
15 [7d3c773f] (0/5) No match (V2 was not tested)
16 [dfe94366] (0/5) No match (V2 was not tested)
17 [1881c8e0] (0/5) No match (V2 was not tested)
18 [bcfdfe7b] (0/5) No match (V2 was not tested)
19 [f67613b3] (0/5) No match (V2 was not tested)
20 [c9635ba1] (0/5) No match (V2 was not tested)
21 [e21429b1] (0/5) No match (V2 was not tested)
22 [6e6fafc2] (0/5) No match (V2 was not tested)
23 [2b19eda1] (0/5) No match (V2 was not tested)

Track Peak [ CRC32 ] [W/O NULL] [ LOG ]
– 98,8 [461A5A56] [A8D41702] CRC32
01 79,4 [1BB1CF14] [B10F95F5]
02 81,3 [7143FE8E] [952BA69C]
03 87,2 [5B0E8DF1] [DC1C9E48]
04 83,6 [7DADC237] [DFD1C8DB]
05 88,1 [CCF96D49] [097B78D9]
06 79,5 [C7AB9E4D] [7040F762]
07 81,7 [9C398435] [E59A346E]
08 86,3 [19D620A3] [23B09E75]
09 83,4 [D54DE4EB] [635C2057]
10 85,6 [583704D3] [C841FA0A]
11 84,1 [E58658A0] [B6A678BD]
12 98,8 [3C85F289] [86652E61]
13 98,8 [3F7DB8CE] [29DCCF7D]
14 98,8 [93B8A078] [B5665693]
15 98,8 [410940D4] [63E4E59C]
16 98,8 [510C0621] [C92E624C]
17 98,8 [E4254097] [36A26DB2]
18 98,8 [5C14B1D5] [CF3F3A1C]
19 97,7 [7B6FE6E8] [77AE61AA]
20 98,8 [DDB6BF01] [EFC34006]
21 98,8 [D4D775C3] [612B0EDE]
22 98,8 [9AA91BB8] [3B744A93]
23 98,8 [F20BB4D3] [9C14CDA3]

Buddy Holly - Reminiscing/Showcase (2000)

All thanks go to wwphil

>>> My Blog <<<

Download from icerbox.com: