Tags
Language
Tags
July 2024
Su Mo Tu We Th Fr Sa
30 1 2 3 4 5 6
7 8 9 10 11 12 13
14 15 16 17 18 19 20
21 22 23 24 25 26 27
28 29 30 31 1 2 3

Bryan Adams - Into The Fire (1987) [2012, Japanese SHM-CD]

Posted By: v3122
Bryan Adams - Into The Fire (1987) [2012, Japanese SHM-CD]

Bryan Adams - Into The Fire (1987)
EAC | Flac(Image) + Cue + Log & MP3 CBR 320Kbps
A&M Records/Universal Music, UICY-94823 | ~ 400 or 136 Mb | Artwork(png) -> 228 Mb
Pop Rock, Soft Rock

Into the Fire is the fifth studio album by the Canadian rock singer Bryan Adams. It was released on 30 March 1987 by A&M Records, and the follow up album to the chart topping Reckless (1984). Into the Fire peaked at number 7 on the US Billboard 200 chart and reached equally high positions in charts worldwide. The album was recorded at Adams' home in Vancouver, British Columbia, Canada.

Six singles were released from the album: "Heat of the Night", "Hearts on Fire", "Victim of Love", "Only the Strong Survive", "Into the Fire" and "Another Day".

The cover photographs were taken by the Dutch photographer/director Anton Corbijn on the river Thames in East London, England…

~ wiki
Bryan Adams - Into The Fire (1987):

Bryan Adams - Into The Fire (1987) [2012, Japanese SHM-CD]

Tracklist:

01. Heat Of The Night 05:06
02. Into The Fire 04:41
03. Victim Of Love 04:06
04. Another Day 03:40
05. Native Son 06:04
06. Only The Strong Survive 03:45
07. Rebel 04:01
08. Remembrance Day 05:58
09. Hearts On Fire 03:30
10. Home Again 04:20
Bonus Tracks:
11. Heat Of The Night (From 'Live! Live! Live!' / 1988) 05:21
12. Hearts On Fire (From 'Live! Live! Live!' / 1988) 04:11
13. Run Rudolph Run 02:42

Exact Audio Copy V1.0 beta 3 from 29. August 2011

EAC extraction logfile from 4. December 2012, 19:22

Bryan Adams / Into The Fire

Used drive : PLEXTOR BD-R PX-B950SA Adapter: 6 ID: 0

Read mode : Secure
Utilize accurate stream : Yes
Defeat audio cache : Yes
Make use of C2 pointers : No

Read offset correction : 6
Overread into Lead-In and Lead-Out : No
Fill up missing offset samples with silence : Yes
Delete leading and trailing silent blocks : No
Null samples used in CRC calculations : Yes
Used interface : Native Win32 interface for Win NT & 2000

Used output format : Internal WAV Routines
Sample format : 44.100 Hz; 16 Bit; Stereo


TOC of the extracted CD

Track | Start | Length | Start sector | End sector
––––––––––––––––––––––––––––-
1 | 0:00.00 | 5:06.54 | 0 | 23003
2 | 5:06.54 | 4:41.00 | 23004 | 44078
3 | 9:47.54 | 4:06.14 | 44079 | 62542
4 | 13:53.68 | 3:40.43 | 62543 | 79085
5 | 17:34.36 | 6:04.43 | 79086 | 106428
6 | 23:39.04 | 3:45.03 | 106429 | 123306
7 | 27:24.07 | 4:01.69 | 123307 | 141450
8 | 31:26.01 | 5:58.60 | 141451 | 168360
9 | 37:24.61 | 3:30.07 | 168361 | 184117
10 | 40:54.68 | 4:20.66 | 184118 | 203683
11 | 45:15.59 | 5:21.09 | 203684 | 227767
12 | 50:36.68 | 4:11.69 | 227768 | 246661
13 | 54:48.62 | 2:42.30 | 246662 | 258841


Range status and errors

Selected range

Filename C:\Users\Meijin\Desktop\Rip by ALLexxess\Bryan Adams\1987 Into The Fire (Universal Music Japan Mini LP SHM-CD 2012)\Bryan Adams - Into The Fire.wav

Peak level 100.0 %
Extraction speed 7.4 X
Range quality 100.0 %
Test CRC 81676DE5
Copy CRC 81676DE5
Copy OK

No errors occurred


AccurateRip summary

Track 1 not present in database
Track 2 not present in database
Track 3 not present in database
Track 4 not present in database
Track 5 not present in database
Track 6 not present in database
Track 7 not present in database
Track 8 not present in database
Track 9 not present in database
Track 10 not present in database
Track 11 not present in database
Track 12 not present in database
Track 13 not present in database

None of the tracks are present in the AccurateRip database

End of status report

==== Log checksum 78A15E668BD80EAB23E49DAE9603F678710396CD67C759179F4AA2C5F73ECB5D ====


[CUETools log; Date: 13.02.2019 5:54:32; Version: 2.1.4]
[AccurateRip ID: 001c8616-011c158e-bd0d7b0d] found.
Track [ CRC | V2 ] Status
01 [6f530c43|dd7f2c21] (0+8/8) Accurately ripped
02 [4dfa8340|88bcba46] (0+8/8) Accurately ripped
03 [5925accd|173189f6] (0+8/8) Accurately ripped
04 [bf955606|f5f863d0] (0+6/8) Accurately ripped
05 [b3d700ad|0d7ba0e1] (0+8/8) Accurately ripped
06 [8f1ecd5e|a805636b] (0+8/8) Accurately ripped
07 [80a0cfb6|e053315b] (0+8/8) Accurately ripped
08 [f1e5f42f|8784cd2a] (0+8/8) Accurately ripped
09 [70a7e01d|3fa7ba25] (0+8/8) Accurately ripped
10 [3d262e29|d96a8f4e] (0+8/8) Accurately ripped
11 [cb7da759|84454b8a] (0+8/8) Accurately ripped
12 [6362e91e|42d131a9] (0+8/8) Accurately ripped
13 [3e8eb956|59ba9d8a] (0+8/8) Accurately ripped

Track Peak [ CRC32 ] [W/O NULL] [ LOG ]
– 100,0 [81676DE5] [AFCEEE98] CRC32
01 100,0 [F74B6659] [83F06398]
02 100,0 [75C11087] [C8F2B241]
03 100,0 [DF59AEA0] [8734DEB6]
04 100,0 [A918F85C] [2973BE96]
05 100,0 [30586D7E] [6492C3A4]
06 97,8 [F74D74EA] [2CDABA40]
07 100,0 [18B7F676] [0BDD8FFB]
08 100,0 [9C0F6400] [0FFF6EF4]
09 100,0 [7FAD32A8] [4BC0EC96]
10 100,0 [47A64D14] [99D372D2]
11 100,0 [78FBD942] [D699353E]
12 100,0 [D643067D] [9D2F9E79]
13 100,0 [DA103548] [E11E98A1]


Bryan Adams - Into The Fire (1987) [2012, Japanese SHM-CD]

All thanks go to ALLexxess

Bryan Adams in my Blog

Download Bryan Adams - Into The Fire (1987):