Subcategories
Tags
Language
Tags

Brigham Young University Synthesis - Live At Montreux 1996 (1996)

Posted By: popsakov
Brigham Young University Synthesis - Live At Montreux 1996 (1996)

Brigham Young University Synthesis - Live At Montreux 1996 (1996)
EAC Rip | FLAC (Tracks) + Cue + m3u8 + Log ~ 428 Mb | MP3 CBR320 ~ 190 Mb
Full Scans | 01:08:09 | RAR 5% Recovery
Sea Breeze Vista #SBV-4523 / Tantara Records #TCD-039611SY
Jazz / Big Band / Swing / Hard Bop / Post-Bop

In addition to its impressive musicianship, Brigham Young University Synthesis stands apart from most other college big bands due to its diverse and inventive arrangements. On this set, live from the 1996 Montreux Jazz Festival, the 20-piece orchestra (directed by Ray Smith) performs a program ranging from "Sing, Sing, Sing" (which has Smith featured on clarinet), to pieces by Miles Davis ("All Blues"), Sammy Nestico, Bob Mintzer, Pat Metheny, and Dizzy Gillespie. Even with all of the changes in styles, the band and its soloists adapt themselves quite well. Among the individual stars of this easily recommended big-band set are tenor saxophonist Mike Vance, trumpeter Brent Durland, and guitarist Joshua Payne.

~ Scott Yanow, All Music

***************

Track List:

01. Sing, Sing, Sing [7:28]
02. A Warm Breeze [8:42]
03. The Heart of the Matter [9:33]
04. All Blues [9:39]
05. Calypsoscope [7:31]
06. Easy Livin' [7:15]
07. The First Circle [10:23]
08. Things to Come [7:42]

Exact Audio Copy V1.3 from 2. September 2016

EAC extraction logfile from 13. December 2020, 19:48

Synthesis, Brigham Young University / Live At Montreux 1996

Used drive : TS8XDVDSTRANSCEND Adapter: 1 ID: 1

Read mode : Secure
Utilize accurate stream : Yes
Defeat audio cache : Yes
Make use of C2 pointers : No

Read offset correction : 6
Overread into Lead-In and Lead-Out : No
Fill up missing offset samples with silence : Yes
Delete leading and trailing silent blocks : No
Null samples used in CRC calculations : Yes
Used interface : Native Win32 interface for Win NT & 2000
Gap handling : Appended to previous track

Used output format : User Defined Encoder
Selected bitrate : 1024 kBit/s
Quality : High
Add ID3 tag : No
Command line compressor : C:\Program Files (x86)\Exact Audio Copy\FLAC\FLAC.EXE
Additional command line options : -V -8 -T "Genre=%genre%" -T "Artist=%artist%" -T "Title=%title%" -T "Album=%albumtitle%" -T "Date=%year%" -T "Tracknumber=%tracknr%" %source% -o %dest%


TOC of the extracted CD

Track | Start | Length | Start sector | End sector
––––––––––––––––––––––––––––-
1 | 0:00.00 | 7:27.06 | 0 | 33530
2 | 7:27.06 | 8:41.45 | 33531 | 72650
3 | 16:08.51 | 9:32.65 | 72651 | 115615
4 | 25:41.41 | 9:38.25 | 115616 | 158990
5 | 35:19.66 | 7:30.34 | 158991 | 192774
6 | 42:50.25 | 7:14.24 | 192775 | 225348
7 | 50:04.49 | 10:22.07 | 225349 | 272005
8 | 60:26.56 | 7:41.69 | 272006 | 306649


Track 1

Filename G:\to up\_toscans\Synthesis, Brigham Young University - Live At Montreux 1996 - 1966 (Sea Breeze Vista SBV-4523) [CD FLAC]\01. Sing, Sing, Sing.wav

Pre-gap length 0:00:02.00

Peak level 100.0 %
Extraction speed 1.3 X
Track quality 100.0 %
Test CRC 3D838C62
Copy CRC 3D838C62
Accurately ripped (confidence 1) [E2981FEF] (AR v2)
Copy OK

Track 2

Filename G:\to up\_toscans\Synthesis, Brigham Young University - Live At Montreux 1996 - 1966 (Sea Breeze Vista SBV-4523) [CD FLAC]\02. A Warm Breeze.wav

Peak level 100.0 %
Extraction speed 1.6 X
Track quality 100.0 %
Test CRC 26F0CDA6
Copy CRC 26F0CDA6
Accurately ripped (confidence 1) [8E0F476B] (AR v2)
Copy OK

Track 3

Filename G:\to up\_toscans\Synthesis, Brigham Young University - Live At Montreux 1996 - 1966 (Sea Breeze Vista SBV-4523) [CD FLAC]\03. The Heart of the Matter.wav

Peak level 100.0 %
Extraction speed 1.9 X
Track quality 100.0 %
Test CRC C122026B
Copy CRC C122026B
Accurately ripped (confidence 1) [9FB0FE38] (AR v2)
Copy OK

Track 4

Filename G:\to up\_toscans\Synthesis, Brigham Young University - Live At Montreux 1996 - 1966 (Sea Breeze Vista SBV-4523) [CD FLAC]\04. All Blues.wav

Peak level 100.0 %
Extraction speed 2.0 X
Track quality 99.9 %
Test CRC B44E8F5A
Copy CRC B44E8F5A
Accurately ripped (confidence 1) [F78BEFE4] (AR v2)
Copy OK

Track 5

Filename G:\to up\_toscans\Synthesis, Brigham Young University - Live At Montreux 1996 - 1966 (Sea Breeze Vista SBV-4523) [CD FLAC]\05. Calypsoscope.wav

Peak level 100.0 %
Extraction speed 2.3 X
Track quality 100.0 %
Test CRC 674445F3
Copy CRC 674445F3
Accurately ripped (confidence 1) [48DCDE86] (AR v2)
Copy OK

Track 6

Filename G:\to up\_toscans\Synthesis, Brigham Young University - Live At Montreux 1996 - 1966 (Sea Breeze Vista SBV-4523) [CD FLAC]\06. Easy Livin'.wav

Peak level 70.7 %
Extraction speed 2.4 X
Track quality 100.0 %
Test CRC CF13B47A
Copy CRC CF13B47A
Accurately ripped (confidence 1) [D24EB43F] (AR v2)
Copy OK

Track 7

Filename G:\to up\_toscans\Synthesis, Brigham Young University - Live At Montreux 1996 - 1966 (Sea Breeze Vista SBV-4523) [CD FLAC]\07. The First Circle.wav

Peak level 100.0 %
Extraction speed 2.6 X
Track quality 100.0 %
Test CRC 91114E73
Copy CRC 91114E73
Accurately ripped (confidence 1) [BA3373B4] (AR v2)
Copy OK

Track 8

Filename G:\to up\_toscans\Synthesis, Brigham Young University - Live At Montreux 1996 - 1966 (Sea Breeze Vista SBV-4523) [CD FLAC]\08. Things to Come.wav

Peak level 100.0 %
Extraction speed 2.7 X
Track quality 100.0 %
Test CRC 24D57C33
Copy CRC 24D57C33
Accurately ripped (confidence 1) [E4632579] (AR v2)
Copy OK


All tracks accurately ripped

No errors occurred

End of status report

–– CUETools DB Plugin V2.1.6

[CTDB TOCID: CXUcwNdnJ4Xnqu6AZxNpCtZWDp4-] found
Submit result: unrecognized or virtual drive
Track | CTDB Status
1 | (3/3) Accurately ripped
2 | (3/3) Accurately ripped
3 | (3/3) Accurately ripped
4 | (3/3) Accurately ripped
5 | (3/3) Accurately ripped
6 | (3/3) Accurately ripped
7 | (3/3) Accurately ripped
8 | (3/3) Accurately ripped


==== Log checksum 1D8E89973EFC505BC41F5C937BCDA0D06C242E23E91F87A603D231D8FFEF8DCE ====

Brigham Young University Synthesis - Live At Montreux 1996 (1996)


All thanks go to Musicgate

>>> My Blog <<<

DOWNLOAD: