Subcategories
Please register here if you want to download anything!

If domain in your address bar is different from the list below
PLEASE LEAVE THAT SITE IMMEDIATELY
❗IT'S A DANGEROUS FAKE❗



Spicy Magazines for Men! ;-)

Antony Kalugin - The Magic Of The Ethnic Flute (2006)

Posted By: gribovar
Antony Kalugin - The Magic Of The Ethnic Flute (2006)

Antony Kalugin - The Magic Of The Ethnic Flute (2006)
EAC Rip | FLAC (tracks+.cue+log) - 410 MB | MP3 CBR 320 kbps (LAME 3.93) - 177 MB | Covers - 84 MB
Genre: New Age | RAR 3% Rec. | Label: Vikkon (VKS-32)

Antony Kalugin is a prolific musician and composer from Ukraine. His bands Karfagen, Sunchild and Hoggwash plus his solo albums has gained him many fans.
Tracklist:
01. From The Top
02. White Dove
03. Guideron
04. Golden Gryphone
05. Grecian Song
06. Son Of Goliath
07. You Dance
08. Nival Flower
09. Skyward
10. From The Top (Reprise)

Total time: 01:15:04

Exact Audio Copy V1.1 from 23. June 2015

EAC extraction logfile from 14. March 2016, 10:57

Антон Калугин / The Magic Of The Ethnic Flute (Easy Listening Music)

Used drive : hp DVDRW SU208GB Adapter: 1 ID: 0

Read mode : Secure
Utilize accurate stream : Yes
Defeat audio cache : Yes
Make use of C2 pointers : No

Read offset correction : 6
Overread into Lead-In and Lead-Out : No
Fill up missing offset samples with silence : Yes
Delete leading and trailing silent blocks : No
Null samples used in CRC calculations : Yes
Used interface : Native Win32 interface for Win NT & 2000
Gap handling : Appended to previous track

Used output format : User Defined Encoder
Selected bitrate : 1024 kBit/s
Quality : High
Add ID3 tag : No
Command line compressor : C:\Program Files (x86)\Exact Audio Copy\Flac\flac.exe
Additional command line options : -8 -V -T "ARTIST=%artist%" -T "TITLE=%title%" -T "ALBUM=%albumtitle%" -T "DATE=%year%" -T "TRACKNUMBER=%tracknr%" -T "TOTALTRACKS=%numtracks%" -T "GENRE=%genre%" -T "COMMENT=%comment%" %source%


TOC of the extracted CD

Track | Start | Length | Start sector | End sector
––––––––––––––––––––––––––––-
1 | 0:00.00 | 6:37.22 | 0 | 29796
2 | 6:37.22 | 7:32.69 | 29797 | 63765
3 | 14:10.16 | 7:26.59 | 63766 | 97274
4 | 21:37.00 | 8:59.44 | 97275 | 137743
5 | 30:36.44 | 6:30.27 | 137744 | 167020
6 | 37:06.71 | 10:21.43 | 167021 | 213638
7 | 47:28.39 | 5:52.60 | 213639 | 240098
8 | 53:21.24 | 7:21.11 | 240099 | 273184
9 | 60:42.35 | 7:54.09 | 273185 | 308743
10 | 68:36.44 | 6:27.34 | 308744 | 337802


Track 1

Filename D:\DMP\Антон Калугин - 2006 - The Magic Of The Ethnic Flute (Easy Listening Music)\01. From The Top.wav

Pre-gap length 0:00:02.00

Peak level 100.0 %
Extraction speed 1.3 X
Track quality 100.0 %
Test CRC 4E65CD0A
Copy CRC 4E65CD0A
Track not present in AccurateRip database
Copy OK

Track 2

Filename D:\DMP\Антон Калугин - 2006 - The Magic Of The Ethnic Flute (Easy Listening Music)\02. White Dove.wav

Pre-gap length 0:00:02.00

Peak level 100.0 %
Extraction speed 1.5 X
Track quality 100.0 %
Test CRC BA7E9DA9
Copy CRC BA7E9DA9
Track not present in AccurateRip database
Copy OK

Track 3

Filename D:\DMP\Антон Калугин - 2006 - The Magic Of The Ethnic Flute (Easy Listening Music)\03. Guideron.wav

Pre-gap length 0:00:02.00

Peak level 100.0 %
Extraction speed 1.7 X
Track quality 100.0 %
Test CRC 237A9AFA
Copy CRC 237A9AFA
Track not present in AccurateRip database
Copy OK

Track 4

Filename D:\DMP\Антон Калугин - 2006 - The Magic Of The Ethnic Flute (Easy Listening Music)\04. Golden Gryphone.wav

Pre-gap length 0:00:02.00

Peak level 100.0 %
Extraction speed 1.9 X
Track quality 100.0 %
Test CRC E666DE76
Copy CRC E666DE76
Track not present in AccurateRip database
Copy OK

Track 5

Filename D:\DMP\Антон Калугин - 2006 - The Magic Of The Ethnic Flute (Easy Listening Music)\05. Grecian Song.wav

Pre-gap length 0:00:02.00

Peak level 100.0 %
Extraction speed 2.0 X
Track quality 100.0 %
Test CRC ED6BBCE0
Copy CRC ED6BBCE0
Track not present in AccurateRip database
Copy OK

Track 6

Filename D:\DMP\Антон Калугин - 2006 - The Magic Of The Ethnic Flute (Easy Listening Music)\06. Son Of Goliath.wav

Pre-gap length 0:00:02.00

Peak level 100.0 %
Extraction speed 2.3 X
Track quality 100.0 %
Test CRC 811F5E65
Copy CRC 811F5E65
Track not present in AccurateRip database
Copy OK

Track 7

Filename D:\DMP\Антон Калугин - 2006 - The Magic Of The Ethnic Flute (Easy Listening Music)\07. You Dance.wav

Pre-gap length 0:00:02.00

Peak level 100.0 %
Extraction speed 2.3 X
Track quality 100.0 %
Test CRC B84EADB3
Copy CRC B84EADB3
Track not present in AccurateRip database
Copy OK

Track 8

Filename D:\DMP\Антон Калугин - 2006 - The Magic Of The Ethnic Flute (Easy Listening Music)\08. Nival Flower.wav

Pre-gap length 0:00:02.00

Peak level 100.0 %
Extraction speed 0.3 X
Track quality 100.0 %
Test CRC 1D0D419F
Copy CRC 1D0D419F
Track not present in AccurateRip database
Copy OK

Track 9

Filename D:\DMP\Антон Калугин - 2006 - The Magic Of The Ethnic Flute (Easy Listening Music)\09. Skyward.wav

Pre-gap length 0:00:02.00

Peak level 100.0 %
Extraction speed 2.6 X
Track quality 100.0 %
Test CRC 30EC23C3
Copy CRC 30EC23C3
Track not present in AccurateRip database
Copy OK

Track 10

Filename D:\DMP\Антон Калугин - 2006 - The Magic Of The Ethnic Flute (Easy Listening Music)\10. From The Top (Reprise).wav

Pre-gap length 0:00:02.00

Peak level 100.0 %
Extraction speed 2.4 X
Track quality 99.9 %
Test CRC 99EB2660
Copy CRC 99EB2660
Track not present in AccurateRip database
Copy OK


None of the tracks are present in the AccurateRip database

No errors occurred

End of status report

–– CUETools DB Plugin V2.1.6

[CTDB TOCID: XF8DdngWDuxlL8vO6.YcFc4xP8s-] disk not present in database
Submit result: XF8DdngWDuxlL8vO6.YcFc4xP8s- has been uploaded


==== Log checksum 08E065AF44610D53543176D89AF1FB0E99E4D318C5C28E39AA80308A39E013AB ====

[CUETools log; Date: 26.04.2019 3:03:09; Version: 2.1.4]
[CTDB TOCID: XF8DdngWDuxlL8vO6.YcFc4xP8s-] found.
Track | CTDB Status
1 | (1/1) Accurately ripped
2 | (1/1) Accurately ripped
3 | (1/1) Accurately ripped
4 | (1/1) Accurately ripped
5 | (1/1) Accurately ripped
6 | (1/1) Accurately ripped
7 | (1/1) Accurately ripped
8 | (1/1) Accurately ripped
9 | (1/1) Accurately ripped
10 | (1/1) Accurately ripped
[AccurateRip ID: 001c8511-00e50512-9311980a] disk not present in database.

Track Peak [ CRC32 ] [W/O NULL] [ LOG ]
– 100,0 [5935017E] [8914B391]
01 100,0 [4E65CD0A] [5630C6E7] CRC32
02 100,0 [BA7E9DA9] [A8A306C6] CRC32
03 100,0 [237A9AFA] [E2A82C50] CRC32
04 100,0 [E666DE76] [73C7652D] CRC32
05 100,0 [ED6BBCE0] [E713B59B] CRC32
06 100,0 [811F5E65] [C240F4E9] CRC32
07 100,0 [B84EADB3] [1D660E84] CRC32
08 100,0 [1D0D419F] [6E7C9625] CRC32
09 100,0 [30EC23C3] [32B7E72E] CRC32
10 100,0 [99EB2660] [FA693301] CRC32

Thanks to dmp

See also: