Subcategories
Tags
Language
Tags

Various Artists - Sweet Dreams: Where Country Meets Soul Vol. 2 (2013) {Ace Records CDKEND 395}

Posted By: ruskaval
Various Artists - Sweet Dreams: Where Country Meets Soul Vol. 2 (2013) {Ace Records CDKEND 395}

Various Artists - Sweet Dreams: Where Country Meets Soul Vol. 2 (2013) {Ace Records CDKEND 395}
EAC rip (secure mode) | FLAC (tracks) +CUE+LOG -> 449 Mb | MP3 @320 -> 190 Mb
Full Artwork @ 300 dpi (jpg) -> 31 Mb | 5% repair rar
© 2013 Ace Records / Kent Records | CDKEND 395
Country / Soul / R&B / Country Soul / Southern Soul

Sweet Dreams: Where Country Meets Soul, Ace's second dip into the country-soul well, is every bit as good as its 2012 predecessor. Basically, it's cut from the same cloth as the first volume, concentrating on recordings from the late '60s but stretching deep into the '70s (Millie Jackson's "Sweet Music Man" dates from 1977), with Ted Taylor's 1962 "I'll Release You" and Orquestra Was' 1996 "Forever's a Long, Long Time Ago" functioning as de facto ringers. "Forever's a Long, Long Time Ago" may fit aesthetically but certainly not sonically, as it's a crisp digital blast on a collection devoted to warm, lush, analog soul.
Various Artists - Sweet Dreams: Where Country Meets Soul Vol. 2 (2013) {Ace Records CDKEND 395}

There are lingering elements of highly produced, backing vocal-laden soul from the early '60s – the blueprint Ray Charles wrote on his trailblazing Modern Sounds in Country & Western music in 1961 – but nearly all of this is deep southern soul, either slow-burning laments or sweaty, horn-punctuated workouts (Johnnie Taylor's funky reworking of "Sixteen Tons" is unexpected and wonderful). This is the sound of the south, where the lines between country and soul blurred beyond recognition, producing magnificent music. There are no hits here – indeed, some of this is even unearthed, including James Carr's "Tell Me My Lying Eyes Are Wrong" – but that only illustrates how deep the country-soul river ran: it was a constant among a certain brand of soul singer, as this splendid collection makes plain. With any luck, there will be a Volume 3 on the horizon.
Various Artists - Sweet Dreams: Where Country Meets Soul Vol. 2 (2013) {Ace Records CDKEND 395}


Ace Records INFO

Personnel & tracklist:
01 - The Sweet Inspirations - But You Know I Love You
02 - William Bell - Please Help Me, I'm Falling
03 - Clarence Carter - Bad News
04 - Hank Ballard - Sunday Morning Comin' Down
05 - The Facts Of Life - Sometimes
06 - Pat Lundy - Only Mama That'll Walk The Line
07 - Otis Redding - Tennessee Waltz
08 - Bobby Hebb - A Satisfied Mind
09 - Ralph Lamar - Don't Let Me Cross Over
10 - Joe Simon - Help Me Make It Through The Night
11 - Ted Taylor - I'll Release You
12 - Millie Jackson - Sweet Music Man
13 - James Carr - Tell Me My Lying Eyes Are Wrong
14 - Bettye Swann - Don't You Ever Get Tired (Of Hurting Me)
15 - Johnnie Taylor - Sixteen Tons
16 - Bobby Bland - I Hate You
17 - David Ruffin - Statue Of A Fool
18 - Esther Phillips - Sweet Dreams
19 - Eddie James - All I Have To Offer You (Is Me)
20 - Etta James - When I Stop Dreaming
21 - Isaac Hayes - I Can't Help It (If I'm Still In Love With You)
22 - Dorothy Moore - Funny How Time Slips Away
23 - Orquestra Was feat. Sweet Pea Atkinson - Forever's A Long, Long Time

Exact Audio Copy V1.0 beta 3 from 29. August 2011

EAC extraction logfile from 27. September 2013, 15:16

Various Artists / Sweet Dreams: Where Country Meets Soul Vol. 2

Used drive : TSSTcorpCDDVDW SH-224BB Adapter: 0 ID: 0

Read mode : Secure
Utilize accurate stream : Yes
Defeat audio cache : Yes
Make use of C2 pointers : No

Read offset correction : 6
Overread into Lead-In and Lead-Out : No
Fill up missing offset samples with silence : Yes
Delete leading and trailing silent blocks : No
Null samples used in CRC calculations : Yes
Used interface : Native Win32 interface for Win NT & 2000
Gap handling : Appended to previous track

Used output format : User Defined Encoder
Selected bitrate : 128 kBit/s
Quality : High
Add ID3 tag : No
Command line compressor : C:\Program Files (x86)\FLAC\flac.exe
Additional command line options : -8 -V -T "ARTIST=%artist%" -T "TITLE=%title%" -T "ALBUM=%albumtitle%" -T "DATE=%year%" -T "TRACKNUMBER=%tracknr%" -T "TOTALTRACKS=%numtracks%" -T "GENRE=%genre%" -T "ALBUMARTIST=%albumartist%" -T "ALBUM ARTIST=%albumartist%" -T "COMMENT=EAC Secure Mode, Test & Copy, AccurateRip, FLAC -8" %source%


TOC of the extracted CD

Track | Start | Length | Start sector | End sector
––––––––––––––––––––––––––––-
1 | 0:00.00 | 2:32.46 | 0 | 11445
2 | 2:32.46 | 2:23.55 | 11446 | 22225
3 | 4:56.26 | 2:56.55 | 22226 | 35480
4 | 7:53.06 | 5:04.62 | 35481 | 58342
5 | 12:57.68 | 3:41.33 | 58343 | 74950
6 | 16:39.26 | 2:13.06 | 74951 | 84931
7 | 18:52.32 | 2:53.07 | 84932 | 97913
8 | 21:45.39 | 2:43.37 | 97914 | 110175
9 | 24:29.01 | 4:30.31 | 110176 | 130456
10 | 28:59.32 | 2:42.04 | 130457 | 142610
11 | 31:41.36 | 3:21.08 | 142611 | 157693
12 | 35:02.44 | 4:02.06 | 157694 | 175849
13 | 39:04.50 | 2:42.23 | 175850 | 188022
14 | 41:46.73 | 2:52.45 | 188023 | 200967
15 | 44:39.43 | 2:28.73 | 200968 | 212140
16 | 47:08.41 | 4:13.19 | 212141 | 231134
17 | 51:21.60 | 4:20.31 | 231135 | 250665
18 | 55:42.16 | 3:16.36 | 250666 | 265401
19 | 58:58.52 | 3:05.02 | 265402 | 279278
20 | 62:03.54 | 2:35.50 | 279279 | 290953
21 | 64:39.29 | 4:22.29 | 290954 | 310632
22 | 69:01.58 | 3:48.30 | 310633 | 327762
23 | 72:50.13 | 6:50.09 | 327763 | 358521


Track 1

Filename C:\Rips\Various Artists - Sweet Dreams Where Country Meets Soul Vol. 2 (2013) [FLAC]\01 - The Sweet Inspirations - But You Know I Love You.wav

Pre-gap length 0:00:02.00

Peak level 96.1 %
Extraction speed 4.4 X
Track quality 100.0 %
Test CRC D573060B
Copy CRC D573060B
Accurately ripped (confidence 2) [D9728685] (AR v2)
Copy OK

Track 2

Filename C:\Rips\Various Artists - Sweet Dreams Where Country Meets Soul Vol. 2 (2013) [FLAC]\02 - William Bell - Please Help Me, I'm Falling.wav

Pre-gap length 0:00:01.04

Peak level 96.1 %
Extraction speed 3.4 X
Track quality 99.9 %
Test CRC CCA6C019
Copy CRC CCA6C019
Accurately ripped (confidence 2) [CAB833C5] (AR v2)
Copy OK

Track 3

Filename C:\Rips\Various Artists - Sweet Dreams Where Country Meets Soul Vol. 2 (2013) [FLAC]\03 - Clarence Carter - Bad News.wav

Pre-gap length 0:00:01.01

Peak level 96.1 %
Extraction speed 5.0 X
Track quality 100.0 %
Test CRC 61EECA4F
Copy CRC 61EECA4F
Accurately ripped (confidence 2) [BB91E7F3] (AR v2)
Copy OK

Track 4

Filename C:\Rips\Various Artists - Sweet Dreams Where Country Meets Soul Vol. 2 (2013) [FLAC]\04 - Hank Ballard - Sunday Morning Comin' Down.wav

Pre-gap length 0:00:00.70

Peak level 96.1 %
Extraction speed 5.8 X
Track quality 100.0 %
Test CRC 22989C70
Copy CRC 22989C70
Accurately ripped (confidence 2) [619311AD] (AR v2)
Copy OK

Track 5

Filename C:\Rips\Various Artists - Sweet Dreams Where Country Meets Soul Vol. 2 (2013) [FLAC]\05 - The Facts Of Life - Sometimes.wav

Pre-gap length 0:00:00.48

Peak level 96.1 %
Extraction speed 4.7 X
Track quality 99.9 %
Test CRC 3E8B224A
Copy CRC 3E8B224A
Accurately ripped (confidence 2) [EB862391] (AR v2)
Copy OK

Track 6

Filename C:\Rips\Various Artists - Sweet Dreams Where Country Meets Soul Vol. 2 (2013) [FLAC]\06 - Pat Lundy - Only Mama That'll Walk The Line.wav

Pre-gap length 0:00:00.50

Peak level 96.1 %
Extraction speed 5.6 X
Track quality 100.0 %
Test CRC 459D3A66
Copy CRC 459D3A66
Accurately ripped (confidence 2) [CE731656] (AR v2)
Copy OK

Track 7

Filename C:\Rips\Various Artists - Sweet Dreams Where Country Meets Soul Vol. 2 (2013) [FLAC]\07 - Otis Redding - Tennessee Waltz.wav

Pre-gap length 0:00:00.60

Peak level 96.1 %
Extraction speed 6.0 X
Track quality 100.0 %
Test CRC 21B9616F
Copy CRC 21B9616F
Accurately ripped (confidence 2) [F9F81848] (AR v2)
Copy OK

Track 8

Filename C:\Rips\Various Artists - Sweet Dreams Where Country Meets Soul Vol. 2 (2013) [FLAC]\08 - Bobby Hebb - A Satisfied Mind.wav

Pre-gap length 0:00:00.44

Peak level 96.1 %
Extraction speed 6.2 X
Track quality 100.0 %
Test CRC 56861F84
Copy CRC 56861F84
Accurately ripped (confidence 2) [8A1C5A25] (AR v2)
Copy OK

Track 9

Filename C:\Rips\Various Artists - Sweet Dreams Where Country Meets Soul Vol. 2 (2013) [FLAC]\09 - Ralph Lamar - Don't Let Me Cross Over.wav

Pre-gap length 0:00:01.04

Peak level 96.1 %
Extraction speed 7.0 X
Track quality 100.0 %
Test CRC 3F00CFEE
Copy CRC 3F00CFEE
Accurately ripped (confidence 2) [35D41012] (AR v2)
Copy OK

Track 10

Filename C:\Rips\Various Artists - Sweet Dreams Where Country Meets Soul Vol. 2 (2013) [FLAC]\10 - Joe Simon - Help Me Make It Through The Night.wav

Pre-gap length 0:00:01.03

Peak level 96.1 %
Extraction speed 6.7 X
Track quality 100.0 %
Test CRC 0E46BCA5
Copy CRC 0E46BCA5
Accurately ripped (confidence 2) [24FEF686] (AR v2)
Copy OK

Track 11

Filename C:\Rips\Various Artists - Sweet Dreams Where Country Meets Soul Vol. 2 (2013) [FLAC]\11 - Ted Taylor - I'll Release You.wav

Pre-gap length 0:00:00.57

Peak level 96.1 %
Extraction speed 7.1 X
Track quality 100.0 %
Test CRC F6CA8477
Copy CRC F6CA8477
Accurately ripped (confidence 2) [C421D36D] (AR v2)
Copy OK

Track 12

Filename C:\Rips\Various Artists - Sweet Dreams Where Country Meets Soul Vol. 2 (2013) [FLAC]\12 - Millie Jackson - Sweet Music Man.wav

Pre-gap length 0:00:00.64

Peak level 96.1 %
Extraction speed 7.5 X
Track quality 100.0 %
Test CRC 0A7D673C
Copy CRC 0A7D673C
Accurately ripped (confidence 2) [F0487BC3] (AR v2)
Copy OK

Track 13

Filename C:\Rips\Various Artists - Sweet Dreams Where Country Meets Soul Vol. 2 (2013) [FLAC]\13 - James Carr - Tell Me My Lying Eyes Are Wrong.wav

Pre-gap length 0:00:00.50

Peak level 96.1 %
Extraction speed 5.4 X
Track quality 99.9 %
Test CRC F772E6C0
Copy CRC F772E6C0
Accurately ripped (confidence 2) [12912076] (AR v2)
Copy OK

Track 14

Filename C:\Rips\Various Artists - Sweet Dreams Where Country Meets Soul Vol. 2 (2013) [FLAC]\14 - Bettye Swann - Don't You Ever Get Tired (Of Hurting Me).wav

Pre-gap length 0:00:00.32

Peak level 96.1 %
Extraction speed 7.5 X
Track quality 100.0 %
Test CRC BD3DFE0C
Copy CRC BD3DFE0C
Accurately ripped (confidence 2) [6A2FFEA9] (AR v2)
Copy OK

Track 15

Filename C:\Rips\Various Artists - Sweet Dreams Where Country Meets Soul Vol. 2 (2013) [FLAC]\15 - Johnnie Taylor - Sixteen Tons.wav

Pre-gap length 0:00:01.26

Peak level 96.1 %
Extraction speed 7.4 X
Track quality 100.0 %
Test CRC E1966370
Copy CRC E1966370
Accurately ripped (confidence 2) [8CE48624] (AR v2)
Copy OK

Track 16

Filename C:\Rips\Various Artists - Sweet Dreams Where Country Meets Soul Vol. 2 (2013) [FLAC]\16 - Bobby Bland - I Hate You.wav

Pre-gap length 0:00:00.60

Peak level 96.1 %
Extraction speed 8.2 X
Track quality 100.0 %
Test CRC 396F05FE
Copy CRC 396F05FE
Accurately ripped (confidence 2) [830A71A8] (AR v2)
Copy OK

Track 17

Filename C:\Rips\Various Artists - Sweet Dreams Where Country Meets Soul Vol. 2 (2013) [FLAC]\17 - David Ruffin - Statue Of A Fool.wav

Pre-gap length 0:00:01.13

Peak level 96.1 %
Extraction speed 8.6 X
Track quality 100.0 %
Test CRC BAA56590
Copy CRC BAA56590
Accurately ripped (confidence 2) [924720AC] (AR v2)
Copy OK

Track 18

Filename C:\Rips\Various Artists - Sweet Dreams Where Country Meets Soul Vol. 2 (2013) [FLAC]\18 - Esther Phillips - Sweet Dreams.wav

Pre-gap length 0:00:01.29

Peak level 96.1 %
Extraction speed 8.3 X
Track quality 100.0 %
Test CRC 8219C291
Copy CRC 8219C291
Accurately ripped (confidence 2) [C05786A6] (AR v2)
Copy OK

Track 19

Filename C:\Rips\Various Artists - Sweet Dreams Where Country Meets Soul Vol. 2 (2013) [FLAC]\19 - Eddie James - All I Have To Offer You (Is Me).wav

Pre-gap length 0:00:01.00

Peak level 96.1 %
Extraction speed 8.5 X
Track quality 100.0 %
Test CRC 1B728748
Copy CRC 1B728748
Accurately ripped (confidence 2) [F3C51A1A] (AR v2)
Copy OK

Track 20

Filename C:\Rips\Various Artists - Sweet Dreams Where Country Meets Soul Vol. 2 (2013) [FLAC]\20 - Etta James - When I Stop Dreaming.wav

Pre-gap length 0:00:00.28

Peak level 96.1 %
Extraction speed 6.0 X
Track quality 99.9 %
Test CRC 2CF6FC94
Copy CRC 2CF6FC94
Accurately ripped (confidence 2) [5C0796EC] (AR v2)
Copy OK

Track 21

Filename C:\Rips\Various Artists - Sweet Dreams Where Country Meets Soul Vol. 2 (2013) [FLAC]\21 - Isaac Hayes - I Can't Help It (If I'm Still In Love With You).wav

Pre-gap length 0:00:00.56

Peak level 96.1 %
Extraction speed 9.2 X
Track quality 100.0 %
Test CRC D86B2FA9
Copy CRC D86B2FA9
Accurately ripped (confidence 2) [5C97347E] (AR v2)
Copy OK

Track 22

Filename C:\Rips\Various Artists - Sweet Dreams Where Country Meets Soul Vol. 2 (2013) [FLAC]\22 - Dorothy Moore - Funny How Time Slips Away.wav

Pre-gap length 0:00:00.31

Peak level 96.1 %
Extraction speed 7.2 X
Track quality 99.9 %
Test CRC 226DBFAF
Copy CRC 226DBFAF
Accurately ripped (confidence 2) [1D07C8C9] (AR v2)
Copy OK

Track 23

Filename C:\Rips\Various Artists - Sweet Dreams Where Country Meets Soul Vol. 2 (2013) [FLAC]\23 - Orquestra Was feat. Sweet Pea Atkinson - Forever's A Long, Long Time.wav

Pre-gap length 0:00:01.27

Peak level 96.1 %
Extraction speed 10.0 X
Track quality 100.0 %
Test CRC 5403148F
Copy CRC 5403148F
Accurately ripped (confidence 2) [7648B98E] (AR v2)
Copy OK


All tracks accurately ripped

No errors occurred

End of status report

==== Log checksum 5EFBBF6C0CB7327DCB3990EC7233560808A7A75C4AE2E1AA952946BD9D895B14 ====


Various Artists - Sweet Dreams: Where Country Meets Soul Vol. 2 (2013) {Ace Records CDKEND 395}

Various Artists - Sweet Dreams: Where Country Meets Soul Vol. 2 (2013) {Ace Records CDKEND 395}


see more Soul Meets Country Series…


===