Subcategories
Tags
Language
Tags

Various Artists - Behind Closed Doors: Where Country Meets Soul, Vol. 1 (2012) {Ace Records CDKEND 375}

Posted By: ruskaval
Various Artists - Behind Closed Doors: Where Country Meets Soul, Vol. 1 (2012) {Ace Records CDKEND 375}

Various Artists - Behind Closed Doors: Where Country Meets Soul, Vol. 1 (2012) {Ace Records CDKEND 375}
EAC rip (secure mode) | FLAC (tracks) +CUE+LOG -> 416 Mb | MP3 @320 -> 181 Mb
Full Artwork @ 300 dpi (jpg) -> 31 Mb | 5% repair rar
© 2012 Ace Records / Kent Records | CDKEND 375
R&B / Country Soul / Soul / Southern Soul

It may open up with Aaron Neville's 1993 rendition of George Jones' classic "The Grand Tour," but Ace's 2012 compilation Behind Closed Doors: Where Country Meets Soul focuses on the golden age of country soul – the late '60s and early '70s, the age when the borders between these two strands of southern American music became decidedly blurring. And many of the 23 cuts on Behind Closed Doors are firmly within the Southern soul tradition – slow, smoky, gritty, and soulful, anchored by languid stride piano and buttressed by muscular horns.
Various Artists - Behind Closed Doors: Where Country Meets Soul, Vol. 1 (2012) {Ace Records CDKEND 375}

Most of the sides slide by at a slow tempo, rhythms that usually groove to a deep funk and occasionally are given a sweet, smooth soul veneer (the Limelites' "Before the Next Teardrop Falls") but often the proceedings are stately, the better to showcase the singer (Percy Sledge's "Take Time to Know Her," Tony Borders' "Gentle On My Mind," Solomon Burke's "He'll Have to Go," Brook Benton's "She Even Woke Me Up to Say Goodbye"). All this slowness means that the cuts that do pick up the tempo really stand out from the pack: Cookie Jackson's take on Tammy Wynette's "Your Good Girl's Gonna Go Bad" blazes, and Moses & Joshua Dillard's ebullient rendition of Wynette & David Houston's "My Elusive Dreams" is positively addictive. But even if there's not a whole lot of variety here, there are plenty of good cuts that capture country-soul at its best.
Various Artists - Behind Closed Doors: Where Country Meets Soul, Vol. 1 (2012) {Ace Records CDKEND 375}


Ace Records INFO

Personnel & tracklist:
01 - Aaron Neville - The Grand Tour
02 - Solomon Burke - He'll Have To Go
03 - Percy Sledge - Take Time To Know Her
04 - Esther Phillips - I Saw Me
05 - Moses And Joshua Dillard - My Elusive Dreams
06 - Ann Peebles - Hangin' On
07 - Bobby Sheen - My Shoes Keep Walking Back To You
08 - Tami Lynn - Wings Upon Your Horns
09 - The Limelites - Before The Next Teardrop Falls
10 - Al Green - I'm So Lonesome I Could Cry
11 - James Carr - Life Turned Her That Way
12 - Candi Staton - He Called Me Baby
13 - Z.Z Hill - The Chokin' Kind
14 - Joe Simon - Yours, Love
15 - Cookie Jackson - Your Good Girl's Gonna Go Bad
16 - Arthur Alexander - Detroit City
17 - Tony Borders - Gentle On My Mind
18 - Bettye Swann - Don't Touch Me
19 - Clarence Carter - Set Me Free
20 - Little Milton - Behind Closed Doors
21 - Millie Jackson - If You're Not Back In Love By Monday
22 - Joe Tex - Skip A Rope
23 - Brook Benton - She Even Woke Me Up To Say Goodbye

Exact Audio Copy V1.0 beta 3 from 29. August 2011

EAC extraction logfile from 20. July 2012, 20:26

Various Artists / Behind Closed Doors: Where Country Meets Soul

Used drive : BENQ DVD DC DW1670 Adapter: 1 ID: 0

Read mode : Secure
Utilize accurate stream : Yes
Defeat audio cache : Yes
Make use of C2 pointers : No

Read offset correction : 102
Overread into Lead-In and Lead-Out : No
Fill up missing offset samples with silence : Yes
Delete leading and trailing silent blocks : No
Null samples used in CRC calculations : Yes
Used interface : Installed external ASPI interface
Gap handling : Appended to previous track

Used output format : User Defined Encoder
Selected bitrate : 256 kBit/s
Quality : High
Add ID3 tag : No
Command line compressor : C:\Program\Exact Audio Copy\Flac\flac.exe
Additional command line options : -8 -V -T "ARTIST=%artist%" -T "TITLE=%title%" -T "ALBUM=%albumtitle%" -T "DATE=%year%" -T "TRACKNUMBER=%tracknr%" -T "TOTALTRACKS=%numtracks%" -T "GENRE=%genre%" -T "ALBUMARTIST=%albumartist%" -T "ALBUM ARTIST=%albumartist%" -T "COMMENT=EAC Secure Mode, Test & Copy, AccurateRip, FLAC -8" %source%


TOC of the extracted CD

Track | Start | Length | Start sector | End sector
––––––––––––––––––––––––––––-
1 | 0:00.00 | 3:18.45 | 0 | 14894
2 | 3:18.45 | 3:20.49 | 14895 | 29943
3 | 6:39.19 | 2:55.05 | 29944 | 43073
4 | 9:34.24 | 3:14.06 | 43074 | 57629
5 | 12:48.30 | 2:19.19 | 57630 | 68073
6 | 15:07.49 | 2:43.27 | 68074 | 80325
7 | 17:51.01 | 3:16.35 | 80326 | 95060
8 | 21:07.36 | 5:55.35 | 95061 | 121720
9 | 27:02.71 | 3:27.65 | 121721 | 137310
10 | 30:30.61 | 3:12.24 | 137311 | 151734
11 | 33:43.10 | 2:39.28 | 151735 | 163687
12 | 36:22.38 | 3:32.33 | 163688 | 179620
13 | 39:54.71 | 3:10.08 | 179621 | 193878
14 | 43:05.04 | 3:01.71 | 193879 | 207524
15 | 46:07.00 | 2:45.70 | 207525 | 219969
16 | 48:52.70 | 3:08.41 | 219970 | 234110
17 | 52:01.36 | 4:06.55 | 234111 | 252615
18 | 56:08.16 | 2:34.26 | 252616 | 264191
19 | 58:42.42 | 3:05.38 | 264192 | 278104
20 | 61:48.05 | 4:00.22 | 278105 | 296126
21 | 65:48.27 | 4:55.22 | 296127 | 318273
22 | 70:43.49 | 2:46.14 | 318274 | 330737
23 | 73:29.63 | 3:28.66 | 330738 | 346403


Track 1

Filename C:\Rips\Various Artists - Behind Closed Doors Where Country Meets Soul (2012) [FLAC]\01 - Aaron Neville - The Grand Tour.wav

Pre-gap length 0:00:02.00

Peak level 84.6 %
Extraction speed 4.5 X
Track quality 100.0 %
Test CRC 684EFAC7
Copy CRC 684EFAC7
Track not present in AccurateRip database
Copy OK

Track 2

Filename C:\Rips\Various Artists - Behind Closed Doors Where Country Meets Soul (2012) [FLAC]\02 - Solomon Burke - He'll Have To Go.wav

Pre-gap length 0:00:01.70

Peak level 84.5 %
Extraction speed 4.9 X
Track quality 100.0 %
Test CRC 8ACA23F5
Copy CRC 8ACA23F5
Track not present in AccurateRip database
Copy OK

Track 3

Filename C:\Rips\Various Artists - Behind Closed Doors Where Country Meets Soul (2012) [FLAC]\03 - Percy Sledge - Take Time To Know Her.wav

Pre-gap length 0:00:01.62

Peak level 91.3 %
Extraction speed 4.8 X
Track quality 100.0 %
Test CRC 86BB68F7
Copy CRC 86BB68F7
Track not present in AccurateRip database
Copy OK

Track 4

Filename C:\Rips\Various Artists - Behind Closed Doors Where Country Meets Soul (2012) [FLAC]\04 - Esther Phillips - I Saw Me.wav

Pre-gap length 0:00:01.46

Peak level 81.4 %
Extraction speed 5.0 X
Track quality 100.0 %
Test CRC 8176D15D
Copy CRC 8176D15D
Track not present in AccurateRip database
Copy OK

Track 5

Filename C:\Rips\Various Artists - Behind Closed Doors Where Country Meets Soul (2012) [FLAC]\05 - Moses And Joshua Dillard - My Elusive Dreams.wav

Pre-gap length 0:00:03.06

Peak level 88.4 %
Extraction speed 5.1 X
Track quality 100.0 %
Test CRC B776193D
Copy CRC B776193D
Track not present in AccurateRip database
Copy OK

Track 6

Filename C:\Rips\Various Artists - Behind Closed Doors Where Country Meets Soul (2012) [FLAC]\06 - Ann Peebles - Hangin' On.wav

Pre-gap length 0:00:02.28

Peak level 96.1 %
Extraction speed 3.6 X
Track quality 99.9 %
Test CRC 84678FD1
Copy CRC 84678FD1
Track not present in AccurateRip database
Copy OK

Track 7

Filename C:\Rips\Various Artists - Behind Closed Doors Where Country Meets Soul (2012) [FLAC]\07 - Bobby Sheen - My Shoes Keep Walking Back To You.wav

Pre-gap length 0:00:02.45

Peak level 89.9 %
Extraction speed 6.2 X
Track quality 100.0 %
Test CRC 3B0E2A8C
Copy CRC 3B0E2A8C
Track not present in AccurateRip database
Copy OK

Track 8

Filename C:\Rips\Various Artists - Behind Closed Doors Where Country Meets Soul (2012) [FLAC]\08 - Tami Lynn - Wings Upon Your Horns.wav

Pre-gap length 0:00:03.14

Peak level 79.6 %
Extraction speed 7.1 X
Track quality 100.0 %
Test CRC 1DA11D1C
Copy CRC 1DA11D1C
Track not present in AccurateRip database
Copy OK

Track 9

Filename C:\Rips\Various Artists - Behind Closed Doors Where Country Meets Soul (2012) [FLAC]\09 - The Limelites - Before The Next Teardrop Falls.wav

Pre-gap length 0:00:02.35

Peak level 91.4 %
Extraction speed 6.9 X
Track quality 100.0 %
Test CRC A19BC5C9
Copy CRC A19BC5C9
Track not present in AccurateRip database
Copy OK

Track 10

Filename C:\Rips\Various Artists - Behind Closed Doors Where Country Meets Soul (2012) [FLAC]\10 - Al Green - I'm So Lonesome I Could Cry.wav

Pre-gap length 0:00:02.54

Peak level 88.5 %
Extraction speed 7.1 X
Track quality 100.0 %
Test CRC 8AA49AF0
Copy CRC 8AA49AF0
Track not present in AccurateRip database
Copy OK

Track 11

Filename C:\Rips\Various Artists - Behind Closed Doors Where Country Meets Soul (2012) [FLAC]\11 - James Carr - Life Turned Her That Way.wav

Pre-gap length 0:00:02.57

Peak level 81.7 %
Extraction speed 4.5 X
Track quality 99.9 %
Test CRC A9EC54FD
Copy CRC A9EC54FD
Track not present in AccurateRip database
Copy OK

Track 12

Filename C:\Rips\Various Artists - Behind Closed Doors Where Country Meets Soul (2012) [FLAC]\12 - Candi Staton - He Called Me Baby.wav

Pre-gap length 0:00:03.69

Peak level 96.2 %
Extraction speed 7.6 X
Track quality 100.0 %
Test CRC 194D027B
Copy CRC 194D027B
Track not present in AccurateRip database
Copy OK

Track 13

Filename C:\Rips\Various Artists - Behind Closed Doors Where Country Meets Soul (2012) [FLAC]\13 - Z.Z Hill - The Chokin' Kind.wav

Pre-gap length 0:00:02.36

Peak level 96.2 %
Extraction speed 7.7 X
Track quality 100.0 %
Test CRC 17ED5DFC
Copy CRC 17ED5DFC
Track not present in AccurateRip database
Copy OK

Track 14

Filename C:\Rips\Various Artists - Behind Closed Doors Where Country Meets Soul (2012) [FLAC]\14 - Joe Simon - Yours, Love.wav

Pre-gap length 0:00:02.26

Peak level 87.4 %
Extraction speed 5.2 X
Track quality 99.9 %
Test CRC 93BF2F23
Copy CRC 93BF2F23
Track not present in AccurateRip database
Copy OK

Track 15

Filename C:\Rips\Various Artists - Behind Closed Doors Where Country Meets Soul (2012) [FLAC]\15 - Cookie Jackson - Your Good Girl's Gonna Go Bad.wav

Pre-gap length 0:00:02.34

Peak level 96.1 %
Extraction speed 7.2 X
Track quality 100.0 %
Test CRC EBB14500
Copy CRC EBB14500
Track not present in AccurateRip database
Copy OK

Track 16

Filename C:\Rips\Various Artists - Behind Closed Doors Where Country Meets Soul (2012) [FLAC]\16 - Arthur Alexander - Detroit City.wav

Pre-gap length 0:00:03.11

Peak level 94.5 %
Extraction speed 5.5 X
Track quality 99.9 %
Test CRC 6AC6AD69
Copy CRC 6AC6AD69
Track not present in AccurateRip database
Copy OK

Track 17

Filename C:\Rips\Various Artists - Behind Closed Doors Where Country Meets Soul (2012) [FLAC]\17 - Tony Borders - Gentle On My Mind.wav

Pre-gap length 0:00:02.72

Peak level 93.4 %
Extraction speed 6.9 X
Track quality 100.0 %
Test CRC F68322CE
Copy CRC F68322CE
Track not present in AccurateRip database
Copy OK

Track 18

Filename C:\Rips\Various Artists - Behind Closed Doors Where Country Meets Soul (2012) [FLAC]\18 - Bettye Swann - Don't Touch Me.wav

Pre-gap length 0:00:02.65

Peak level 96.2 %
Extraction speed 4.9 X
Track quality 99.9 %
Test CRC B17D7590
Copy CRC B17D7590
Track not present in AccurateRip database
Copy OK

Track 19

Filename C:\Rips\Various Artists - Behind Closed Doors Where Country Meets Soul (2012) [FLAC]\19 - Clarence Carter - Set Me Free.wav

Pre-gap length 0:00:02.09

Peak level 96.2 %
Extraction speed 7.6 X
Track quality 100.0 %
Test CRC 2060417A
Copy CRC 2060417A
Track not present in AccurateRip database
Copy OK

Track 20

Filename C:\Rips\Various Artists - Behind Closed Doors Where Country Meets Soul (2012) [FLAC]\20 - Little Milton - Behind Closed Doors.wav

Pre-gap length 0:00:02.12

Peak level 90.8 %
Extraction speed 9.1 X
Track quality 100.0 %
Test CRC 0742FF68
Copy CRC 0742FF68
Track not present in AccurateRip database
Copy OK

Track 21

Filename C:\Rips\Various Artists - Behind Closed Doors Where Country Meets Soul (2012) [FLAC]\21 - Millie Jackson - If You're Not Back In Love By Monday.wav

Pre-gap length 0:00:02.30

Peak level 96.1 %
Extraction speed 9.6 X
Track quality 100.0 %
Test CRC 3FB0160F
Copy CRC 3FB0160F
Track not present in AccurateRip database
Copy OK

Track 22

Filename C:\Rips\Various Artists - Behind Closed Doors Where Country Meets Soul (2012) [FLAC]\22 - Joe Tex - Skip A Rope.wav

Pre-gap length 0:00:03.20

Peak level 96.1 %
Extraction speed 9.0 X
Track quality 100.0 %
Test CRC C0971ECA
Copy CRC C0971ECA
Track not present in AccurateRip database
Copy OK

Track 23

Filename C:\Rips\Various Artists - Behind Closed Doors Where Country Meets Soul (2012) [FLAC]\23 - Brook Benton - She Even Woke Me Up To Say Goodbye.wav

Pre-gap length 0:00:03.19

Peak level 91.1 %
Extraction speed 9.0 X
Track quality 100.0 %
Test CRC FB5D7E2A
Copy CRC FB5D7E2A
Track not present in AccurateRip database
Copy OK


None of the tracks are present in the AccurateRip database

No errors occurred

End of status report

==== Log checksum 605A80494F182D7B90D5AE3A9A26FFF9D720DABA4BFB1A3D40FFF17021D782D3 ====


Various Artists - Behind Closed Doors: Where Country Meets Soul, Vol. 1 (2012) {Ace Records CDKEND 375}

Various Artists - Behind Closed Doors: Where Country Meets Soul, Vol. 1 (2012) {Ace Records CDKEND 375}


NEXT -> more Where Country Meets Soul Series on the way…


===