Tags
Language
Tags
October 2022
Su Mo Tu We Th Fr Sa
25 26 27 28 29 30 1
2 3 4 5 6 7 8
9 10 11 12 13 14 15
16 17 18 19 20 21 22
23 24 25 26 27 28 29
30 31 1 2 3 4 5

Tomahawk - Tonic Immobility (2021)

Posted By: delpotro
Tomahawk - Tonic Immobility (2021)

Tomahawk - Tonic Immobility (2021)
EAC Rip | FLAC (tracks+log+.cue) | 00:39:22 | 264 Mb
Experimental Rock | Label: Ipecac Recordings

Tomahawk is the rock supergroup featuring Mike Patton (Faith No More, Mr. Bungle), Duane Denison (The Jesus Lizard), John Stanier (Battles, Helmet) and Trevor Dunn (Mr. Bungle). Tonic Immobility is the band’s first new album since 2013 and their fifth in their career. The band is Mike Patton’s third biggest project behind the multi-platinum Faith No More and Mr. Bungle, with a sound that appeals to the more mainstream Faith No More fans, and over 300,000 sales worldwide.
Tracklist:
1. SHHH! (03:14)
2. Valentine Shine (03:01)
3. Predators and Scavengers (02:58)
4. Doomsday Fatigue (03:30)
5. Business Casual (03:29)
6. Tattoo Zero (03:19)
7. Fatback (03:14)
8. Howlie (04:08)
9. Eureka (02:03)
10. Sidewinder (03:54)
11. Recoil (03:27)
12. Dog Eat Dog (03:05)

Exact Audio Copy V1.6 from 23. October 2020

EAC extraction logfile from 30. March 2021, 17:50

Tomahawk / Tonic Immobility

Used drive : ASUS BW-16D1X-U Adapter: 1 ID: 0

Read mode : Secure
Utilize accurate stream : Yes
Defeat audio cache : Yes
Make use of C2 pointers : No

Read offset correction : 667
Overread into Lead-In and Lead-Out : No
Fill up missing offset samples with silence : Yes
Delete leading and trailing silent blocks : No
Null samples used in CRC calculations : Yes
Used interface : Native Win32 interface for Win NT & 2000
Gap handling : Appended to previous track

Used output format : User Defined Encoder
Selected bitrate : 1024 kBit/s
Quality : High
Add ID3 tag : No
Command line compressor : C:\Program Files (x86)\Exact Audio Copy\FLAC\FLAC.EXE
Additional command line options : -6 -V -T "ARTIST=%artist%" -T "TITLE=%title%" -T "ALBUM=%albumtitle%" -T "DATE=%year%" -T "TRACKNUMBER=%tracknr%" -T "GENRE=%genre%" -T "COMMENT=%comment%" -T "BAND=%albuminterpret%" -T "ALBUMARTIST=%albuminterpret%" -T "COMPOSER=%composer%" %haslyrics%–tag-from-file=LYRICS="%lyricsfile%"%haslyrics% -T "DISCNUMBER=%cdnumber%" -T "TOTALDISCS=%totalcds%" -T "TOTALTRACKS=%numtracks%" %hascover%–picture="%coverfile%"%hascover% %source% -o %dest%


TOC of the extracted CD

Track | Start | Length | Start sector | End sector
––––––––––––––––––––––––––––-
1 | 0:00.00 | 3:14.19 | 0 | 14568
2 | 3:14.19 | 3:01.18 | 14569 | 28161
3 | 6:15.37 | 2:57.43 | 28162 | 41479
4 | 9:13.05 | 3:29.39 | 41480 | 57193
5 | 12:42.44 | 3:29.32 | 57194 | 72900
6 | 16:12.01 | 3:18.40 | 72901 | 87790
7 | 19:30.41 | 3:13.71 | 87791 | 102336
8 | 22:44.37 | 4:08.16 | 102337 | 120952
9 | 26:52.53 | 2:03.18 | 120953 | 130195
10 | 28:55.71 | 3:54.33 | 130196 | 147778
11 | 32:50.29 | 3:27.33 | 147779 | 163336
12 | 36:17.62 | 3:05.04 | 163337 | 177215


Track 1

Filename G:\My Storage\Music\New Lossless Rips\Alternative\Tomahawk - Tonic Immobility (2021) [FLAC]\01 - SHHH!.wav

Pre-gap length 0:00:02.00

Peak level 94.5 %
Extraction speed 4.2 X
Track quality 100.0 %
Test CRC 5E449A45
Copy CRC 5E449A45
Track not present in AccurateRip database
Copy OK

Track 2

Filename G:\My Storage\Music\New Lossless Rips\Alternative\Tomahawk - Tonic Immobility (2021) [FLAC]\02 - Valentine Shine.wav

Peak level 94.5 %
Extraction speed 3.9 X
Track quality 99.9 %
Test CRC 2D508E8A
Copy CRC 2D508E8A
Track not present in AccurateRip database
Copy OK

Track 3

Filename G:\My Storage\Music\New Lossless Rips\Alternative\Tomahawk - Tonic Immobility (2021) [FLAC]\03 - Predators and Scavengers.wav

Peak level 94.6 %
Extraction speed 4.8 X
Track quality 100.0 %
Test CRC 63C14A39
Copy CRC 63C14A39
Track not present in AccurateRip database
Copy OK

Track 4

Filename G:\My Storage\Music\New Lossless Rips\Alternative\Tomahawk - Tonic Immobility (2021) [FLAC]\04 - Doomsday Fatigue.wav

Peak level 94.5 %
Extraction speed 5.2 X
Track quality 100.0 %
Test CRC 1BC287FB
Copy CRC 1BC287FB
Track not present in AccurateRip database
Copy OK

Track 5

Filename G:\My Storage\Music\New Lossless Rips\Alternative\Tomahawk - Tonic Immobility (2021) [FLAC]\05 - Business Casual.wav

Peak level 94.7 %
Extraction speed 5.6 X
Track quality 100.0 %
Test CRC 9044B842
Copy CRC 9044B842
Track not present in AccurateRip database
Copy OK

Track 6

Filename G:\My Storage\Music\New Lossless Rips\Alternative\Tomahawk - Tonic Immobility (2021) [FLAC]\06 - Tattoo Zero.wav

Peak level 94.5 %
Extraction speed 5.1 X
Track quality 99.9 %
Test CRC F7D0158E
Copy CRC F7D0158E
Track not present in AccurateRip database
Copy OK

Track 7

Filename G:\My Storage\Music\New Lossless Rips\Alternative\Tomahawk - Tonic Immobility (2021) [FLAC]\07 - Fatback.wav

Peak level 94.5 %
Extraction speed 6.1 X
Track quality 100.0 %
Test CRC CDF7714F
Copy CRC CDF7714F
Track not present in AccurateRip database
Copy OK

Track 8

Filename G:\My Storage\Music\New Lossless Rips\Alternative\Tomahawk - Tonic Immobility (2021) [FLAC]\08 - Howlie.wav

Peak level 94.8 %
Extraction speed 6.5 X
Track quality 100.0 %
Test CRC DCCFA199
Copy CRC DCCFA199
Track not present in AccurateRip database
Copy OK

Track 9

Filename G:\My Storage\Music\New Lossless Rips\Alternative\Tomahawk - Tonic Immobility (2021) [FLAC]\09 - Eureka.wav

Peak level 94.3 %
Extraction speed 6.0 X
Track quality 100.0 %
Test CRC EC888217
Copy CRC EC888217
Track not present in AccurateRip database
Copy OK

Track 10

Filename G:\My Storage\Music\New Lossless Rips\Alternative\Tomahawk - Tonic Immobility (2021) [FLAC]\10 - Sidewinder.wav

Peak level 94.5 %
Extraction speed 6.9 X
Track quality 100.0 %
Test CRC F49CD5C4
Copy CRC F49CD5C4
Track not present in AccurateRip database
Copy OK

Track 11

Filename G:\My Storage\Music\New Lossless Rips\Alternative\Tomahawk - Tonic Immobility (2021) [FLAC]\11 - Recoil.wav

Peak level 94.4 %
Extraction speed 7.0 X
Track quality 100.0 %
Test CRC D85C7DF1
Copy CRC D85C7DF1
Track not present in AccurateRip database
Copy OK

Track 12

Filename G:\My Storage\Music\New Lossless Rips\Alternative\Tomahawk - Tonic Immobility (2021) [FLAC]\12 - Dog Eat Dog.wav

Peak level 94.5 %
Extraction speed 7.1 X
Track quality 100.0 %
Test CRC 93B4E8C3
Copy CRC 93B4E8C3
Track not present in AccurateRip database
Copy OK


None of the tracks are present in the AccurateRip database

No errors occurred

End of status report

–– CUETools DB Plugin V2.1.6

[CTDB TOCID: nEMiQqirBuU91UP7.sL1UYTd4No-] found
Submit result: nEMiQqirBuU91UP7.sL1UYTd4No- has been confirmed
Track | CTDB Status
1 | (9/9) Accurately ripped
2 | (9/9) Accurately ripped
3 | (9/9) Accurately ripped
4 | (9/9) Accurately ripped
5 | (9/9) Accurately ripped
6 | (9/9) Accurately ripped
7 | (9/9) Accurately ripped
8 | (9/9) Accurately ripped
9 | (9/9) Accurately ripped
10 | (9/9) Accurately ripped
11 | (9/9) Accurately ripped
12 | (9/9) Accurately ripped


==== Log checksum FB4970B3E8F999E6BD3543368EA5534D1B28C35AE291C068E5A5A958AB9FDEFF ====

Thanks to the Original ripper !