Subcategories

Steve Jansen & Richard Barbieri - Lumen (2016) {Kscope321 rec 1996}

Posted By: ruskaval
Steve Jansen & Richard Barbieri - Lumen (2016) {Kscope321 rec 1996}

Steve Jansen & Richard Barbieri - Lumen (2016) {Kscope321 rec 1996}
EAC rip (secure mode) | FLAC (tracks)+CUE+LOG -> 238 Mb | MP3 @320 -> 99 Mb
Full Artwork @ 600 dpi (png) -> 242 Mb | 5% repair rar
© 1996, 2015, 2016 Kscope / Steve Jansen & Richard Barbieri | Kscope321
Experimental / Experimental Electronic / Avant-Garde / Ambient / Alternative

A Kscope label CD release of Lumen, a recording of the solitary Steve Jansen/Richard Barbieri concert from 1st November 1996.

Performing songs from the duo's Stone To Flesh, Stories Across Borders and Beginning To Melt albums, the show was recorded at the Milky Way as part of the famous Dutch Magazine OOR's 25th anniversary celebrations. Jansen and Barbieri were joined on stage by Mick Karn and Steven Wilson.

Although the concert wasn't intentionally recorded for release, after hearing back the direct line stereo mix, Jansen and Barbieri decided it contained elements that brought the studio versions to life in a unique way. There were no options to alter anything from the 1996 mix, but pleased with the recording, the duo released it as a limited edition run of 500 cassettes in the late 1990s.

All that is heard on Lumen is what happened on the night, warts and all. Lumen is, in every sense, a true live album.

The bonus track Crossing The Border was recorded during the Stories Across Borders sessions. The track was rediscovered earlier this year as a rough mix and has been sonically embellished by Steve Jansen.

CD in digipak sleeve featuring cover artwork designed by Carl Glover.
Steve Jansen & Richard Barbieri - Lumen (2016) {Kscope321 rec 1996}


Personnel:
Steve Jansen - drums, percussion, synthesisers
Richard Barbieri - keyboards, synthesisers
Mick Karn - bass guitar, saxophone
Steven Wilson - electric guitar

tracklist:
01 - Sleepers Awake
02 - When Things Dream
03 - Lumen
04 - The Night Gives Birth
05 - Long Tales, Tall Shadows
06 - Beginning To Melt
07 - Crosssing The Border

Exact Audio Copy V1.1 from 23. June 2015

EAC extraction logfile from 25. May 2016, 21:52

Steve Jansen & Richard Barbieri / Lumen

Used drive : TSSTcorpCDDVDW SE-208DB Adapter: 1 ID: 0

Read mode : Secure
Utilize accurate stream : Yes
Defeat audio cache : Yes
Make use of C2 pointers : No

Read offset correction : 6
Overread into Lead-In and Lead-Out : No
Fill up missing offset samples with silence : Yes
Delete leading and trailing silent blocks : No
Null samples used in CRC calculations : Yes
Used interface : Native Win32 interface for Win NT & 2000
Gap handling : Appended to previous track

Used output format : User Defined Encoder
Selected bitrate : 1024 kBit/s
Quality : High
Add ID3 tag : No
Command line compressor : C:\Program Files (x86)\FLAC Frontend\tools\flac.exe
Additional command line options : -8 -V -T "ARTIST=%artist%" -T "TITLE=%title%" -T "ALBUM=%albumtitle%" -T "DATE=%year%" -T "TRACKNUMBER=%tracknr%" -T "TOTALTRACKS=%numtracks%" -T "GENRE=%genre%" -T "ALBUMARTIST=%albumartist%" -T "ALBUM ARTIST=%albumartist%" -T "COMMENT=EAC Secure Mode, Test & Copy, AccurateRip, FLAC -8" %source%


TOC of the extracted CD

Track | Start | Length | Start sector | End sector
––––––––––––––––––––––––––––-
1 | 0:00.00 | 8:08.11 | 0 | 36610
2 | 8:08.11 | 3:15.52 | 36611 | 51287
3 | 11:23.63 | 3:37.65 | 51288 | 67627
4 | 15:01.53 | 4:58.54 | 67628 | 90031
5 | 20:00.32 | 5:14.35 | 90032 | 113616
6 | 25:14.67 | 11:31.62 | 113617 | 165503
7 | 36:46.54 | 4:51.38 | 165504 | 187366


Track 1

Filename D:\_EAC\Steve Jansen & Richard Barbieri - Lumen (2016) [FLAC] {Kscope321 rec 1996}\01 - Sleepers Awake.wav

Pre-gap length 0:00:02.00

Peak level 91.1 %
Extraction speed 3.0 X
Track quality 100.0 %
Test CRC 48FF3285
Copy CRC 48FF3285
Accurately ripped (confidence 4) [787ECC20] (AR v2)
Copy OK

Track 2

Filename D:\_EAC\Steve Jansen & Richard Barbieri - Lumen (2016) [FLAC] {Kscope321 rec 1996}\02 - When Things Dream.wav

Peak level 64.5 %
Extraction speed 3.1 X
Track quality 100.0 %
Test CRC C3E2CA40
Copy CRC C3E2CA40
Accurately ripped (confidence 4) [003A72E8] (AR v2)
Copy OK

Track 3

Filename D:\_EAC\Steve Jansen & Richard Barbieri - Lumen (2016) [FLAC] {Kscope321 rec 1996}\03 - Lumen.wav

Peak level 91.1 %
Extraction speed 3.3 X
Track quality 100.0 %
Test CRC 69DE06EA
Copy CRC 69DE06EA
Accurately ripped (confidence 4) [F159F57C] (AR v2)
Copy OK

Track 4

Filename D:\_EAC\Steve Jansen & Richard Barbieri - Lumen (2016) [FLAC] {Kscope321 rec 1996}\04 - The Night Gives Birth.wav

Peak level 91.1 %
Extraction speed 3.7 X
Track quality 100.0 %
Test CRC BCF8F55E
Copy CRC BCF8F55E
Accurately ripped (confidence 4) [AD6BB535] (AR v2)
Copy OK

Track 5

Filename D:\_EAC\Steve Jansen & Richard Barbieri - Lumen (2016) [FLAC] {Kscope321 rec 1996}\05 - Long Tales, Tall Shadows.wav

Peak level 91.1 %
Extraction speed 4.0 X
Track quality 100.0 %
Test CRC AAC43897
Copy CRC AAC43897
Accurately ripped (confidence 4) [60CF8A0A] (AR v2)
Copy OK

Track 6

Filename D:\_EAC\Steve Jansen & Richard Barbieri - Lumen (2016) [FLAC] {Kscope321 rec 1996}\06 - Beginning To Melt.wav

Peak level 91.1 %
Extraction speed 4.7 X
Track quality 100.0 %
Test CRC 848FD92C
Copy CRC 848FD92C
Accurately ripped (confidence 4) [17725CCD] (AR v2)
Copy OK

Track 7

Filename D:\_EAC\Steve Jansen & Richard Barbieri - Lumen (2016) [FLAC] {Kscope321 rec 1996}\07 - Crosssing The Border.wav

Peak level 91.1 %
Extraction speed 3.9 X
Track quality 99.9 %
Test CRC 723A65B2
Copy CRC 723A65B2
Accurately ripped (confidence 4) [E21A3B08] (AR v2)
Copy OK


All tracks accurately ripped

No errors occurred

End of status report

==== Log checksum F5FC52A5B052B653A1C15F8FDD88C0552584CB4D4F9446CF4BEB09503EF7F7EB ====


Steve Jansen & Richard Barbieri - Lumen (2016) {Kscope321 rec 1996}

Steve Jansen & Richard Barbieri - Lumen (2016) {Kscope321 rec 1996}


see more Steve Jansen…


===