Subcategories
Tags
Language
Tags

Split Enz - Live, Alive Oh. (2017)

Posted By: delpotro
Split Enz - Live, Alive Oh. (2017)

Split Enz - Live, Alive Oh. (2017)
EAC Rip | FLAC (tracks+log+.cue) - 822 Mb | MP3 CBR 320 kbps - 302 Mb | Covers included | 02:04:04
New Wave, Pop Rock, Art Rock | Label: Liberation Music

Split Enz were always a phenomenal live act who truly shone when on stage. 'Live, Alive Oh' is a brand new 30 track compilation containing live versions of all of their biggest hits and most well known songs. Disc One, the first 17 tracks, is from their 20th Anniversary Tour of New Zealand in 1993, the tracks from which have been previously released. Disc Two contains 13 tracks from Auckland's Vector Arena from their farewell tour of NZ in 2008, none of which have ever been released. Lovingly compiled by Eddie Rayner, the concept was to create an updated and definitive live greatest hits collection by this most unique of bands.
Tracklist:
1. Shark Attack (Live) (03:15)
2. Poor Boy (Live) (03:29)
3. Message to My Girl (Live) (05:01)
4. Strait Ol' Line (Live) (07:56)
5. Haul Away (Live) (05:02)
6. I Got You (Live) (04:13)
7. Best Friend (Live) (03:16)
8. Years Go By (Live) (04:22)
9. Without a Doubt (Live) (05:40)
10. Hermit McDermitt (Live) (04:37)
11. True Colours (Live) (00:43)
12. What's the Matter With You? (Live) (03:28)
13. Charlie (Live) (05:49)
14. Split Ends (Live) (02:19)
15. Time for a Change (Live) (03:34)
16. I See Red (Live) (04:42)
17. Bold as Brass (Live) (04:38)
18. Give It a Whirl (Live) (03:07)
19. Dirty Creature (Live) (05:32)
20. One Step Ahead (Live) (03:03)
21. Nobody Takes Me Seriously (Live) (03:31)
22. Take a Walk (Live) (05:19)
23. Stuff and Nonsense (Live) (04:13)
24. Double Happy (Live) (04:29)
25. Devil You Know (Live) (03:49)
26. Pioneer (Live) (01:49)
27. Six Months in a Leaky Boat (Live) (05:27)
28. My Mistake (Live) (03:29)
29. Carried Away (Live) (04:03)
30. History Never Repeats (Live) (03:56)

Exact Audio Copy V1.0 beta 4 from 7. December 2014

EAC extraction logfile from 6. December 2017, 17:21

Split Enz / Live, Alive Oh. (Disc 1)

Used drive : TSSTcorpCDDVDW SH-222AB Adapter: 1 ID: 0

Read mode : Secure
Utilize accurate stream : Yes
Defeat audio cache : Yes
Make use of C2 pointers : No

Read offset correction : 6
Overread into Lead-In and Lead-Out : No
Fill up missing offset samples with silence : Yes
Delete leading and trailing silent blocks : No
Null samples used in CRC calculations : Yes
Used interface : Native Win32 interface for Win NT & 2000
Gap handling : Appended to previous track

Used output format : User Defined Encoder
Selected bitrate : 1024 kBit/s
Quality : High
Add ID3 tag : No
Command line compressor : C:\Program Files\Exact Audio Copy\Flac\flac.exe
Additional command line options : -8 -V -T "ARTIST=%artist%" -T "TITLE=%title%" -T "ALBUM=%albumtitle%" -T "DATE=%year%" -T "TRACKNUMBER=%tracknr%" -T "GENRE=%genre%" -T "PERFORMER=%albuminterpret%" -T "COMPOSER=%composer%" %haslyrics%–tag-from-file=LYRICS="%lyricsfile%"%haslyrics% -T "ALBUMARTIST=%albumartist%" -T "DISCNUMBER=%cdnumber%" -T "TOTALDISCS=%totalcds%" -T "TOTALTRACKS=%numtracks%" -T "COMMENT=EAC V1.0 beta 4, Secure Mode, Test & Copy, AccurateRip, FLAC -8" %source% -o %dest%


TOC of the extracted CD

Track | Start | Length | Start sector | End sector
––––––––––––––––––––––––––––-
1 | 0:00.00 | 3:15.19 | 0 | 14643
2 | 3:15.19 | 3:29.63 | 14644 | 30381
3 | 6:45.07 | 5:01.25 | 30382 | 52981
4 | 11:46.32 | 7:56.00 | 52982 | 88681
5 | 19:42.32 | 5:02.17 | 88682 | 111348
6 | 24:44.49 | 4:13.63 | 111349 | 130386
7 | 28:58.37 | 3:16.66 | 130387 | 145152
8 | 32:15.28 | 4:22.51 | 145153 | 164853
9 | 36:38.04 | 5:40.44 | 164854 | 190397
10 | 42:18.48 | 4:37.30 | 190398 | 211202
11 | 46:56.03 | 0:43.35 | 211203 | 214462
12 | 47:39.38 | 3:28.37 | 214463 | 230099
13 | 51:08.00 | 5:49.29 | 230100 | 256303
14 | 56:57.29 | 2:19.26 | 256304 | 266754
15 | 59:16.55 | 3:34.36 | 266755 | 282840
16 | 62:51.16 | 4:42.39 | 282841 | 304029
17 | 67:33.55 | 4:38.34 | 304030 | 324913


Track 1

Filename D:\Split Enz - Live, Alive Oh. (2017) [FLAC]\Disc 1 - 20th Anniversary Tour, New Zealand 1993\01 - Shark Attack.wav

Pre-gap length 0:00:02.00

Peak level 97.3 %
Extraction speed 4.7 X
Track quality 100.0 %
Test CRC 04AE9D09
Copy CRC 04AE9D09
Accurately ripped (confidence 4) [06878579] (AR v2)
Copy OK

Track 2

Filename D:\Split Enz - Live, Alive Oh. (2017) [FLAC]\Disc 1 - 20th Anniversary Tour, New Zealand 1993\02 - Poor Boy.wav

Peak level 97.2 %
Extraction speed 4.1 X
Track quality 99.9 %
Test CRC 3AA55D9B
Copy CRC 3AA55D9B
Accurately ripped (confidence 4) [7A095AE8] (AR v2)
Copy OK

Track 3

Filename D:\Split Enz - Live, Alive Oh. (2017) [FLAC]\Disc 1 - 20th Anniversary Tour, New Zealand 1993\03 - Message To My Girl.wav

Peak level 97.3 %
Extraction speed 5.9 X
Track quality 100.0 %
Test CRC 9268E837
Copy CRC 9268E837
Accurately ripped (confidence 4) [D72CB99B] (AR v2)
Copy OK

Track 4

Filename D:\Split Enz - Live, Alive Oh. (2017) [FLAC]\Disc 1 - 20th Anniversary Tour, New Zealand 1993\04 - Strait Ol' Line.wav

Peak level 97.2 %
Extraction speed 6.8 X
Track quality 100.0 %
Test CRC 43993C1D
Copy CRC 43993C1D
Accurately ripped (confidence 4) [BFAEC003] (AR v2)
Copy OK

Track 5

Filename D:\Split Enz - Live, Alive Oh. (2017) [FLAC]\Disc 1 - 20th Anniversary Tour, New Zealand 1993\05 - Haul Away.wav

Peak level 97.3 %
Extraction speed 7.1 X
Track quality 100.0 %
Test CRC F9B5E501
Copy CRC F9B5E501
Accurately ripped (confidence 4) [CC33D3EF] (AR v2)
Copy OK

Track 6

Filename D:\Split Enz - Live, Alive Oh. (2017) [FLAC]\Disc 1 - 20th Anniversary Tour, New Zealand 1993\06 - I Got You.wav

Peak level 97.2 %
Extraction speed 7.3 X
Track quality 100.0 %
Test CRC DEA3F0ED
Copy CRC DEA3F0ED
Accurately ripped (confidence 4) [44294608] (AR v2)
Copy OK

Track 7

Filename D:\Split Enz - Live, Alive Oh. (2017) [FLAC]\Disc 1 - 20th Anniversary Tour, New Zealand 1993\07 - Best Friend.wav

Peak level 97.0 %
Extraction speed 5.6 X
Track quality 99.9 %
Test CRC A91A864B
Copy CRC A91A864B
Accurately ripped (confidence 4) [7CB09D47] (AR v2)
Copy OK

Track 8

Filename D:\Split Enz - Live, Alive Oh. (2017) [FLAC]\Disc 1 - 20th Anniversary Tour, New Zealand 1993\08 - Years Go By.wav

Peak level 97.3 %
Extraction speed 7.9 X
Track quality 100.0 %
Test CRC 2F245226
Copy CRC 2F245226
Accurately ripped (confidence 3) [425A9D68] (AR v2)
Copy OK

Track 9

Filename D:\Split Enz - Live, Alive Oh. (2017) [FLAC]\Disc 1 - 20th Anniversary Tour, New Zealand 1993\09 - Without A Doubt.wav

Peak level 97.3 %
Extraction speed 7.1 X
Track quality 99.9 %
Test CRC FECADE04
Copy CRC FECADE04
Accurately ripped (confidence 3) [AEF85F26] (AR v2)
Copy OK

Track 10

Filename D:\Split Enz - Live, Alive Oh. (2017) [FLAC]\Disc 1 - 20th Anniversary Tour, New Zealand 1993\10 - Hermit McDermitt.wav

Peak level 97.2 %
Extraction speed 8.6 X
Track quality 100.0 %
Test CRC 4D472A20
Copy CRC 4D472A20
Accurately ripped (confidence 3) [CD4BEA52] (AR v2)
Copy OK

Track 11

Filename D:\Split Enz - Live, Alive Oh. (2017) [FLAC]\Disc 1 - 20th Anniversary Tour, New Zealand 1993\11 - True Colours.wav

Peak level 96.6 %
Extraction speed 2.8 X
Track quality 99.7 %
Test CRC 070727F0
Copy CRC 070727F0
Accurately ripped (confidence 3) [BDA5B34B] (AR v2)
Copy OK

Track 12

Filename D:\Split Enz - Live, Alive Oh. (2017) [FLAC]\Disc 1 - 20th Anniversary Tour, New Zealand 1993\12 - What's The Matter With You.wav

Peak level 97.5 %
Extraction speed 6.6 X
Track quality 99.9 %
Test CRC FE13FB2E
Copy CRC FE13FB2E
Accurately ripped (confidence 3) [CE2947D6] (AR v2)
Copy OK

Track 13

Filename D:\Split Enz - Live, Alive Oh. (2017) [FLAC]\Disc 1 - 20th Anniversary Tour, New Zealand 1993\13 - Charlie.wav

Peak level 96.6 %
Extraction speed 9.5 X
Track quality 100.0 %
Test CRC 2B275414
Copy CRC 2B275414
Accurately ripped (confidence 3) [87790440] (AR v2)
Copy OK

Track 14

Filename D:\Split Enz - Live, Alive Oh. (2017) [FLAC]\Disc 1 - 20th Anniversary Tour, New Zealand 1993\14 - Split Ends.wav

Peak level 97.2 %
Extraction speed 8.4 X
Track quality 100.0 %
Test CRC C1787CBE
Copy CRC C1787CBE
Accurately ripped (confidence 3) [5167A0DC] (AR v2)
Copy OK

Track 15

Filename D:\Split Enz - Live, Alive Oh. (2017) [FLAC]\Disc 1 - 20th Anniversary Tour, New Zealand 1993\15 - Time For A Change.wav

Peak level 100.0 %
Extraction speed 7.2 X
Track quality 99.9 %
Test CRC 89199906
Copy CRC 89199906
Accurately ripped (confidence 3) [ED0409B0] (AR v2)
Copy OK

Track 16

Filename D:\Split Enz - Live, Alive Oh. (2017) [FLAC]\Disc 1 - 20th Anniversary Tour, New Zealand 1993\16 - I See Red.wav

Peak level 97.4 %
Extraction speed 8.0 X
Track quality 99.9 %
Test CRC 1E250872
Copy CRC 1E250872
Accurately ripped (confidence 3) [4F334B05] (AR v2)
Copy OK

Track 17

Filename D:\Split Enz - Live, Alive Oh. (2017) [FLAC]\Disc 1 - 20th Anniversary Tour, New Zealand 1993\17 - Bold As Brass.wav

Peak level 97.4 %
Extraction speed 10.0 X
Track quality 100.0 %
Test CRC 15F6C714
Copy CRC 15F6C714
Accurately ripped (confidence 3) [14200047] (AR v2)
Copy OK


All tracks accurately ripped

No errors occurred

End of status report

–– CUETools DB Plugin V2.1.4

[CTDB TOCID: 8rSVYD6DnLVUunZNWYE4O6zXg5g-] found
Submit result: 8rSVYD6DnLVUunZNWYE4O6zXg5g- has been confirmed
Track | CTDB Status
1 | (6/6) Accurately ripped
2 | (6/6) Accurately ripped
3 | (6/6) Accurately ripped
4 | (6/6) Accurately ripped
5 | (6/6) Accurately ripped
6 | (6/6) Accurately ripped
7 | (6/6) Accurately ripped
8 | (6/6) Accurately ripped
9 | (6/6) Accurately ripped
10 | (6/6) Accurately ripped
11 | (6/6) Accurately ripped
12 | (6/6) Accurately ripped
13 | (6/6) Accurately ripped
14 | (6/6) Accurately ripped
15 | (6/6) Accurately ripped
16 | (6/6) Accurately ripped
17 | (6/6) Accurately ripped


==== Log checksum 61FEE86DD3C38DA4F03BF03023B7EEB21D70C488446FB822CCE6CC6E812F30B6 ====
Exact Audio Copy V1.0 beta 4 from 7. December 2014

EAC extraction logfile from 6. December 2017, 18:15

Split Enz / Live, Alive Oh. (Disc 2)

Used drive : TSSTcorpCDDVDW SH-222AB Adapter: 1 ID: 0

Read mode : Secure
Utilize accurate stream : Yes
Defeat audio cache : Yes
Make use of C2 pointers : No

Read offset correction : 6
Overread into Lead-In and Lead-Out : No
Fill up missing offset samples with silence : Yes
Delete leading and trailing silent blocks : No
Null samples used in CRC calculations : Yes
Used interface : Native Win32 interface for Win NT & 2000
Gap handling : Appended to previous track

Used output format : User Defined Encoder
Selected bitrate : 1024 kBit/s
Quality : High
Add ID3 tag : No
Command line compressor : C:\Program Files\Exact Audio Copy\Flac\flac.exe
Additional command line options : -8 -V -T "ARTIST=%artist%" -T "TITLE=%title%" -T "ALBUM=%albumtitle%" -T "DATE=%year%" -T "TRACKNUMBER=%tracknr%" -T "GENRE=%genre%" -T "PERFORMER=%albuminterpret%" -T "COMPOSER=%composer%" %haslyrics%–tag-from-file=LYRICS="%lyricsfile%"%haslyrics% -T "ALBUMARTIST=%albumartist%" -T "DISCNUMBER=%cdnumber%" -T "TOTALDISCS=%totalcds%" -T "TOTALTRACKS=%numtracks%" -T "COMMENT=EAC V1.0 beta 4, Secure Mode, Test & Copy, AccurateRip, FLAC -8" %source% -o %dest%


TOC of the extracted CD

Track | Start | Length | Start sector | End sector
––––––––––––––––––––––––––––-
1 | 0:00.00 | 3:07.27 | 0 | 14051
2 | 3:07.27 | 5:32.15 | 14052 | 38966
3 | 8:39.42 | 3:03.33 | 38967 | 52724
4 | 11:43.00 | 3:31.70 | 52725 | 68619
5 | 15:14.70 | 5:19.43 | 68620 | 92587
6 | 20:34.38 | 4:13.65 | 92588 | 111627
7 | 24:48.28 | 4:29.24 | 111628 | 131826
8 | 29:17.52 | 3:49.18 | 131827 | 149019
9 | 33:06.70 | 1:49.21 | 149020 | 157215
10 | 34:56.16 | 5:27.30 | 157216 | 181770
11 | 40:23.46 | 3:29.56 | 181771 | 197501
12 | 43:53.27 | 4:03.00 | 197502 | 215726
13 | 47:56.27 | 3:56.03 | 215727 | 233429


Track 1

Filename D:\Split Enz - Live, Alive Oh. (2017) [FLAC]\Disc 2 - NZ Farewell Tour, Vector Arena 2008\01 - Give It A Whirl.wav

Pre-gap length 0:00:02.00

Peak level 97.2 %
Extraction speed 4.1 X
Track quality 100.0 %
Test CRC 0877322B
Copy CRC 0877322B
Accurately ripped (confidence 3) [E61B776B] (AR v2)
Copy OK

Track 2

Filename D:\Split Enz - Live, Alive Oh. (2017) [FLAC]\Disc 2 - NZ Farewell Tour, Vector Arena 2008\02 - Dirty Creature.wav

Peak level 99.4 %
Extraction speed 5.0 X
Track quality 100.0 %
Test CRC 4A0C5950
Copy CRC 4A0C5950
Accurately ripped (confidence 3) [25E83C8D] (AR v2)
Copy OK

Track 3

Filename D:\Split Enz - Live, Alive Oh. (2017) [FLAC]\Disc 2 - NZ Farewell Tour, Vector Arena 2008\03 - One Step Ahead.wav

Peak level 97.3 %
Extraction speed 5.1 X
Track quality 100.0 %
Test CRC 4E812E75
Copy CRC 4E812E75
Accurately ripped (confidence 3) [36B9FE18] (AR v2)
Copy OK

Track 4

Filename D:\Split Enz - Live, Alive Oh. (2017) [FLAC]\Disc 2 - NZ Farewell Tour, Vector Arena 2008\04 - Nobody Takes me Seriously.wav

Peak level 97.7 %
Extraction speed 5.5 X
Track quality 100.0 %
Test CRC A4D1EB3B
Copy CRC A4D1EB3B
Accurately ripped (confidence 3) [BDB2A270] (AR v2)
Copy OK

Track 5

Filename D:\Split Enz - Live, Alive Oh. (2017) [FLAC]\Disc 2 - NZ Farewell Tour, Vector Arena 2008\05 - Take A Walk.wav

Peak level 97.5 %
Extraction speed 6.1 X
Track quality 100.0 %
Test CRC 9FCDFFDC
Copy CRC 9FCDFFDC
Accurately ripped (confidence 3) [1DD28343] (AR v2)
Copy OK

Track 6

Filename D:\Split Enz - Live, Alive Oh. (2017) [FLAC]\Disc 2 - NZ Farewell Tour, Vector Arena 2008\06 - Stuff And Nonsense.wav

Peak level 97.1 %
Extraction speed 6.4 X
Track quality 100.0 %
Test CRC 7622B5C9
Copy CRC 7622B5C9
Accurately ripped (confidence 3) [6855FC6A] (AR v2)
Copy OK

Track 7

Filename D:\Split Enz - Live, Alive Oh. (2017) [FLAC]\Disc 2 - NZ Farewell Tour, Vector Arena 2008\07 - Double Happy.wav

Peak level 97.8 %
Extraction speed 6.8 X
Track quality 100.0 %
Test CRC 1A71372F
Copy CRC 1A71372F
Accurately ripped (confidence 3) [AD6ECCDA] (AR v2)
Copy OK

Track 8

Filename D:\Split Enz - Live, Alive Oh. (2017) [FLAC]\Disc 2 - NZ Farewell Tour, Vector Arena 2008\08 - Devil you Know.wav

Peak level 97.2 %
Extraction speed 6.9 X
Track quality 100.0 %
Test CRC 3BE8E4E7
Copy CRC 3BE8E4E7
Accurately ripped (confidence 3) [621DD631] (AR v2)
Copy OK

Track 9

Filename D:\Split Enz - Live, Alive Oh. (2017) [FLAC]\Disc 2 - NZ Farewell Tour, Vector Arena 2008\09 - Pioneer.wav

Peak level 70.2 %
Extraction speed 6.1 X
Track quality 100.0 %
Test CRC 78AD0FCD
Copy CRC 78AD0FCD
Accurately ripped (confidence 3) [26741ECD] (AR v2)
Copy OK

Track 10

Filename D:\Split Enz - Live, Alive Oh. (2017) [FLAC]\Disc 2 - NZ Farewell Tour, Vector Arena 2008\10 - Six Months In A Leaky Boat.wav

Peak level 97.2 %
Extraction speed 7.7 X
Track quality 100.0 %
Test CRC BFEB777B
Copy CRC BFEB777B
Accurately ripped (confidence 3) [6010BEE4] (AR v2)
Copy OK

Track 11

Filename D:\Split Enz - Live, Alive Oh. (2017) [FLAC]\Disc 2 - NZ Farewell Tour, Vector Arena 2008\11 - My Mistake.wav

Peak level 97.3 %
Extraction speed 7.5 X
Track quality 100.0 %
Test CRC 6A6E544D
Copy CRC 6A6E544D
Accurately ripped (confidence 3) [153B7DA3] (AR v2)
Copy OK

Track 12

Filename D:\Split Enz - Live, Alive Oh. (2017) [FLAC]\Disc 2 - NZ Farewell Tour, Vector Arena 2008\12 - Carried Away.wav

Peak level 97.3 %
Extraction speed 6.3 X
Track quality 99.9 %
Test CRC 4A80D195
Copy CRC 4A80D195
Accurately ripped (confidence 3) [FC38A535] (AR v2)
Copy OK

Track 13

Filename D:\Split Enz - Live, Alive Oh. (2017) [FLAC]\Disc 2 - NZ Farewell Tour, Vector Arena 2008\13 - History Never Repeats.wav

Peak level 97.3 %
Extraction speed 6.5 X
Track quality 99.9 %
Test CRC 9BEACBFC
Copy CRC 9BEACBFC
Accurately ripped (confidence 3) [4FBAC13C] (AR v2)
Copy OK


All tracks accurately ripped

No errors occurred

End of status report

–– CUETools DB Plugin V2.1.4

[CTDB TOCID: 4ZDBFlht17c5YKMy9QETR7IfyQM-] found
Submit result: 4ZDBFlht17c5YKMy9QETR7IfyQM- has been confirmed
Track | CTDB Status
1 | (6/6) Accurately ripped
2 | (6/6) Accurately ripped
3 | (6/6) Accurately ripped
4 | (6/6) Accurately ripped
5 | (6/6) Accurately ripped
6 | (6/6) Accurately ripped
7 | (6/6) Accurately ripped
8 | (6/6) Accurately ripped
9 | (6/6) Accurately ripped
10 | (6/6) Accurately ripped
11 | (6/6) Accurately ripped
12 | (6/6) Accurately ripped
13 | (6/6) Accurately ripped


==== Log checksum A6BB80E728472CBF8A696CDCEF46FFA2F2D05913E7725D624ABE9B86E63D05B8 ====

Thanks to the Original ripper !