Tags
Language
Tags

Sergei Babayan - Rachmaninoff: Préludes; Études-Tableaux; Moments musicaux (2020)

Posted By: delpotro
Sergei Babayan - Rachmaninoff: Préludes; Études-Tableaux; Moments musicaux (2020)

Sergei Babayan - Rachmaninoff: Préludes; Études-Tableaux; Moments musicaux (2020)
EAC Rip | FLAC (tracks+log+.cue) - 198 Mb | MP3 CBR 320 kbps - 140 Mb | 01:01:13
Classical | Label: Deutsche Grammophon

A selection of lucid, intimate, and short-from Rachmaninoff works, interpreted with pinpoint technical precision.

“Music is born only in the heart and it appeals only to the heart; it is Love! The sister of Music is Poesy, and its mother is Sorrow!” These are the words Sergei Rachmaninoff used to describe his concept of music.

Sergei Babayan’s interpretations of a selection of Rachmaninoff’s short- form jewels mirror this heartfelt sentiment while also showing his deep and unsentimental understanding of the music. Next to the Études-Tableux, the Préludes and Moments Musicaux, the album contains enchanting, lyrical song transcriptions. After the 2018 release of “Prokofiev for two” with Martha Argerich, this project shows Babayan’s essence as an extraordinarily skillful pianist. Babayan is one of the leading pianists of our time, hailed for his emotional intensity, bold energy and remarkable levels of color.
Tracklist:
1. 10 Preludes, Op. 23: VIII. Allegro vivace (03:09)
2. 13 Preludes, Op. 32: XII. Allegro (02:40)
3. 12 Songs, Op. 21: V. Lilacs (Transcr. Rachmaninoff for Solo Piano) (03:01)
4. 13 Preludes, Op. 32: VI. Allegro appassionato (01:17)
5. Études-Tableaux, Op. 33: III. Grave (05:17)
6. Études-Tableaux, Op. 39: I. Allegro agitato (03:11)
7. Études-Tableaux, Op. 39: II. Lento assai (06:10)
8. 13 Preludes, Op. 32: X. Lento (06:44)
9. 12 Songs, Op. 21: IX. Melody (Transcr. Volodos for Piano) (03:56)
10. Morceau de fantaisie in G Minor "Delmo" (00:52)
11. 10 Preludes, Op. 23: IV. Andante cantabile (04:53)
12. Études-Tableaux, Op. 39: V. Appassionato (05:30)
13. Cello Sonata, Op. 19: III. Andante (Transcr. Volodos for Piano) (06:31)
14. 6 Moments Musicaux, Op. 16: II. Allegretto (02:54)
15. 6 Moments Musicaux, Op. 16: VI. Maestoso (05:01)

Exact Audio Copy V1.6 from 23. October 2020

EAC extraction logfile from 4. September 2021, 12:52

Sergei Babayan / Préludes - Études-Tableaux - Moments musicaux

Used drive : TSSTcorpCDDVDW SE-S084C Adapter: 1 ID: 0

Read mode : Secure
Utilize accurate stream : Yes
Defeat audio cache : Yes
Make use of C2 pointers : No

Read offset correction : 6
Overread into Lead-In and Lead-Out : No
Fill up missing offset samples with silence : Yes
Delete leading and trailing silent blocks : No
Null samples used in CRC calculations : Yes
Used interface : Native Win32 interface for Win NT & 2000
Gap handling : Appended to previous track

Used output format : User Defined Encoder
Selected bitrate : 768 kBit/s
Quality : High
Add ID3 tag : No
Command line compressor : C:\Program Files (x86)\Exact Audio Copy\FLAC\FLAC.EXE
Additional command line options : -8 -V -T "ARTIST=%artist%" -T "TITLE=%title%" -T "ALBUM=%albumtitle%" -T "DATE=%year%" -T "TRACKNUMBER=%tracknr%" -T "GENRE=%genre%" -T "COMMENT=%comment%" -T "PERFORMER=%albuminterpret%" -T "ALBUMARTIST=%albumartist%" -T "COMPOSER=%composer%" %haslyrics%–tag-from-file=LYRICS="%lyricsfile%"%haslyrics% -T "DISCNUMBER=%cdnumber%" -T "TOTALDISCS=%totalcds%" -T "TOTALTRACKS=%numtracks%" %source% -o %dest%


TOC of the extracted CD

Track | Start | Length | Start sector | End sector
––––––––––––––––––––––––––––-
1 | 0:00.00 | 3:09.13 | 0 | 14187
2 | 3:09.13 | 2:40.46 | 14188 | 26233
3 | 5:49.59 | 3:01.52 | 26234 | 39860
4 | 8:51.36 | 1:17.60 | 39861 | 45695
5 | 10:09.21 | 5:17.60 | 45696 | 69530
6 | 15:27.06 | 3:11.45 | 69531 | 83900
7 | 18:38.51 | 6:10.60 | 83901 | 111710
8 | 24:49.36 | 6:44.12 | 111711 | 142022
9 | 31:33.48 | 3:56.50 | 142023 | 159772
10 | 35:30.23 | 0:52.09 | 159773 | 163681
11 | 36:22.32 | 4:53.74 | 163682 | 185730
12 | 41:16.31 | 5:30.01 | 185731 | 210481
13 | 46:46.32 | 6:31.51 | 210482 | 239857
14 | 53:18.08 | 2:54.22 | 239858 | 252929
15 | 56:12.30 | 5:01.27 | 252930 | 275531


Track 1

Filename C:\EACRips\Rachmaninoff - Préludes - Études-Tableaux - Moments musicaux (Sergei Babayan, 2020) CD FLAC\01 - Prélude in A flat major, op. 23,8.wav

Pre-gap length 0:00:02.00

Peak level 42.1 %
Extraction speed 1.0 X
Track quality 100.0 %
Test CRC 02BEEC2C
Copy CRC 02BEEC2C
Accurately ripped (confidence 1) [8D757181] (AR v2)
Copy OK

Track 2

Filename C:\EACRips\Rachmaninoff - Préludes - Études-Tableaux - Moments musicaux (Sergei Babayan, 2020) CD FLAC\02 - Prélude in G sharp minor, op. 32,12.wav

Peak level 60.0 %
Extraction speed 1.1 X
Track quality 100.0 %
Test CRC 0D935186
Copy CRC 0D935186
Accurately ripped (confidence 1) [B289868D] (AR v2)
Copy OK

Track 3

Filename C:\EACRips\Rachmaninoff - Préludes - Études-Tableaux - Moments musicaux (Sergei Babayan, 2020) CD FLAC\03 - Lilacs, op. 21,5 (trans. Rachmaninoff).wav

Peak level 30.6 %
Extraction speed 1.2 X
Track quality 100.0 %
Test CRC 4C84972C
Copy CRC 4C84972C
Accurately ripped (confidence 1) [05338EDB] (AR v2)
Copy OK

Track 4

Filename C:\EACRips\Rachmaninoff - Préludes - Études-Tableaux - Moments musicaux (Sergei Babayan, 2020) CD FLAC\04 - Prélude in Fminor, op. 32,6.wav

Peak level 62.5 %
Extraction speed 1.0 X
Track quality 100.0 %
Test CRC E14B8A16
Copy CRC E14B8A16
Accurately ripped (confidence 1) [C7266269] (AR v2)
Copy OK

Track 5

Filename C:\EACRips\Rachmaninoff - Préludes - Études-Tableaux - Moments musicaux (Sergei Babayan, 2020) CD FLAC\05 - Étude-Tableau in C minor, op. 33,3.wav

Peak level 62.7 %
Extraction speed 1.5 X
Track quality 100.0 %
Test CRC B19B8606
Copy CRC B19B8606
Accurately ripped (confidence 1) [DACABEAA] (AR v2)
Copy OK

Track 6

Filename C:\EACRips\Rachmaninoff - Préludes - Études-Tableaux - Moments musicaux (Sergei Babayan, 2020) CD FLAC\06 - Étude-Tableau in C minor, op. 39,1.wav

Peak level 78.0 %
Extraction speed 1.4 X
Track quality 100.0 %
Test CRC 047ECDAE
Copy CRC 047ECDAE
Accurately ripped (confidence 1) [86D1BD22] (AR v2)
Copy OK

Track 7

Filename C:\EACRips\Rachmaninoff - Préludes - Études-Tableaux - Moments musicaux (Sergei Babayan, 2020) CD FLAC\07 - Étude-Tableau in A minor, op. 39,2.wav

Peak level 83.3 %
Extraction speed 1.7 X
Track quality 100.0 %
Test CRC 35C1D635
Copy CRC 35C1D635
Accurately ripped (confidence 1) [A29D9449] (AR v2)
Copy OK

Track 8

Filename C:\EACRips\Rachmaninoff - Préludes - Études-Tableaux - Moments musicaux (Sergei Babayan, 2020) CD FLAC\08 - Prélude in B minor, op. 32,10.wav

Peak level 85.7 %
Extraction speed 1.9 X
Track quality 100.0 %
Test CRC F818E416
Copy CRC F818E416
Accurately ripped (confidence 1) [1FA2D8A2] (AR v2)
Copy OK

Track 9

Filename C:\EACRips\Rachmaninoff - Préludes - Études-Tableaux - Moments musicaux (Sergei Babayan, 2020) CD FLAC\09 - Melody, op. 21,9 (trans. Volodos).wav

Peak level 66.9 %
Extraction speed 1.9 X
Track quality 100.0 %
Test CRC 2BE77379
Copy CRC 2BE77379
Accurately ripped (confidence 1) [84E2E1B2] (AR v2)
Copy OK

Track 10

Filename C:\EACRips\Rachmaninoff - Préludes - Études-Tableaux - Moments musicaux (Sergei Babayan, 2020) CD FLAC\10 - Morceau de fantasie in G minor.wav

Peak level 73.7 %
Extraction speed 0.9 X
Track quality 99.7 %
Test CRC 45ACBC7D
Copy CRC 45ACBC7D
Accurately ripped (confidence 1) [147C2C53] (AR v2)
Copy OK

Track 11

Filename C:\EACRips\Rachmaninoff - Préludes - Études-Tableaux - Moments musicaux (Sergei Babayan, 2020) CD FLAC\11 - Prélude in D major, op. 23,4.wav

Peak level 83.8 %
Extraction speed 2.0 X
Track quality 100.0 %
Test CRC 5C891088
Copy CRC 5C891088
Accurately ripped (confidence 1) [0943DF48] (AR v2)
Copy OK

Track 12

Filename C:\EACRips\Rachmaninoff - Préludes - Études-Tableaux - Moments musicaux (Sergei Babayan, 2020) CD FLAC\12 - Étude-Tableau in E flat minor, op. 39,5.wav

Peak level 86.7 %
Extraction speed 1.9 X
Track quality 99.9 %
Test CRC 703B9B46
Copy CRC 703B9B46
Accurately ripped (confidence 1) [E3C4B686] (AR v2)
Copy OK

Track 13

Filename C:\EACRips\Rachmaninoff - Préludes - Études-Tableaux - Moments musicaux (Sergei Babayan, 2020) CD FLAC\13 - Andante (Movement III from Cello Sonata op. 19, trans. Volodos).wav

Peak level 89.8 %
Extraction speed 2.3 X
Track quality 100.0 %
Test CRC 41023593
Copy CRC 41023593
Accurately ripped (confidence 1) [43E1B298] (AR v2)
Copy OK

Track 14

Filename C:\EACRips\Rachmaninoff - Préludes - Études-Tableaux - Moments musicaux (Sergei Babayan, 2020) CD FLAC\14 - Moment musical in E flat minor, op. 16,2.wav

Peak level 76.6 %
Extraction speed 1.8 X
Track quality 99.9 %
Test CRC 50744C92
Copy CRC 50744C92
Accurately ripped (confidence 1) [64638E43] (AR v2)
Copy OK

Track 15

Filename C:\EACRips\Rachmaninoff - Préludes - Études-Tableaux - Moments musicaux (Sergei Babayan, 2020) CD FLAC\15 - Moment musical in C major, op. 16,6.wav

Peak level 85.2 %
Extraction speed 2.3 X
Track quality 100.0 %
Test CRC 04AB3E4D
Copy CRC 04AB3E4D
Accurately ripped (confidence 1) [E2986F1F] (AR v2)
Copy OK


All tracks accurately ripped

No errors occurred

End of status report

–– CUETools DB Plugin V2.1.6

[CTDB TOCID: ph9E26LRxAQJIDxgKzBd.z76c9c-] found
Submit result: ph9E26LRxAQJIDxgKzBd.z76c9c- has been confirmed
Track | CTDB Status
1 | (17/17) Accurately ripped
2 | (17/17) Accurately ripped
3 | (17/17) Accurately ripped
4 | (17/17) Accurately ripped
5 | (17/17) Accurately ripped
6 | (17/17) Accurately ripped
7 | (17/17) Accurately ripped
8 | (17/17) Accurately ripped
9 | (17/17) Accurately ripped
10 | (17/17) Accurately ripped
11 | (17/17) Accurately ripped
12 | (17/17) Accurately ripped
13 | (17/17) Accurately ripped
14 | (17/17) Accurately ripped
15 | (17/17) Accurately ripped


==== Log checksum 9F075765B5B8F8B8D3DA47A5AFAD0066FED9BD17C4BA7B56C6AD58F3B1D1EB1D ====

Thanks to the Original ripper !