Subcategories
Tags
Language
Tags

Ron Carter - Mr. Bow-Tie (1995) {Blue Note CDP 7243 8 35407 2 3}

Posted By: ruskaval
Ron Carter - Mr. Bow-Tie (1995) {Blue Note CDP 7243 8 35407 2 3}

Ron Carter - Mr. Bow-Tie (1995) {Blue Note CDP 7243 8 35407 2 3}
EAC rip (secure mode) | FLAC (image)+CUE+LOG -> 395 Mb | MP3 @320 -> 151 Mb
Full Artwork @ 300 dpi (jpg) -> 10 Mb | 5% repair rar
© 1995 Somethin' Else Records / Toshiba-EMI / Blue Note Records | CDP 7243 8 35407 2 3
Jazz / Post Bop / Bass

Bassist Ron Carter varies the personnel often enough to keep one's interest throughout this CD. Carter, who contributed six of the ten compositions (which alternate with four familiar standards) takes his share of bass solos but also showcases pianist Gonzalo Rubalcaba (who is pretty restrained throughout) on the opening "Mr. Bow-Tie" and allocates a generous amount of solo space on some selections to trumpeter Edwin Russell (inspired by Miles Davis but possessing his own fire) and Javon Jackson, who often sounds like a close relative of Joe Henderson.

Rubalcaba sits out on four of Carter's originals, making the group occasionally a pianoless quartet/quintet (depending on whether percussionist Steve Kroon is present). All of the music is straightahead and the playing is consistently colorful. This is an impressive effort that is easily recommended.

Musicians
Bass Ron Carter
Piano Gonzalo Rubalcaba
Trumpet Edwin Russel
Saxophone Javon Jackson
Drums Lewis Nash
Percussion Steve Kroon

tracklist:
01 Mr. Bow Tie 07:07
02 Well You Needn't 06:43
03 Fill In The Blanks 07:06
04 I Thought About You 07:32
05 Nearly 08:55
06 Cut And Paste 04:45
07 Stablemates 06:54
08 Wait For The Beep 03:52
09 M.S.R.P. 06:29
10 St. Thomas 05:28

Exact Audio Copy V0.99 prebeta 4 from 23. January 2008

EAC extraction logfile from 5. May 2009, 18:05

Ron Carter / Mr. Bow-Tie

Used drive : PLEXTOR DVDR PX-800A Adapter: 1 ID: 1

Read mode : Secure
Utilize accurate stream : Yes
Defeat audio cache : Yes
Make use of C2 pointers : No

Read offset correction : 48
Overread into Lead-In and Lead-Out : No
Fill up missing offset samples with silence : Yes
Delete leading and trailing silent blocks : No
Null samples used in CRC calculations : Yes
Used interface : Installed external ASPI interface

Used output format : Internal WAV Routines
Sample format : 44.100 Hz; 16 Bit; Stereo


TOC of the extracted CD

Track | Start | Length | Start sector | End sector
––––––––––––––––––––––––––––-
1 | 0:00.00 | 7:07.12 | 0 | 32036
2 | 7:07.12 | 6:43.60 | 32037 | 62321
3 | 13:50.72 | 7:06.18 | 62322 | 94289
4 | 20:57.15 | 7:32.17 | 94290 | 128206
5 | 28:29.32 | 8:55.10 | 128207 | 168341
6 | 37:24.42 | 4:45.18 | 168342 | 189734
7 | 42:09.60 | 6:54.67 | 189735 | 220851
8 | 49:04.52 | 3:52.23 | 220852 | 238274
9 | 52:57.00 | 6:29.32 | 238275 | 267481
10 | 59:26.32 | 5:27.18 | 267482 | 292024


Range status and errors

Selected range

Filename E:\Ron Carter Images\Ron Carter\Mr. Bow-Tie\Mr. Bow-Tie.wav

Peak level 97.7 %
Range quality 100.0 %
Copy CRC 3BD56FB5
Copy OK

No errors occurred


AccurateRip summary

Track 1 not present in database
Track 2 not present in database
Track 3 not present in database
Track 4 not present in database
Track 5 not present in database
Track 6 not present in database
Track 7 not present in database
Track 8 not present in database
Track 9 not present in database
Track 10 not present in database

None of the tracks are present in the AccurateRip database

End of status report



Ron Carter - Mr. Bow-Tie (1995) {Blue Note CDP 7243 8 35407 2 3}

Ron Carter - Mr. Bow-Tie (1995) {Blue Note CDP 7243 8 35407 2 3}



===