Subcategories

Noura Mint Seymali - Tzenni (2014)

Posted By: aasana
Noura Mint Seymali - Tzenni (2014)

Noura Mint Seymali - Tzenni (2014)
EAC Rip | FLAC (tracks+.cue+.log) & artwork, booklet | 41:30 min | 311 MB
World, Ethnic, Folk | Label: Glitterbeat Records

Produit et enregistré dans des lieux et des contextes sociaux très différents (New York, Dakar, Nouakchott), cet album de Noura Mint Seymali est une articulation contemporaine de musique mauresque de Mauritanie, un genre musical qui évolue et s’enrichit depuis des siècles. Tzenni signifie circuler, tourner en arabe. C’est le nom d’une danse mauresque, souvent effectuée sous les tentes Khaima dressées dans les rues de Nouakchott et dans les déserts sauvages de Mauritanie. Avec cet opus, Noura Mint Seymali rappelle brillament qu'elle est une artiste qui s’inscrit profondément dans la tradition, tout en se dévouant à sa reconnaissance mondiale de cette musique historique. Un superbe exemple de racines musicales anciennes propulsées au 21e siècle.

Tracklist:
3:23 | 01. Noura Mint Seymali - Eguetmar
5:15 | 02. Noura Mint Seymali - Tzenni
6:04 | 03. Noura Mint Seymali - El Barm
3:11 | 04. Noura Mint Seymali - El Madi
4:00 | 05. Noura Mint Seymali - El Mougelmen
3:11 | 06. Noura Mint Seymali - Hebebeb (zrag)
5:13 | 07. Noura Mint Seymali - Soub Hanallah
3:35 | 08. Noura Mint Seymali - Tikifite
2:28 | 09. Noura Mint Seymali - Char'aa
5:10 | 10. Noura Mint Seymali - Emin Emineïna Chouweyne

Exact Audio Copy V1.0 beta 3 from 29. August 2011

EAC extraction logfile from 6. August 2014, 15:24

Noura Mint Seymali / Tzenni

Used drive : SONY DVD RW DW-U18A Adapter: 0 ID: 0

Read mode : Secure
Utilize accurate stream : Yes
Defeat audio cache : Yes
Make use of C2 pointers : No

Read offset correction : 12
Overread into Lead-In and Lead-Out : No
Fill up missing offset samples with silence : Yes
Delete leading and trailing silent blocks : No
Null samples used in CRC calculations : Yes
Used interface : Native Win32 interface for Win NT & 2000
Gap handling : Appended to previous track

Used output format : User Defined Encoder
Selected bitrate : 1024 kBit/s
Quality : High
Add ID3 tag : No
Command line compressor : C:\Program Files\Exact Audio Copy\Flac\flac.exe
Additional command line options : -8 -V -T "ARTIST=%artist%" -T "TITLE=%title%" -T "ALBUM=%albumtitle%" -T "DATE=%year%" -T "TRACKNUMBER=%tracknr%" -T "GENRE=%genre%" -T "PERFORMER=%albuminterpret%" -T "COMPOSER=%composer%" %haslyrics%–tag-from-file=LYRICS="%lyricsfile%"%haslyrics% -T "ALBUMARTIST=%albumartist%" -T "ALBUM ARTIST=%albumartist%" -T "DISCNUMBER=%cdnumber%" -T "TOTALDISCS=%totalcds%" -T "TOTALTRACKS=%numtracks%" -T "COMMENT=EAC V1.0 beta 2, Secure Mode, Test & Copy, AccurateRip, FLAC -8" %source% -o %dest%


TOC of the extracted CD

Track | Start | Length | Start sector | End sector
––––––––––––––––––––––––––––-
1 | 0:00.00 | 3:22.52 | 0 | 15201
2 | 3:22.52 | 5:15.28 | 15202 | 38854
3 | 8:38.05 | 6:04.31 | 38855 | 66185
4 | 14:42.36 | 3:11.24 | 66186 | 80534
5 | 17:53.60 | 3:59.74 | 80535 | 98533
6 | 21:53.59 | 3:10.66 | 98534 | 112849
7 | 25:04.50 | 5:12.44 | 112850 | 136293
8 | 30:17.19 | 3:35.17 | 136294 | 152435
9 | 33:52.36 | 2:28.25 | 152436 | 163560
10 | 36:20.61 | 5:09.40 | 163561 | 186775


Track 1

Filename C:\pastacube\Noura Mint Seymali - Tzenni (2014) [FLAC]\01 - Eguetmar.wav

Pre-gap length 0:00:02.00

Peak level 98.8 %
Extraction speed 5.7 X
Track quality 100.0 %
Test CRC B16952B2
Copy CRC B16952B2
Accurately ripped (confidence 1) [4583BB10] (AR v2)
Copy OK

Track 2

Filename C:\pastacube\Noura Mint Seymali - Tzenni (2014) [FLAC]\02 - Tzenni.wav

Peak level 98.8 %
Extraction speed 5.4 X
Track quality 99.9 %
Test CRC E3C6460C
Copy CRC E3C6460C
Accurately ripped (confidence 1) [B51F9DF9] (AR v2)
Copy OK

Track 3

Filename C:\pastacube\Noura Mint Seymali - Tzenni (2014) [FLAC]\03 - El Barm.wav

Peak level 98.8 %
Extraction speed 6.6 X
Track quality 100.0 %
Test CRC 93FFBE83
Copy CRC 93FFBE83
Accurately ripped (confidence 1) [81EEB817] (AR v2)
Copy OK

Track 4

Filename C:\pastacube\Noura Mint Seymali - Tzenni (2014) [FLAC]\04 - El Madi.wav

Peak level 98.8 %
Extraction speed 6.2 X
Track quality 100.0 %
Test CRC 627744EC
Copy CRC 627744EC
Accurately ripped (confidence 1) [BED24F28] (AR v2)
Copy OK

Track 5

Filename C:\pastacube\Noura Mint Seymali - Tzenni (2014) [FLAC]\05 - El Mougelmen.wav

Peak level 98.8 %
Extraction speed 5.5 X
Track quality 99.9 %
Test CRC 36162C8D
Copy CRC 36162C8D
Accurately ripped (confidence 1) [D3FAD4E7] (AR v2)
Copy OK

Track 6

Filename C:\pastacube\Noura Mint Seymali - Tzenni (2014) [FLAC]\06 - Hebebeb (zrag).wav

Peak level 98.8 %
Extraction speed 5.2 X
Track quality 99.9 %
Test CRC CE56C122
Copy CRC CE56C122
Accurately ripped (confidence 1) [40DA7029] (AR v2)
Copy OK

Track 7

Filename C:\pastacube\Noura Mint Seymali - Tzenni (2014) [FLAC]\07 - Soub Hanallah.wav

Peak level 98.8 %
Extraction speed 6.6 X
Track quality 100.0 %
Test CRC 194DFA6E
Copy CRC 194DFA6E
Accurately ripped (confidence 1) [8EF06076] (AR v2)
Copy OK

Track 8

Filename C:\pastacube\Noura Mint Seymali - Tzenni (2014) [FLAC]\08 - Tikifite.wav

Peak level 98.8 %
Extraction speed 6.3 X
Track quality 100.0 %
Test CRC D64AC061
Copy CRC D64AC061
Accurately ripped (confidence 1) [C6C582E3] (AR v2)
Copy OK

Track 9

Filename C:\pastacube\Noura Mint Seymali - Tzenni (2014) [FLAC]\09 - Char'aa.wav

Peak level 98.8 %
Extraction speed 5.9 X
Track quality 100.0 %
Test CRC 731F02E0
Copy CRC 731F02E0
Accurately ripped (confidence 1) [C54AF3EB] (AR v2)
Copy OK

Track 10

Filename C:\pastacube\Noura Mint Seymali - Tzenni (2014) [FLAC]\10 - Emin Emineïna Chouweyne.wav

Peak level 98.8 %
Extraction speed 6.5 X
Track quality 100.0 %
Test CRC CFAA7DEA
Copy CRC CFAA7DEA
Accurately ripped (confidence 1) [1EE500AF] (AR v2)
Copy OK


All tracks accurately ripped

No errors occurred

End of status report

==== Log checksum 949BFDD550B542E168F290A6A1FA636E9205044B9DCDBEEA3EDC1F2F14F9BE44 ====