Tags
Language
Tags

Thelonious Monk featuring Johnny Griffin - Complete Live At The Five Spot 1958 (2009) {2CD Set, Lone Hill Jazz LHJ10360}

Posted By: ruskaval
Thelonious Monk featuring Johnny Griffin - Complete Live At The Five Spot 1958 (2009) {2CD Set, Lone Hill Jazz LHJ10360}

Thelonious Monk featuring Johnny Griffin - Complete Live At The Five Spot 1958 (2009) {2CD Set, Lone Hill Jazz LHJ10360}
EAC rip (secure mode) | FLAC (tracks)+CUE+LOG -> 828 Mb | MP3 @320 -> 345 Mb
Full Artwork @ 300 dpi (png) -> 49 Mb | 5% repair rar
© 1958, 2009 Lone Hill Jazz | LHJ10360
Jazz / Bop / Post Bop / Piano

Just after John Coltrane left him and before the arrival of Charlie Rouse, Thelonious Monk formed a quartet with Johnny Griffin, which played at the Five Spot in New York in August & July, 1958. Half of this music was issued on two original Riverside albums: “In Action” and “Misterioso”.

This edition contains all known music from these famous gigs plus as a bonus, a rare sextet selection by Monk including Griffin, Donald Byrd and Pepper Adams.
Thelonious Monk featuring Johnny Griffin - Complete Live At The Five Spot 1958 (2009) {2CD Set, Lone Hill Jazz LHJ10360}


tracklist:

CD1
01. LIGHT BLUE (5:15)
02. COMING ON THE HUDSON (5:23)
03. RHYTHM-A-NING (9:28)
04. JUST A GIGOLO (2:09)
05. BLUE MONK (8:29)
06. EVIDENCE (8:45)
07. EPISTROPHY [Theme] (1:08)
08. NUTTY (5:22)
09. BLUES FIVE SPOT (8:12)
10. LET’S COOL ONE (9:15)
11. IN WALKED BUD (11:20)

Thelonious Monk featuring Johnny Griffin - Complete Live At The Five Spot 1958 (2009) {2CD Set, Lone Hill Jazz LHJ10360}


CD2
01. MISTERIOSO (10:47)
02. EPISTROPHY [Theme] (1:04)
03. EVIDENCE (10:16)
04. BLUES FIVE SPOT (9:56)
05. IN WALKED BUD/EPISTROPHY [Theme] (10:57)
06. SWEET STRANGER (1:55)
07. ‘ROUND MIDNIGHT (6:18)
08. BYA-YA/EPISTROPHY [Theme] (11:55)
09. COMING ON THE HUDSON (6:04)

Thelonious Monk featuring Johnny Griffin - Complete Live At The Five Spot 1958 (2009) {2CD Set, Lone Hill Jazz LHJ10360}


Exact Audio Copy V0.99 prebeta 5 from 4. May 2009

EAC extraction logfile from 9. December 2009, 22:59

Thelonious Monk Quartet featuring Johnny Griffin / Complete Live At The Five Spot 1958 (CD1)

Used drive : TSSTcorpCD/DVDW TS-H552L Adapter: 3 ID: 0

Read mode : Secure
Utilize accurate stream : Yes
Defeat audio cache : Yes
Make use of C2 pointers : No

Read offset correction : 6
Overread into Lead-In and Lead-Out : No
Fill up missing offset samples with silence : Yes
Delete leading and trailing silent blocks : No
Null samples used in CRC calculations : Yes
Used interface : Native Win32 interface for Win NT & 2000
Gap handling : Appended to previous track

Used output format : User Defined Encoder
Selected bitrate : 1024 kBit/s
Quality : High
Add ID3 tag : No
Command line compressor : C:\Program Files\FLAC\flac.exe
Additional command line options : -6 -V -T "ARTIST=%a" -T "TITLE=%t" -T "ALBUM=%g" -T "DATE=%y" -T "TRACKNUMBER=%n" -T "GENRE=%m" -T "COMMENT=EAC FLAC -6" %s


TOC of the extracted CD

Track | Start | Length | Start sector | End sector
––––––––––––––––––––––––––––-
1 | 0:00.00 | 5:15.15 | 0 | 23639
2 | 5:15.15 | 5:23.72 | 23640 | 47936
3 | 10:39.12 | 9:28.16 | 47937 | 90552
4 | 20:07.28 | 2:09.57 | 90553 | 100284
5 | 22:17.10 | 8:29.51 | 100285 | 138510
6 | 30:46.61 | 8:45.47 | 138511 | 177932
7 | 39:32.33 | 1:08.02 | 177933 | 183034
8 | 40:40.35 | 5:22.74 | 183035 | 207258
9 | 46:03.34 | 8:12.31 | 207259 | 244189
10 | 54:15.65 | 9:15.22 | 244190 | 285836
11 | 63:31.12 | 11:20.40 | 285837 | 336876


Track 1

Filename C:\Thelonious Monk Quartet featuring Johnny Griffin - Complete Live At The Five Spot 1958 [2CD] {Lone Hill Jazz 2009}\CD1\01 - Light Blue.wav

Pre-gap length 0:00:02.00

Peak level 96.4 %
Track quality 100.0 %
Test CRC 9D26CF18
Copy CRC 9D26CF18
Track not present in AccurateRip database
Copy OK

Track 2

Filename C:\Thelonious Monk Quartet featuring Johnny Griffin - Complete Live At The Five Spot 1958 [2CD] {Lone Hill Jazz 2009}\CD1\02 - Coming On The Hudson.wav

Peak level 96.4 %
Track quality 100.0 %
Test CRC 441B7DA8
Copy CRC 441B7DA8
Track not present in AccurateRip database
Copy OK

Track 3

Filename C:\Thelonious Monk Quartet featuring Johnny Griffin - Complete Live At The Five Spot 1958 [2CD] {Lone Hill Jazz 2009}\CD1\03 - Rhythm-A-Ning.wav

Peak level 100.0 %
Track quality 100.0 %
Test CRC 216F990D
Copy CRC 216F990D
Track not present in AccurateRip database
Copy OK

Track 4

Filename C:\Thelonious Monk Quartet featuring Johnny Griffin - Complete Live At The Five Spot 1958 [2CD] {Lone Hill Jazz 2009}\CD1\04 - Just A Gigolo.wav

Peak level 92.0 %
Track quality 100.0 %
Test CRC 9094868A
Copy CRC 9094868A
Track not present in AccurateRip database
Copy OK

Track 5

Filename C:\Thelonious Monk Quartet featuring Johnny Griffin - Complete Live At The Five Spot 1958 [2CD] {Lone Hill Jazz 2009}\CD1\05 - Blue Monk.wav

Peak level 96.4 %
Track quality 99.9 %
Test CRC C8C39CDE
Copy CRC C8C39CDE
Track not present in AccurateRip database
Copy OK

Track 6

Filename C:\Thelonious Monk Quartet featuring Johnny Griffin - Complete Live At The Five Spot 1958 [2CD] {Lone Hill Jazz 2009}\CD1\06 - Evidence.wav

Peak level 96.4 %
Track quality 99.9 %
Test CRC A73162F2
Copy CRC A73162F2
Track not present in AccurateRip database
Copy OK

Track 7

Filename C:\Thelonious Monk Quartet featuring Johnny Griffin - Complete Live At The Five Spot 1958 [2CD] {Lone Hill Jazz 2009}\CD1\07 - Epistrophy (Theme).wav

Peak level 85.5 %
Track quality 100.0 %
Test CRC 87008CEC
Copy CRC 87008CEC
Track not present in AccurateRip database
Copy OK

Track 8

Filename C:\Thelonious Monk Quartet featuring Johnny Griffin - Complete Live At The Five Spot 1958 [2CD] {Lone Hill Jazz 2009}\CD1\08 - Nutty.wav

Peak level 82.0 %
Track quality 100.0 %
Test CRC D68E2089
Copy CRC D68E2089
Track not present in AccurateRip database
Copy OK

Track 9

Filename C:\Thelonious Monk Quartet featuring Johnny Griffin - Complete Live At The Five Spot 1958 [2CD] {Lone Hill Jazz 2009}\CD1\09 - Blues Five Spot.wav

Peak level 100.0 %
Track quality 100.0 %
Test CRC F8163FCE
Copy CRC F8163FCE
Track not present in AccurateRip database
Copy OK

Track 10

Filename C:\Thelonious Monk Quartet featuring Johnny Griffin - Complete Live At The Five Spot 1958 [2CD] {Lone Hill Jazz 2009}\CD1\10 - Let's Cool One.wav

Peak level 97.4 %
Track quality 100.0 %
Test CRC 7BDA5B4B
Copy CRC 7BDA5B4B
Track not present in AccurateRip database
Copy OK

Track 11

Filename C:\Thelonious Monk Quartet featuring Johnny Griffin - Complete Live At The Five Spot 1958 [2CD] {Lone Hill Jazz 2009}\CD1\11 - In Walked Bud.wav

Peak level 100.0 %
Track quality 100.0 %
Test CRC 8B15D6E4
Copy CRC 8B15D6E4
Track not present in AccurateRip database
Copy OK


None of the tracks are present in the AccurateRip database

No errors occurred

End of status report
Exact Audio Copy V0.99 prebeta 5 from 4. May 2009

EAC extraction logfile from 9. December 2009, 23:06

Thelonious Monk Quartet featuring Johnny Griffin / Complete Live At The Five Spot 1958 (CD2)

Used drive : TSSTcorpCD/DVDW TS-H552L Adapter: 3 ID: 0

Read mode : Secure
Utilize accurate stream : Yes
Defeat audio cache : Yes
Make use of C2 pointers : No

Read offset correction : 6
Overread into Lead-In and Lead-Out : No
Fill up missing offset samples with silence : Yes
Delete leading and trailing silent blocks : No
Null samples used in CRC calculations : Yes
Used interface : Native Win32 interface for Win NT & 2000
Gap handling : Appended to previous track

Used output format : User Defined Encoder
Selected bitrate : 1024 kBit/s
Quality : High
Add ID3 tag : No
Command line compressor : C:\Program Files\FLAC\flac.exe
Additional command line options : -6 -V -T "ARTIST=%a" -T "TITLE=%t" -T "ALBUM=%g" -T "DATE=%y" -T "TRACKNUMBER=%n" -T "GENRE=%m" -T "COMMENT=EAC FLAC -6" %s


TOC of the extracted CD

Track | Start | Length | Start sector | End sector
––––––––––––––––––––––––––––-
1 | 0:00.00 | 10:47.40 | 0 | 48564
2 | 10:47.40 | 1:04.23 | 48565 | 53387
3 | 11:51.63 | 10:16.51 | 53388 | 99638
4 | 22:08.39 | 9:56.19 | 99639 | 144357
5 | 32:04.58 | 10:57.24 | 144358 | 193656
6 | 43:02.07 | 1:55.71 | 193657 | 202352
7 | 44:58.03 | 6:18.51 | 202353 | 230753
8 | 51:16.54 | 11:55.14 | 230754 | 284392
9 | 63:11.68 | 6:04.05 | 284393 | 311697


Track 1

Filename C:\Thelonious Monk Quartet featuring Johnny Griffin - Complete Live At The Five Spot 1958 [2CD] {Lone Hill Jazz 2009}\CD2\01 - Misterioso.wav

Pre-gap length 0:00:02.00

Peak level 76.1 %
Track quality 99.9 %
Test CRC 63CD2A47
Copy CRC 63CD2A47
Track not present in AccurateRip database
Copy OK

Track 2

Filename C:\Thelonious Monk Quartet featuring Johnny Griffin - Complete Live At The Five Spot 1958 [2CD] {Lone Hill Jazz 2009}\CD2\02 - Epistrophy (Theme).wav

Peak level 74.6 %
Track quality 100.0 %
Test CRC F993A883
Copy CRC F993A883
Track not present in AccurateRip database
Copy OK

Track 3

Filename C:\Thelonious Monk Quartet featuring Johnny Griffin - Complete Live At The Five Spot 1958 [2CD] {Lone Hill Jazz 2009}\CD2\03 - Evidence.wav

Peak level 93.0 %
Track quality 100.0 %
Test CRC 0538CE89
Copy CRC 0538CE89
Track not present in AccurateRip database
Copy OK

Track 4

Filename C:\Thelonious Monk Quartet featuring Johnny Griffin - Complete Live At The Five Spot 1958 [2CD] {Lone Hill Jazz 2009}\CD2\04 - Blues Five Spot.wav

Peak level 96.4 %
Track quality 100.0 %
Test CRC AD864D32
Copy CRC AD864D32
Track not present in AccurateRip database
Copy OK

Track 5

Filename C:\Thelonious Monk Quartet featuring Johnny Griffin - Complete Live At The Five Spot 1958 [2CD] {Lone Hill Jazz 2009}\CD2\05 - In Walked Bud,Epistrophy (Theme).wav

Peak level 100.0 %
Track quality 100.0 %
Test CRC 65BD688C
Copy CRC 65BD688C
Track not present in AccurateRip database
Copy OK

Track 6

Filename C:\Thelonious Monk Quartet featuring Johnny Griffin - Complete Live At The Five Spot 1958 [2CD] {Lone Hill Jazz 2009}\CD2\06 - Sweet Stranger.wav

Peak level 72.3 %
Track quality 100.0 %
Test CRC 9A32C57A
Copy CRC 9A32C57A
Track not present in AccurateRip database
Copy OK

Track 7

Filename C:\Thelonious Monk Quartet featuring Johnny Griffin - Complete Live At The Five Spot 1958 [2CD] {Lone Hill Jazz 2009}\CD2\07 - 'Round Midnight.wav

Peak level 100.0 %
Track quality 100.0 %
Test CRC CA2A86D5
Copy CRC CA2A86D5
Track not present in AccurateRip database
Copy OK

Track 8

Filename C:\Thelonious Monk Quartet featuring Johnny Griffin - Complete Live At The Five Spot 1958 [2CD] {Lone Hill Jazz 2009}\CD2\08 - Bya-Ya,Epistrophy (Theme).wav

Peak level 100.0 %
Track quality 100.0 %
Test CRC 5AB10C6D
Copy CRC 5AB10C6D
Track not present in AccurateRip database
Copy OK

Track 9

Filename C:\Thelonious Monk Quartet featuring Johnny Griffin - Complete Live At The Five Spot 1958 [2CD] {Lone Hill Jazz 2009}\CD2\09 - Coming On The Hudson.wav

Peak level 96.4 %
Track quality 100.0 %
Test CRC ABC6C332
Copy CRC ABC6C332
Track not present in AccurateRip database
Copy OK


None of the tracks are present in the AccurateRip database

No errors occurred

End of status report


Thelonious Monk featuring Johnny Griffin - Complete Live At The Five Spot 1958 (2009) {2CD Set, Lone Hill Jazz LHJ10360}




===