Tags
Language
Tags
April 2024
Su Mo Tu We Th Fr Sa
31 1 2 3 4 5 6
7 8 9 10 11 12 13
14 15 16 17 18 19 20
21 22 23 24 25 26 27
28 29 30 1 2 3 4

Meredith Monk - Piano Songs (2014) {ECM New Series 2374}

Posted By: ruskaval
Meredith Monk - Piano Songs (2014) {ECM New Series 2374}

Meredith Monk - Piano Songs (2014) {ECM New Series 2374}
EAC rip (secure mode) | FLAC (tracks)+CUE+LOG -> 157 Mb | MP3 @320 -> 112 Mb
Full Artwork @ 300 dpi (jpg) -> 17 Mb | 5% repair rar
© 2014 ECM Records | ECM New Series 2374
Jazz / Classical / Modern Composition / Piano

Celebrating Meredith Monk as composer, these Piano Songs give us a world at once playful and earnest. Written or derived from work composed between 1971 and 2006, the pieces inhabit Monk’s unique universe, as played by two of new music’s most distinguished interpreters, pianists Ursula Oppens and Bruce Brubaker. These pieces are ‘songs’ because they have strong roots in Monk’s pieces for voice, and because they are direct, specific, and imagistic.

Meredith Monk on composing for two pianos: “I delved into different relationships and possibilities between them; material passed back and forth, dialogues, interlocking phrases, shifts of figure and ground. In some pieces, I emphasized the individuality of each piano, writing for one player as the ‘singer’, the other as the ‘accompaniment’; in other pieces I wanted the two pianos to make one large sound.”
Meredith Monk - Piano Songs (2014) {ECM New Series 2374}


Personnel
Ursula Oppens & Bruce Brubaker, pianos

Recorded April 2012
Jordan Hall, New England Conservatory,
Boston, Massachusetts


Track Listing
01 - Obsolete Objects (1996)
02 - Ellis Island (1981)
03 - Folkdance (1996)
04 - urban march (shadow) (2001)
05 - Tower (1971)
06 - Paris (1972)
07 - Railroad (Travel Song) (1981)
08 - Parlour Games (1988)
09 - St. Petersburg Waltz (1993)
10 - Window in 7's (1986)
11 - totentanz (2006)
12 - Phantom Waltz (1989)

Exact Audio Copy V1.0 beta 3 from 29. August 2011

EAC extraction logfile from 11. October 2014, 12:48

Meredith Monk / Piano Songs

Used drive : TSSTcorpCDDVDW SH-224BB Adapter: 0 ID: 0

Read mode : Secure
Utilize accurate stream : Yes
Defeat audio cache : Yes
Make use of C2 pointers : No

Read offset correction : 6
Overread into Lead-In and Lead-Out : No
Fill up missing offset samples with silence : Yes
Delete leading and trailing silent blocks : No
Null samples used in CRC calculations : Yes
Used interface : Native Win32 interface for Win NT & 2000
Gap handling : Appended to previous track

Used output format : User Defined Encoder
Selected bitrate : 768 kBit/s
Quality : High
Add ID3 tag : No
Command line compressor : C:\Program Files (x86)\Exact Audio Copy\Flac\flac.exe
Additional command line options : -8 -V -T "ARTIST=%artist%" -T "TITLE=%title%" -T "ALBUM=%albumtitle%" -T "DATE=%year%" -T "TRACKNUMBER=%tracknr%" -T "TOTALTRACKS=%numtracks%" -T "GENRE=%genre%" -T "ALBUMARTIST=%albumartist%" -T "ALBUM ARTIST=%albumartist%" -T "COMMENT=EAC Secure Mode, Test & Copy, AccurateRip, FLAC -8" %source%


TOC of the extracted CD

Track | Start | Length | Start sector | End sector
––––––––––––––––––––––––––––-
1 | 0:00.00 | 1:59.51 | 0 | 8975
2 | 1:59.51 | 3:02.28 | 8976 | 22653
3 | 5:02.04 | 4:03.10 | 22654 | 40888
4 | 9:05.14 | 3:08.44 | 40889 | 55032
5 | 12:13.58 | 1:37.20 | 55033 | 62327
6 | 13:51.03 | 3:11.28 | 62328 | 76680
7 | 17:02.31 | 2:15.59 | 76681 | 86864
8 | 19:18.15 | 7:37.27 | 86865 | 121166
9 | 26:55.42 | 7:04.63 | 121167 | 153029
10 | 34:00.30 | 2:46.35 | 153030 | 165514
11 | 36:46.65 | 3:07.07 | 165515 | 179546
12 | 39:53.72 | 7:14.48 | 179547 | 212144


Track 1

Filename C:\AneL\01 - Obsolete Objects (1996).wav

Pre-gap length 0:00:02.00

Peak level 59.8 %
Extraction speed 3.8 X
Track quality 100.0 %
Test CRC 4B6DBEA0
Copy CRC 4B6DBEA0
Accurately ripped (confidence 3) [73A256A5] (AR v2)
Copy OK

Track 2

Filename C:\AneL\02 - Ellis Island (1981).wav

Peak level 30.0 %
Extraction speed 4.4 X
Track quality 100.0 %
Test CRC DA00B7E9
Copy CRC DA00B7E9
Accurately ripped (confidence 3) [CC02B8A9] (AR v2)
Copy OK

Track 3

Filename C:\AneL\03 - Folkdance (1996).wav

Peak level 95.7 %
Extraction speed 5.0 X
Track quality 100.0 %
Test CRC F197E359
Copy CRC F197E359
Accurately ripped (confidence 3) [17B670B3] (AR v2)
Copy OK

Track 4

Filename C:\AneL\04 - urban march (shadow) (2001).wav

Peak level 100.0 %
Extraction speed 3.9 X
Track quality 99.9 %
Test CRC FE7064F8
Copy CRC FE7064F8
Accurately ripped (confidence 3) [2C41A8BD] (AR v2)
Copy OK

Track 5

Filename C:\AneL\05 - Tower (1971).wav

Peak level 61.5 %
Extraction speed 3.1 X
Track quality 99.8 %
Test CRC 194662FA
Copy CRC 194662FA
Accurately ripped (confidence 3) [18C3DD40] (AR v2)
Copy OK

Track 6

Filename C:\AneL\06 - Paris (1972).wav

Peak level 81.2 %
Extraction speed 5.6 X
Track quality 100.0 %
Test CRC 24B78D92
Copy CRC 24B78D92
Accurately ripped (confidence 3) [05B6A934] (AR v2)
Copy OK

Track 7

Filename C:\AneL\07 - Railroad (Travel Song) (1981).wav

Peak level 53.5 %
Extraction speed 3.9 X
Track quality 99.9 %
Test CRC 7471DCC0
Copy CRC 7471DCC0
Accurately ripped (confidence 3) [C1E3EE7C] (AR v2)
Copy OK

Track 8

Filename C:\AneL\08 - Parlour Games (1988).wav

Peak level 82.0 %
Extraction speed 6.9 X
Track quality 100.0 %
Test CRC F19ABF57
Copy CRC F19ABF57
Accurately ripped (confidence 3) [58DE6685] (AR v2)
Copy OK

Track 9

Filename C:\AneL\09 - St. Petersburg Waltz (1993).wav

Peak level 50.5 %
Extraction speed 7.4 X
Track quality 100.0 %
Test CRC CBD82F3C
Copy CRC CBD82F3C
Accurately ripped (confidence 3) [B775B8CC] (AR v2)
Copy OK

Track 10

Filename C:\AneL\10 - Window in 7's (1986).wav

Peak level 63.2 %
Extraction speed 6.8 X
Track quality 100.0 %
Test CRC 3D2896DF
Copy CRC 3D2896DF
Accurately ripped (confidence 3) [B600C1A5] (AR v2)
Copy OK

Track 11

Filename C:\AneL\11 - totentanz (2006).wav

Peak level 68.3 %
Extraction speed 7.1 X
Track quality 100.0 %
Test CRC FA477421
Copy CRC FA477421
Accurately ripped (confidence 3) [C9FED176] (AR v2)
Copy OK

Track 12

Filename C:\AneL\12 - Phantom Waltz (1989).wav

Peak level 66.7 %
Extraction speed 8.3 X
Track quality 100.0 %
Test CRC 3E291790
Copy CRC 3E291790
Accurately ripped (confidence 3) [DA03E0D6] (AR v2)
Copy OK


All tracks accurately ripped

No errors occurred

End of status report

==== Log checksum 388B5E12B9D2F220C1BA1429CE29A62E1CBB8D08B22954B071ED0DB3030AEB7A ====


Meredith Monk - Piano Songs (2014) {ECM New Series 2374}

Meredith Monk - Piano Songs (2014) {ECM New Series 2374}



===