Tags
Language
Tags
March 2024
Su Mo Tu We Th Fr Sa
25 26 27 28 29 1 2
3 4 5 6 7 8 9
10 11 12 13 14 15 16
17 18 19 20 21 22 23
24 25 26 27 28 29 30
31 1 2 3 4 5 6

Letizia Onorati - Notes and Words (2018)

Posted By: delpotro
Letizia Onorati - Notes and Words (2018)

Letizia Onorati - Notes and Words (2018)
EAC Rip | FLAC (tracks+log+.cue) - 284 Mb | MP3 CBR 320 kbps - 112 Mb | 00:48:43
Contemporary Jazz, Vocal Jazz | Label: Incipit Records

Uscirà il 19 gennaio 2018 “NOTES AND WORDS”, l’ultimo progetto di LETIZIA ONORATI, giovane e talentuosa cantante jazz leccese, alla sua seconda esperienza discografica. Autrice o coautrice di quasi tutti i testi, ora Letizia si presenta per la prima volta come compositrice. I 9 brani inediti sono composti e arrangiati da Paolo Di Sabatino (sua anche la rielaborazione dei 3 standard che completano il lavoro), vero e proprio “regista” del lavoro realizzato.

ssoluto rilievo le presenze di Flavio Boltro alla tromba, Max Ionata al sax, Giovanna Famulari al violoncello, Daniele Mencarelli al basso elettrico e contrabbasso, Glauco Di Sabatino alla batteria e Bruno Marcozzi alle percussioni. Special guest il notissimo crooner newyorkese Sachal Vasandani.

«Questo disco sono io, mi rappresenta totalmente – afferma Letizia – le mille sfaccettature di una strobosfera che si muove e prova a illuminare tutto. La forza propulsiva è la musica senza la quale non ci sarebbe niente. La musica che ti fa crescere, che ti fa maturare e ti fa capire giorno dopo giorno chi sei veramente. La musica che ti risolleva quando cadi, che ti costruisce quando ti senti in frantumi e che ti fa sopportare il dolore. La musica che amplifica la gioia, che regola il ritmo del tuo respiro e accompagna le pulsazioni del cuore. Con questo disco posso viaggiare dentro me stessa ma posso raccontare, a chi lo ascolta, ogni tappa del viaggio».

Letizia Onorati è una cantante leccese, classe 1992. La sua passione per la musica inizia sin da piccola e all’età di otto anni comincia a studiare canto con l’insegnante Elisabetta Guido. Ha studiato negli anni con importanti esponenti del panorama jazz nazionale e internazionale come Roberta Gambarini, Rachel Gould, Mark Sherman, Jerry Bergonzi, Francesco Petreni, Maria Laura Bigliazzi, Mauro Campobasso, Fabrizia Barresi, Bob Stoloff che la sceglie per una borsa di studio e Paolo Di Sabatino diventato suo pianista, arrangiatore e produttore artistico. È stata solista del coro gospel “A. M. Family” e ha partecipato al progetto “Le sacrè en musique” ideato da Elisabetta Guido e dalla manager internazionale della danza Sofia Capestro. Ha collaborato con Flavio Boltro, Giovanna Famulari, Max Ionata, Mirko Signorile, Sachal Vasandani, , Barbara Errico (Italian Jazz Awards 2011), Tia Architto, Sergio Corbini (Siena Jazz pianist). Da maggio 2015 avvia un percorso di perfezionamento con la “lady” del jazz Tiziana Ghiglioni.
Tracklist:
1. A Better Place (3:29)
2. Notes and Words (3:38)
3. Right or Wrong (3:44)
4. Yesterday (3:43)
5. Dancing on the Moonlight (5:21)
6. Time to Dream (3:10)
7. Once Again (5:41)
8. Blue (4:29)
9. The Nearness of You (3:54)
10. Life (3:44)
11. Stella by Starlight (3:54)
12. Quadrinhos (3:52)

Exact Audio Copy V1.3 from 2. September 2016

EAC extraction logfile from 10. July 2018, 16:37

Letizia Onorati / Notes and Words

Used drive : hp DVDRW DU8A6SH Adapter: 1 ID: 0

Read mode : Secure
Utilize accurate stream : Yes
Defeat audio cache : Yes
Make use of C2 pointers : No

Read offset correction : 6
Overread into Lead-In and Lead-Out : No
Fill up missing offset samples with silence : Yes
Delete leading and trailing silent blocks : No
Null samples used in CRC calculations : Yes
Used interface : Native Win32 interface for Win NT & 2000
Gap handling : Appended to previous track

Used output format : User Defined Encoder
Selected bitrate : 128 kBit/s
Quality : High
Add ID3 tag : No
Command line compressor : C:\Program Files (x86)\Exact Audio Copy\Flac\flac.exe
Additional command line options : -8 -e -p -V -T "ARTIST=%artist%" -T "TITLE=%title%" -T "ALBUM=%albumtitle%" -T "DATE=%year%" -T "TRACKNUMBER=%tracknr%" -T "GENRE=%genre%" -T "PERFORMER=%albuminterpret%" -T "COMPOSER=%composer%" %haslyrics%–tag-from-file=LYRICS="%lyricsfile%"%haslyrics% -T "ALBUMARTIST=%albumartist%" -T "DISCNUMBER=%cdnumber%" -T "TOTALDISCS=%totalcds%" -T "TOTALTRACKS=%numtracks%" -T "COMMENT=%comment%" %source% -o %dest%


TOC of the extracted CD

Track | Start | Length | Start sector | End sector
––––––––––––––––––––––––––––-
1 | 0:00.00 | 3:29.26 | 0 | 15700
2 | 3:29.26 | 3:38.15 | 15701 | 32065
3 | 7:07.41 | 3:44.17 | 32066 | 48882
4 | 10:51.58 | 3:43.29 | 48883 | 65636
5 | 14:35.12 | 5:21.67 | 65637 | 89778
6 | 19:57.04 | 3:10.31 | 89779 | 104059
7 | 23:07.35 | 5:41.06 | 104060 | 129640
8 | 28:48.41 | 4:29.14 | 129641 | 149829
9 | 33:17.55 | 3:54.26 | 149830 | 167405
10 | 37:12.06 | 3:44.51 | 167406 | 184256
11 | 40:56.57 | 3:54.53 | 184257 | 201859
12 | 44:51.35 | 3:52.32 | 201860 | 219291


Track 1

Filename C:\EAC Rips\Letizia Onorati - Notes and Words (2018) [FLAC]\01 - A Better Place.wav

Pre-gap length 0:00:02.00

Peak level 98.8 %
Extraction speed 2.6 X
Track quality 100.0 %
Test CRC 0C79B5F9
Copy CRC 0C79B5F9
Track not present in AccurateRip database
Copy OK

Track 2

Filename C:\EAC Rips\Letizia Onorati - Notes and Words (2018) [FLAC]\02 - Notes and Words.wav

Pre-gap length 0:00:02.00

Peak level 98.8 %
Extraction speed 2.8 X
Track quality 100.0 %
Test CRC F166E011
Copy CRC F166E011
Track not present in AccurateRip database
Copy OK

Track 3

Filename C:\EAC Rips\Letizia Onorati - Notes and Words (2018) [FLAC]\03 - Right or Wrong.wav

Pre-gap length 0:00:02.00

Peak level 98.8 %
Extraction speed 3.1 X
Track quality 100.0 %
Test CRC FA5B4C0B
Copy CRC FA5B4C0B
Track not present in AccurateRip database
Copy OK

Track 4

Filename C:\EAC Rips\Letizia Onorati - Notes and Words (2018) [FLAC]\04 - Yesterday.wav

Pre-gap length 0:00:02.00

Peak level 98.8 %
Extraction speed 3.4 X
Track quality 100.0 %
Test CRC 035C088D
Copy CRC 035C088D
Track not present in AccurateRip database
Copy OK

Track 5

Filename C:\EAC Rips\Letizia Onorati - Notes and Words (2018) [FLAC]\05 - Dancing on the Moonlight.wav

Pre-gap length 0:00:02.00

Peak level 98.8 %
Extraction speed 3.8 X
Track quality 100.0 %
Test CRC C389D686
Copy CRC C389D686
Track not present in AccurateRip database
Copy OK

Track 6

Filename C:\EAC Rips\Letizia Onorati - Notes and Words (2018) [FLAC]\06 - Time to Dream.wav

Pre-gap length 0:00:02.00

Peak level 98.8 %
Extraction speed 3.8 X
Track quality 100.0 %
Test CRC 171E8BCA
Copy CRC 171E8BCA
Track not present in AccurateRip database
Copy OK

Track 7

Filename C:\EAC Rips\Letizia Onorati - Notes and Words (2018) [FLAC]\07 - Once Again.wav

Pre-gap length 0:00:02.00

Peak level 98.8 %
Extraction speed 4.3 X
Track quality 100.0 %
Test CRC CD138594
Copy CRC CD138594
Track not present in AccurateRip database
Copy OK

Track 8

Filename C:\EAC Rips\Letizia Onorati - Notes and Words (2018) [FLAC]\08 - Blue.wav

Pre-gap length 0:00:02.00

Peak level 98.8 %
Extraction speed 4.4 X
Track quality 100.0 %
Test CRC A4C6F05A
Copy CRC A4C6F05A
Track not present in AccurateRip database
Copy OK

Track 9

Filename C:\EAC Rips\Letizia Onorati - Notes and Words (2018) [FLAC]\09 - The Nearness of You.wav

Pre-gap length 0:00:02.00

Peak level 98.8 %
Extraction speed 3.8 X
Track quality 99.9 %
Test CRC BE274F7C
Copy CRC BE274F7C
Track not present in AccurateRip database
Copy OK

Track 10

Filename C:\EAC Rips\Letizia Onorati - Notes and Words (2018) [FLAC]\10 - Life.wav

Pre-gap length 0:00:02.00

Peak level 98.8 %
Extraction speed 4.7 X
Track quality 100.0 %
Test CRC D8723567
Copy CRC D8723567
Track not present in AccurateRip database
Copy OK

Track 11

Filename C:\EAC Rips\Letizia Onorati - Notes and Words (2018) [FLAC]\11 - Stella by Starlight.wav

Pre-gap length 0:00:02.00

Peak level 98.8 %
Extraction speed 4.0 X
Track quality 99.9 %
Test CRC 2925FB41
Copy CRC 2925FB41
Track not present in AccurateRip database
Copy OK

Track 12

Filename C:\EAC Rips\Letizia Onorati - Notes and Words (2018) [FLAC]\12 - Quadrinhos.wav

Pre-gap length 0:00:02.00

Peak level 98.8 %
Extraction speed 4.2 X
Track quality 99.9 %
Test CRC 3606AA43
Copy CRC 3606AA43
Track not present in AccurateRip database
Copy OK


None of the tracks are present in the AccurateRip database

No errors occurred

End of status report

–– CUETools DB Plugin V2.1.6

[CTDB TOCID: IOOXCN4n8qDBkONohiPbFjSKFyo-] disk not present in database
Submit result: IOOXCN4n8qDBkONohiPbFjSKFyo- has been uploaded


==== Log checksum A9BBC52EB56036F3346163A3F63B43D89A187EB7AE0BBAB6FB8DCFF7578CF832 ====

Thanks to the Original ripper PeepingTomPayne !