Subcategories

VA - The Infinite Zero Almanac 1996 Volume V (1996) {american recordings}

Posted By: TestTickles
VA - The Infinite Zero Almanac 1996 Volume V (1996) {american recordings}

VA - The Infinite Zero Almanac 1996 Volume V (1996) {american recordings}
EAC Rip | FLAC with CUE and log | scans | 470 mb
MP3 CBR 320kbps | RAR | 201 mb
Genre: go-go, new wave, blues, punk, jazz, spoken word, synth pop, no wave, post-punk

The Infinite Zero Almanac 1996 Volume V is a 1996 compilation released by the Infinite Zero label, a subsidiary of american recordings founded by Rick Rubin and Henry Rollins. The compilation focuses on CD's they reissued in the mid-1990's, including music by Trouble Funk, Louise Huebner, Devo, Gang Of Four, Matthew Shipp, Tom Verlaine, and others.

VA - The Infinite Zero Almanac 1996 Volume V (1996) {american recordings}

01. Trouble Funk - Part A
02. Trouble Funk - Part C
03. Louise Huebner - The Demon Spell For Energy
04. Louise Huebner - Charms From Around The World
05. James White - The Natives Are Restless
06. James White - Caravan,It Don't Mean A Thing,Melt Yourself Down
07. Gang Of Four - Cheeseburger
08. Flipper - Get Away
09. Tom Verlaine - Mary Marie
10. Mississippi Fred McDowell - When I Lay My Burden Down
11. Matthew Shipp - Circular Temple #2
12. Alan Watts - Readings From Hindu
13. Devo - The Day My Baby Gave Me A Surprise
14. Alan Vega - Christ Dice
15. Iceberg Slim - Durealla (Excerpt)

Exact Audio Copy V1.0 beta 6 from 9. April 2015

EAC extraction logfile from 4. January 2018, 13:09

Various Artists / The Infinite Zero Almanac 1996 Volume V

Used drive : TSSTcorpDVD+-RW TS-L633C Adapter: 1 ID: 0

Read mode : Secure
Utilize accurate stream : Yes
Defeat audio cache : Yes
Make use of C2 pointers : No

Read offset correction : 6
Overread into Lead-In and Lead-Out : No
Fill up missing offset samples with silence : Yes
Delete leading and trailing silent blocks : No
Null samples used in CRC calculations : Yes
Used interface : Native Win32 interface for Win NT & 2000
Gap handling : Appended to previous track

Used output format : Internal WAV Routines
Sample format : 44.100 Hz; 16 Bit; Stereo


TOC of the extracted CD

Track | Start | Length | Start sector | End sector
––––––––––––––––––––––––––––-
1 | 0:00.00 | 3:02.32 | 0 | 13681
2 | 3:02.32 | 3:02.60 | 13682 | 27391
3 | 6:05.17 | 2:51.68 | 27392 | 40284
4 | 8:57.10 | 4:28.10 | 40285 | 60394
5 | 13:25.20 | 7:43.47 | 60395 | 95166
6 | 21:08.67 | 8:47.13 | 95167 | 134704
7 | 29:56.05 | 4:07.67 | 134705 | 153296
8 | 34:03.72 | 2:59.05 | 153297 | 166726
9 | 37:03.02 | 4:25.48 | 166727 | 186649
10 | 41:28.50 | 10:01.30 | 186650 | 231754
11 | 51:30.05 | 3:30.02 | 231755 | 247506
12 | 55:00.07 | 2:43.13 | 247507 | 259744
13 | 57:43.20 | 5:50.40 | 259745 | 286034
14 | 63:33.60 | 2:59.17 | 286035 | 299476
15 | 66:33.02 | 3:25.03 | 299477 | 314854


Track 1

Filename C:\My Documents\My FLAC\VA - The Infinite Zero Almanac 1996 Volume V (1996) [FLAC] {american recordings}\01 - Trouble Funk - Part A.wav

Pre-gap length 0:00:02.00

Peak level 97.2 %
Extraction speed 1.1 X
Track quality 100.0 %
Test CRC E6827350
Copy CRC E6827350
Accurately ripped (confidence 1) [2B6EEA01] (AR v2)
Copy OK

Track 2

Filename C:\My Documents\My FLAC\VA - The Infinite Zero Almanac 1996 Volume V (1996) [FLAC] {american recordings}\02 - Trouble Funk - Part C.wav

Pre-gap length 0:00:01.37

Peak level 97.2 %
Extraction speed 1.2 X
Track quality 100.0 %
Test CRC 4BB423EF
Copy CRC 4BB423EF
Accurately ripped (confidence 1) [6893FC99] (AR v2)
Copy OK

Track 3

Filename C:\My Documents\My FLAC\VA - The Infinite Zero Almanac 1996 Volume V (1996) [FLAC] {american recordings}\03 - Louise Huebner - The Demon Spell For Energy.wav

Pre-gap length 0:00:02.25

Peak level 94.6 %
Extraction speed 1.3 X
Track quality 100.0 %
Test CRC 2AEAC7AB
Copy CRC 2AEAC7AB
Accurately ripped (confidence 1) [FF2AAF67] (AR v2)
Copy OK

Track 4

Filename C:\My Documents\My FLAC\VA - The Infinite Zero Almanac 1996 Volume V (1996) [FLAC] {american recordings}\04 - Louise Huebner - Charms From Around The World.wav

Pre-gap length 0:00:02.00

Peak level 94.6 %
Extraction speed 1.5 X
Track quality 100.0 %
Test CRC C10FCD9C
Copy CRC C10FCD9C
Accurately ripped (confidence 1) [0ABD8139] (AR v2)
Copy OK

Track 5

Filename C:\My Documents\My FLAC\VA - The Infinite Zero Almanac 1996 Volume V (1996) [FLAC] {american recordings}\05 - James White - The Natives Are Restless.wav

Pre-gap length 0:00:01.58

Peak level 94.6 %
Extraction speed 1.7 X
Track quality 100.0 %
Test CRC CD84B6AC
Copy CRC CD84B6AC
Accurately ripped (confidence 1) [C528C84B] (AR v2)
Copy OK

Track 6

Filename C:\My Documents\My FLAC\VA - The Infinite Zero Almanac 1996 Volume V (1996) [FLAC] {american recordings}\06 - James White - Caravan,It Don't Mean A Thing,Melt Yourself Down.wav

Pre-gap length 0:00:03.42

Peak level 94.6 %
Extraction speed 1.8 X
Track quality 99.9 %
Test CRC 90D97504
Copy CRC 90D97504
Accurately ripped (confidence 1) [909CD770] (AR v2)
Copy OK

Track 7

Filename C:\My Documents\My FLAC\VA - The Infinite Zero Almanac 1996 Volume V (1996) [FLAC] {american recordings}\07 - Gang Of Four - Cheeseburger.wav

Pre-gap length 0:00:02.50

Peak level 100.0 %
Extraction speed 1.9 X
Track quality 100.0 %
Test CRC B0078EAC
Copy CRC B0078EAC
Accurately ripped (confidence 1) [1E57039E] (AR v2)
Copy OK

Track 8

Filename C:\My Documents\My FLAC\VA - The Infinite Zero Almanac 1996 Volume V (1996) [FLAC] {american recordings}\08 - Flipper - Get Away.wav

Pre-gap length 0:00:02.30

Peak level 92.0 %
Extraction speed 1.9 X
Track quality 100.0 %
Test CRC 510F892A
Copy CRC 510F892A
Accurately ripped (confidence 1) [6ACA322A] (AR v2)
Copy OK

Track 9

Filename C:\My Documents\My FLAC\VA - The Infinite Zero Almanac 1996 Volume V (1996) [FLAC] {american recordings}\09 - Tom Verlaine - Mary Marie.wav

Pre-gap length 0:00:03.10

Peak level 94.6 %
Extraction speed 2.1 X
Track quality 100.0 %
Test CRC E6EAAED5
Copy CRC E6EAAED5
Accurately ripped (confidence 1) [D0DBA3C4] (AR v2)
Copy OK

Track 10

Filename C:\My Documents\My FLAC\VA - The Infinite Zero Almanac 1996 Volume V (1996) [FLAC] {american recordings}\10 - Mississippi Fred McDowell - When I Lay My Burden Down.wav

Pre-gap length 0:00:02.10

Peak level 89.5 %
Extraction speed 2.4 X
Track quality 100.0 %
Test CRC CB68BDDE
Copy CRC CB68BDDE
Accurately ripped (confidence 1) [910CF4EF] (AR v2)
Copy OK

Track 11

Filename C:\My Documents\My FLAC\VA - The Infinite Zero Almanac 1996 Volume V (1996) [FLAC] {american recordings}\11 - Matthew Shipp - Circular Temple #2.wav

Pre-gap length 0:00:02.15

Peak level 63.0 %
Extraction speed 0.5 X
Track quality 100.0 %
Test CRC 67DA3FEC
Copy CRC 67DA3FEC
Accurately ripped (confidence 1) [98CF2A33] (AR v2)
Copy OK

Track 12

Filename C:\My Documents\My FLAC\VA - The Infinite Zero Almanac 1996 Volume V (1996) [FLAC] {american recordings}\12 - Alan Watts - Readings From Hindu.wav

Pre-gap length 0:00:01.60

Peak level 94.6 %
Extraction speed 2.2 X
Track quality 100.0 %
Test CRC 2A8B5209
Copy CRC 2A8B5209
Accurately ripped (confidence 1) [DB892AEF] (AR v2)
Copy OK

Track 13

Filename C:\My Documents\My FLAC\VA - The Infinite Zero Almanac 1996 Volume V (1996) [FLAC] {american recordings}\13 - Devo - The Day My Baby Gave Me A Surprise.wav

Pre-gap length 0:00:02.13

Peak level 97.2 %
Extraction speed 2.5 X
Track quality 100.0 %
Test CRC B4858279
Copy CRC B4858279
Accurately ripped (confidence 1) [2E841482] (AR v2)
Copy OK

Track 14

Filename C:\My Documents\My FLAC\VA - The Infinite Zero Almanac 1996 Volume V (1996) [FLAC] {american recordings}\14 - Alan Vega - Christ Dice.wav

Pre-gap length 0:00:02.35

Peak level 89.5 %
Extraction speed 2.3 X
Track quality 100.0 %
Test CRC 03CC0B4E
Copy CRC 03CC0B4E
Accurately ripped (confidence 1) [E9F1470F] (AR v2)
Copy OK

Track 15

Filename C:\My Documents\My FLAC\VA - The Infinite Zero Almanac 1996 Volume V (1996) [FLAC] {american recordings}\15 - Iceberg Slim - Durealla (Excerpt).wav

Pre-gap length 0:00:02.02

Peak level 94.6 %
Extraction speed 2.5 X
Track quality 100.0 %
Test CRC E7973486
Copy CRC E7973486
Accurately ripped (confidence 1) [3E4BE101] (AR v2)
Copy OK


All tracks accurately ripped

No errors occurred

End of status report

–– CUETools DB Plugin V2.1.6

[CTDB TOCID: TEOcu4wXJlfOE2Ymn1782xQlerc-] disk not present in database
Submit result: TEOcu4wXJlfOE2Ymn1782xQlerc- has been uploaded


==== Log checksum 206F7CBCC61AA394FBEEACCBDEC8DE3F4C0345B4477381474FB72E7D8E1EED3A ====


VA - The Infinite Zero Almanac 1996 Volume V (1996) {american recordings}