Tags
Language
Tags

Jimmy Heath - Picture of Heath (1975/2015)

Posted By: Domestos
Jimmy Heath - Picture of Heath (1975/2015)

Jimmy Heath - Picture of Heath (1975/2015)
XLD Rip | FLAC (tracks+.cue, log) ~ 253.84 Mb | 42:02 | Covers
Hard Bop | Country: USA | Label: Elemental Music (Xanadu Master Edition) - 906072

As was true of most Xanadu dates, the accent is on bebop during this Jimmy Heath LP. Doubling on tenor and soprano, Heath is heard on five of his better originals, including "For Minor's Only," "CTA" and the title cut, plus "Body and Soul." The great tenorman was clearly inspired by the stellar rhythm section (pianist Barry Harris, bassist Sam Jones and drummer Billy Higgins), resulting in one of his best blowing sessions. ~ AllMusic Review by Scott Yanow



Track List:
01. For Minors Only (Heath) - 7:28
02. Body and Soul (Green-Sour-Heyman) - 7:30
03. Picture of Heath (Heath) - 6:07
04. Bruh' Slim (Heath) - 9:06
05. All Members (Heath) - 6:34
06. CTA (Heath) - 5:17

Jimmy Heath - tenor saxophone, soprano saxophone
Barry Harris - piano
Sam Jones - bass
Billy Higgins - drums

Recorded at RCA Studios, New York on September 22, 1975.

Jimmy Heath - Picture of Heath (1975/2015)

X Lossless Decoder version 20160920 (149.2)

XLD extraction logfile from 2017-10-24 15:52:05 +0200

Jimmy Heath / Picture of Heath

Used drive : HL-DT-ST DVDRW GX40N (revision RQ00)
Media type : Pressed CD

Ripper mode : XLD Secure Ripper
Disable audio cache : OK for the drive with a cache less than 1375KiB
Make use of C2 pointers : NO
Read offset correction : 6
Max retry count : 20
Gap status : Analyzed, Appended (except HTOA)

TOC of the extracted CD
Track | Start | Length | Start sector | End sector
––––––––––––––––––––––––––––-
1 | 00:00:00 | 07:28:07 | 0 | 33606
2 | 07:28:07 | 07:29:74 | 33607 | 67355
3 | 14:58:06 | 06:07:19 | 67356 | 94899
4 | 21:05:25 | 09:05:72 | 94900 | 135846
5 | 30:11:22 | 06:33:63 | 135847 | 165384
6 | 36:45:10 | 05:16:56 | 165385 | 189140

AccurateRip Summary (DiscID: 000a789c-00379bff-3c09d906)
Track 01 : OK (v2, confidence 3/3)
Track 02 : OK (v2, confidence 3/3)
Track 03 : OK (v2, confidence 3/3)
Track 04 : OK (v2, confidence 3/3)
Track 05 : OK (v2, confidence 3/3)
Track 06 : OK (v2, confidence 3/3)
->All tracks accurately ripped.

All Tracks
Album gain : -3.99 dB
Peak : 0.999329
Statistics
Read error : 0
Jitter error (maybe fixed) : 0
Retry sector count : 0
Damaged sector count : 0

Track 01
Filename : /rips/Jimmy Heath - Picture of Heath (1975) [FLAC]/01 For Minors Only.flac
Pre-gap length : 00:02:00

Track gain : -4.07 dB
Peak : 0.999329
CRC32 hash (test run) : BC42E1A6
CRC32 hash : BC42E1A6
CRC32 hash (skip zero) : D7D6F422
AccurateRip v1 signature : 3EAB7E37
AccurateRip v2 signature : CD4BD728
->Accurately ripped (v2, confidence 3/3)
Statistics
Read error : 0
Jitter error (maybe fixed) : 0
Retry sector count : 0
Damaged sector count : 0

Track 02
Filename : /rips/Jimmy Heath - Picture of Heath (1975) [FLAC]/02 Body And Soul.flac
Pre-gap length : 00:02:00

Track gain : -1.91 dB
Peak : 0.738678
CRC32 hash (test run) : B1339366
CRC32 hash : B1339366
CRC32 hash (skip zero) : 20551A40
AccurateRip v1 signature : A14728C3
AccurateRip v2 signature : 51B84898
->Accurately ripped (v2, confidence 3/3)
Statistics
Read error : 0
Jitter error (maybe fixed) : 0
Retry sector count : 0
Damaged sector count : 0

Track 03
Filename : /rips/Jimmy Heath - Picture of Heath (1975) [FLAC]/03 Picture of Heath.flac
Pre-gap length : 00:02:00

Track gain : -3.45 dB
Peak : 0.880951
CRC32 hash (test run) : 8C26D92F
CRC32 hash : 8C26D92F
CRC32 hash (skip zero) : 65D83425
AccurateRip v1 signature : 304F364A
AccurateRip v2 signature : 75119B1E
->Accurately ripped (v2, confidence 3/3)
Statistics
Read error : 0
Jitter error (maybe fixed) : 0
Retry sector count : 0
Damaged sector count : 0

Track 04
Filename : /rips/Jimmy Heath - Picture of Heath (1975) [FLAC]/04 Bruh' Slim.flac
Pre-gap length : 00:02:00

Track gain : -4.84 dB
Peak : 0.937439
CRC32 hash (test run) : 5DD1BF6A
CRC32 hash : 5DD1BF6A
CRC32 hash (skip zero) : E0ED51A8
AccurateRip v1 signature : 9725B5F9
AccurateRip v2 signature : F503D737
->Accurately ripped (v2, confidence 3/3)
Statistics
Read error : 0
Jitter error (maybe fixed) : 0
Retry sector count : 0
Damaged sector count : 0

Track 05
Filename : /rips/Jimmy Heath - Picture of Heath (1975) [FLAC]/05 All Members.flac
Pre-gap length : 00:02:00

Track gain : -3.39 dB
Peak : 0.960785
CRC32 hash (test run) : D0A51894
CRC32 hash : D0A51894
CRC32 hash (skip zero) : 9A24AB2C
AccurateRip v1 signature : B016B91A
AccurateRip v2 signature : 6D192294
->Accurately ripped (v2, confidence 3/3)
Statistics
Read error : 0
Jitter error (maybe fixed) : 0
Retry sector count : 0
Damaged sector count : 0

Track 06
Filename : /rips/Jimmy Heath - Picture of Heath (1975) [FLAC]/06 CTA.flac
Pre-gap length : 00:02:00

Track gain : -4.37 dB
Peak : 0.965271
CRC32 hash (test run) : BD4C1076
CRC32 hash : BD4C1076
CRC32 hash (skip zero) : E3F7AB21
AccurateRip v1 signature : A550ECFB
AccurateRip v2 signature : B225A0AE
->Accurately ripped (v2, confidence 3/3)
Statistics
Read error : 0
Jitter error (maybe fixed) : 0
Retry sector count : 0
Damaged sector count : 0

No errors occurred

End of status report

––-BEGIN XLD SIGNATURE––-
8WkfJ6KFYrRtq7qIvNfLzvpZ6A3DuK3XCsaZR3NmwlsmN3XGbm1Ps8NWTrIcHBiRilG8a7nng5WcMcrxKx5o0.XG0VudIyPgERZMhy0
––-END XLD SIGNATURE––-

All thanks go to the jazzambazzador

More Music in My Blog
Follow My RSS Channel