Tags
Language
Tags
June 2024
Su Mo Tu We Th Fr Sa
26 27 28 29 30 31 1
2 3 4 5 6 7 8
9 10 11 12 13 14 15
16 17 18 19 20 21 22
23 24 25 26 27 28 29
30 1 2 3 4 5 6

Jessica Moss - Pools Of Light (2017) {Constellation}

Posted By: shamanicus
Jessica Moss - Pools Of Light (2017) {Constellation}

Jessica Moss - Pools Of Light (2017)
EAC Rip | FLAC (tracks+.cue, log) | Front cover only | 193 mb | MP3 CBR 320kbps | RAR | 115 mb
Rock, Classical, Avantgarde | Label: Constellation - ST124

One of Constellation’s most pivotal contributors, Canadian violinist Jessica Moss, takes the solo spotlight to afford a stunning glimpse of her personal sonic weltanschauung in a rare, captivating away day from the GY!BE, Vic Chesnutt, Black Ox Orkestar, A Silver Mt. Zion and Carl Bozulich ensembles that she frequents.

It wasn’t until 2014, when Thee Silver Mt. Zion Memorial Orchestra went on hiatus after years of touring, that Jessica began to tend to her solo work properly; resulting a self-released album, Under Plastic Island recorded by Guy Piccolo (Fugazi) and released in 2015. Maybe understandably that one flew under many folks’ radars, but the febrile dreams of Pools Of Light warrants and deserves much wider attention to its glorious swells of dissonant, coruscating strings and plangent, effected and multi-tracked vocals, all blossoming from a finely honed matrix of distorting and harmonising pedals, loopers and samplers - with no software plugins used whatsoever, we’re promised.

In the two longform pieces of Pools Of Light we hear Jessica channel years of live performance service on stage with an almost ineffably masterful control and vision, presenting a sound clearly anchored with the patience of someone used to holding their own in the eye of a storm, and instinctively operating at the intersection of myriad styles - neo-classical, improvisational, avant-folk and electronic - with a sure-footed sense of navigation that’s decidedly non-academic, but surely guided by emotion and the impression of the world around her, as she puts it in the liner notes: “Feeling love in a melting world”.

Tracklist:

01. Entire Populations (Pt I)
02. Entire Populations (Pt II)
03. Entire Populations (Pt III)
04. Entire Populations (Pt IV)
05. Glaciers I (Pt I)
06. Glaciers I (Pt II)
07. Glaciers II (Pt I)
08. Glaciers II (Pt II)

Exact Audio Copy V1.3 from 2. September 2016

EAC extraction logfile from 1. April 2017, 2:01

Jessica Moss / Pools of Light

Used drive : PIONEER DVD-RW DVR-215D Adapter: 1 ID: 0

Read mode : Secure
Utilize accurate stream : Yes
Defeat audio cache : Yes
Make use of C2 pointers : No

Read offset correction : 48
Overread into Lead-In and Lead-Out : No
Fill up missing offset samples with silence : Yes
Delete leading and trailing silent blocks : No
Null samples used in CRC calculations : Yes
Used interface : Native Win32 interface for Win NT & 2000
Gap handling : Appended to previous track

Used output format : User Defined Encoder
Selected bitrate : 896 kBit/s
Quality : High
Add ID3 tag : No
Command line compressor : C:\Program Files (x86)\Exact Audio Copy\Flac\flac.exe
Additional command line options : -8 -e -p -V -T "ARTIST=%artist%" -T "TITLE=%title%" -T "ALBUM=%albumtitle%" -T "DATE=%year%" -T "TRACKNUMBER=%tracknr%" -T "GENRE=%genre%" -T "PERFORMER=%albuminterpret%" -T "COMPOSER=%composer%" %haslyrics%–tag-from-file=LYRICS="%lyricsfile%"%haslyrics% -T "ALBUMARTIST=%albumartist%" -T "DISCNUMBER=%cdnumber%" -T "TOTALDISCS=%totalcds%" -T "TOTALTRACKS=%numtracks%" -T "COMMENT=%comment%" %source% -o %dest%


TOC of the extracted CD

Track | Start | Length | Start sector | End sector
––––––––––––––––––––––––––––-
1 | 0:00.00 | 5:39.43 | 0 | 25467
2 | 5:39.43 | 7:33.01 | 25468 | 59443
3 | 13:12.44 | 6:10.51 | 59444 | 87244
4 | 19:23.20 | 4:34.68 | 87245 | 107862
5 | 23:58.13 | 6:32.60 | 107863 | 137322
6 | 30:30.73 | 5:01.41 | 137323 | 159938
7 | 35:32.39 | 7:13.03 | 159939 | 192416
8 | 42:45.42 | 5:47.27 | 192417 | 218468


Track 1

Filename C:\EAC Rips\Jessica Moss - Pools of Light (2017) [FLAC]\01 - Entire Populations (pt 1).wav

Pre-gap length 0:00:02.00

Peak level 95.5 %
Extraction speed 4.6 X
Track quality 100.0 %
Test CRC EF503E35
Copy CRC EF503E35
Track not present in AccurateRip database
Copy OK

Track 2

Filename C:\EAC Rips\Jessica Moss - Pools of Light (2017) [FLAC]\02 - Entire Populations (pt 2).wav

Peak level 79.5 %
Extraction speed 5.2 X
Track quality 100.0 %
Test CRC 090F55E7
Copy CRC 090F55E7
Track not present in AccurateRip database
Copy OK

Track 3

Filename C:\EAC Rips\Jessica Moss - Pools of Light (2017) [FLAC]\03 - Entire Populations (pt 3).wav

Peak level 95.5 %
Extraction speed 5.4 X
Track quality 100.0 %
Test CRC C9515605
Copy CRC C9515605
Track not present in AccurateRip database
Copy OK

Track 4

Filename C:\EAC Rips\Jessica Moss - Pools of Light (2017) [FLAC]\04 - Entire Populations (pt 4).wav

Peak level 21.9 %
Extraction speed 5.7 X
Track quality 99.9 %
Test CRC 3846C82C
Copy CRC 3846C82C
Track not present in AccurateRip database
Copy OK

Track 5

Filename C:\EAC Rips\Jessica Moss - Pools of Light (2017) [FLAC]\05 - Glaciers (pt 1).wav

Peak level 95.5 %
Extraction speed 6.9 X
Track quality 100.0 %
Test CRC 40AF2C7B
Copy CRC 40AF2C7B
Track not present in AccurateRip database
Copy OK

Track 6

Filename C:\EAC Rips\Jessica Moss - Pools of Light (2017) [FLAC]\06 - Glaciers (pt 2).wav

Peak level 53.0 %
Extraction speed 7.1 X
Track quality 100.0 %
Test CRC DA014ED9
Copy CRC DA014ED9
Track not present in AccurateRip database
Copy OK

Track 7

Filename C:\EAC Rips\Jessica Moss - Pools of Light (2017) [FLAC]\07 - Glaciers (pt 3).wav

Peak level 74.3 %
Extraction speed 7.8 X
Track quality 100.0 %
Test CRC 82FB803F
Copy CRC 82FB803F
Track not present in AccurateRip database
Copy OK

Track 8

Filename C:\EAC Rips\Jessica Moss - Pools of Light (2017) [FLAC]\08 - Glaciers (pt 4).wav

Peak level 95.5 %
Extraction speed 1.0 X
Track quality 100.0 %
Test CRC 9F245953
Copy CRC 9F245953
Track not present in AccurateRip database
Copy OK


None of the tracks are present in the AccurateRip database

No errors occurred

End of status report

–– CUETools DB Plugin V2.1.6

[CTDB TOCID: 71NIPRv2aK6TLBBGytsgZGtHF.Q-] disk not present in database
Submit result: 71NIPRv2aK6TLBBGytsgZGtHF.Q- has been uploaded


==== Log checksum B0E72931BCEC8838619704569B0E8E0755B15FB91DE303F6D9996485C075FEAF ====


Thanks to the Original customer.