Subcategories
Tags
Language
Tags

Jeff Beck - performing this week ... live at Ronnie Scott's (2008) {Eagle Rock EAGCD396}

Posted By: ruskaval
Jeff Beck - performing this week ... live at Ronnie Scott's (2008) {Eagle Rock EAGCD396}

Jeff Beck - Performing This Week… Live at Ronnie Scott's (2008) {Eagle Rock EAGCD396}
EAC rip (secure mode) | FLAC (tracks)+CUE+LOG -> 508 Mb | MP3 @320 -> 168 Mb
Full Artwork @ 300 dpi (png) -> 44 Mb | 5% repair rar
© 2008 Deuce Music / Eagle Rock | EAGCD396
Rock / Blues Rock / Fusion / Hard Rock / Guitar Virtuoso

Anyone who caught Jeff Beck's set at Eric Clapton's 2007 Crossroads Guitar Festival (or even the two-song DVD excerpt) was probably salivating at the hope that an entire performance with the same band would appear on CD and DVD. This is it, 72 minutes and 16 tracks compiled from a week of shows at the U.K.'s famed Ronnie Scott's, and it's as impressive as any Beck fan would expect. The guitarist's last official U.S.-released live disc was from his 1976 Wired tour (an authorized "bootleg" of his 2006 tour with bassist Pino Palladino is available at gigs and online; others pop up as expensive imports), making the appearance of this music from just over three decades later a long-awaited, much-anticipated event.

Only one track, the frenzied "Scatterbrain," is repeated here from the 1976 album, but with an entirely different, and arguably more sympathetic, band backing him along with a far longer playing time, this disc is the stronger of the two. Veteran drummer Vinnie Colaiuta nimbly keeps the beat, Jason Rebello's keyboards aren't nearly as intrusive as Jan Hammer's, and young bassist Tal Wilkenfeld's rubbery lines both underpin and, in the case of "Cause We've Ended as Lovers," take the lead when called on with vibrant proficiency and a sure sense of the bottom end needed for Beck's excursions into funk, fusion, reggae, jazz, and rock. The entirely instrumental concert focuses predominantly where you'd expect it to – on Beck's innovative leads as he tears into his catalog of fusion fare, going back to Blow by Blow, with a surprise opening of "Beck's Bolero" from his Jeff Beck Group rock years. A short rendition of Charles Mingus' "Goodbye Pork Pie Hat" that segues into a tense "Brush with the Blues" is a disc highlight, as it shows Beck pulling out many of his six-string tricks and taps into his blues background. "Space Boogie" gives drummer Colaiuta a chance to shine with double-speed licks, and affords keyboardist Rebello a spotlight for his jazz piano skills. But it's Beck who slams into the track with aggressive fluidity, shooting out sizzling solos as the band pushes him along. His sensitive cover of the Beatles' "A Day in the Life," a longtime live staple, is a showstopper bringing Beck's intensity to an arrangement that has stops, starts, and unexpected turns and is, like the guitarist, never predictable. Through it all, Beck's guitar sings, cries, moans, and shouts with as much emotion as a vocalist, showing that an instrument can sing as effectively as a human being, but only in the right hands.
Jeff Beck - performing this week ... live at Ronnie Scott's (2008) {Eagle Rock EAGCD396}


Personnel:
Jeff Beck - guitars
Vinnie Colaiuta - drums
Jason Rebello - keyboards
Tal Wilkenfeld - bass

Track Listing
01 - Beck's Bolero
02 - Eternity's Breath
03 - Stratus
04 - Cause We've Ended As Lovers
05 - Behind The Veil
06 - You Never Know
07 - Nadia
08 - Blast From The East
09 - Led Boots
10 - Angel (Footsteps)
11 - Scatterbrain
12 - Goodbye Pork Pie Hat - Brush With The Blues
13 - Space Boogie
14 - Big Block
15 - A Day In The Life
16 - Where Were You

Exact Audio Copy V1.3 from 2. September 2016

EAC extraction logfile from 20. March 2018, 23:05

Jeff Beck / Performing This Week… Live At Ronnie Scott's

Used drive : HL-DT-STDVDRAM GH22NS70 Adapter: 1 ID: 0

Read mode : Secure
Utilize accurate stream : Yes
Defeat audio cache : Yes
Make use of C2 pointers : No

Read offset correction : 667
Overread into Lead-In and Lead-Out : No
Fill up missing offset samples with silence : Yes
Delete leading and trailing silent blocks : No
Null samples used in CRC calculations : Yes
Used interface : Native Win32 interface for Win NT & 2000
Gap handling : Appended to previous track

Used output format : User Defined Encoder
Selected bitrate : 1024 kBit/s
Quality : High
Add ID3 tag : No
Command line compressor : C:\Program Files (x86)\Exact Audio Copy\Flac\flac.exe
Additional command line options : -8 -e -p -V -T "ARTIST=%artist%" -T "TITLE=%title%" -T "ALBUM=%albumtitle%" -T "DATE=%year%" -T "TRACKNUMBER=%tracknr%" -T "GENRE=%genre%" -T "PERFORMER=%albuminterpret%" -T "COMPOSER=%composer%" %haslyrics%–tag-from-file=LYRICS="%lyricsfile%"%haslyrics% -T "ALBUMARTIST=%albumartist%" -T "DISCNUMBER=%cdnumber%" -T "TOTALDISCS=%totalcds%" -T "TOTALTRACKS=%numtracks%" -T "COMMENT=%comment%" %source% -o %dest%


TOC of the extracted CD

Track | Start | Length | Start sector | End sector
––––––––––––––––––––––––––––-
1 | 0:00.00 | 3:29.61 | 0 | 15735
2 | 3:29.61 | 1:14.58 | 15736 | 21343
3 | 4:44.44 | 4:47.12 | 21344 | 42880
4 | 9:31.56 | 5:17.23 | 42881 | 66678
5 | 14:49.04 | 5:09.34 | 66679 | 89887
6 | 19:58.38 | 3:20.69 | 89888 | 104956
7 | 23:19.32 | 3:41.22 | 104957 | 121553
8 | 27:00.54 | 4:40.51 | 121554 | 142604
9 | 31:41.30 | 4:23.59 | 142605 | 162388
10 | 36:05.14 | 5:41.26 | 162389 | 187989
11 | 41:46.40 | 4:32.18 | 187990 | 208407
12 | 46:18.58 | 6:14.70 | 208408 | 236527
13 | 52:33.53 | 4:20.61 | 236528 | 256088
14 | 56:54.39 | 5:49.03 | 256089 | 282266
15 | 62:43.42 | 4:46.20 | 282267 | 303736
16 | 67:29.62 | 2:51.12 | 303737 | 316573


Track 1

Filename E:\EAC\01 Beck's Bolero.wav

Pre-gap length 0:00:02.00

Peak level 99.8 %
Extraction speed 0.9 X
Track quality 99.9 %
Test CRC EC70DEA1
Copy CRC EC70DEA1
Accurately ripped (confidence 74) [DCF45A40] (AR v2)
Copy OK

Track 2

Filename E:\EAC\02 Eternity's Breath.wav

Peak level 99.8 %
Extraction speed 0.9 X
Track quality 100.0 %
Test CRC F5353D06
Copy CRC F5353D06
Accurately ripped (confidence 74) [E77A2FC9] (AR v2)
Copy OK

Track 3

Filename E:\EAC\03 Stratus.wav

Peak level 99.8 %
Extraction speed 1.1 X
Track quality 99.9 %
Test CRC 08234572
Copy CRC 08234572
Accurately ripped (confidence 74) [AC019D55] (AR v2)
Copy OK

Track 4

Filename E:\EAC\04 Cause We've Ended As Lovers.wav

Peak level 99.8 %
Extraction speed 1.4 X
Track quality 100.0 %
Test CRC D2007472
Copy CRC D2007472
Accurately ripped (confidence 75) [85413791] (AR v2)
Copy OK

Track 5

Filename E:\EAC\05 Behind The Veil.wav

Peak level 99.8 %
Extraction speed 1.5 X
Track quality 100.0 %
Test CRC 22E036DD
Copy CRC 22E036DD
Accurately ripped (confidence 75) [8B5A10EB] (AR v2)
Copy OK

Track 6

Filename E:\EAC\06 You Never Know.wav

Peak level 99.8 %
Extraction speed 1.5 X
Track quality 100.0 %
Test CRC 3F5A1ADB
Copy CRC 3F5A1ADB
Accurately ripped (confidence 75) [4A6DB283] (AR v2)
Copy OK

Track 7

Filename E:\EAC\07 Nadia.wav

Peak level 99.8 %
Extraction speed 1.6 X
Track quality 100.0 %
Test CRC 8440C58D
Copy CRC 8440C58D
Accurately ripped (confidence 75) [4C230ADF] (AR v2)
Copy OK

Track 8

Filename E:\EAC\08 Blast From The East.wav

Peak level 99.8 %
Extraction speed 1.7 X
Track quality 100.0 %
Test CRC 79A13B7B
Copy CRC 79A13B7B
Accurately ripped (confidence 75) [A3D19A57] (AR v2)
Copy OK

Track 9

Filename E:\EAC\09 Led Boots.wav

Peak level 99.8 %
Extraction speed 1.8 X
Track quality 100.0 %
Test CRC B00B808E
Copy CRC B00B808E
Accurately ripped (confidence 75) [068635E5] (AR v2)
Copy OK

Track 10

Filename E:\EAC\10 Angel (Footsteps).wav

Peak level 99.8 %
Extraction speed 2.0 X
Track quality 100.0 %
Test CRC 4728B875
Copy CRC 4728B875
Accurately ripped (confidence 75) [819ADD06] (AR v2)
Copy OK

Track 11

Filename E:\EAC\11 Scatterbrain.wav

Peak level 99.8 %
Extraction speed 1.8 X
Track quality 99.9 %
Test CRC 311CB9EF
Copy CRC 311CB9EF
Accurately ripped (confidence 75) [2EAF8216] (AR v2)
Copy OK

Track 12

Filename E:\EAC\12 Goodbye Pork Pie Hat , Brush With The Blue.wav

Peak level 99.8 %
Extraction speed 2.1 X
Track quality 100.0 %
Test CRC BAE86D1A
Copy CRC BAE86D1A
Accurately ripped (confidence 75) [0734CAA5] (AR v2)
Copy OK

Track 13

Filename E:\EAC\13 Space Boogie.wav

Peak level 99.8 %
Extraction speed 2.1 X
Track quality 100.0 %
Test CRC EA671210
Copy CRC EA671210
Accurately ripped (confidence 75) [621B9E98] (AR v2)
Copy OK

Track 14

Filename E:\EAC\14 Big Block.wav

Peak level 99.8 %
Extraction speed 2.3 X
Track quality 100.0 %
Test CRC B4EE8042
Copy CRC B4EE8042
Accurately ripped (confidence 75) [6A9E26B3] (AR v2)
Copy OK

Track 15

Filename E:\EAC\15 A Day In The Life.wav

Peak level 99.8 %
Extraction speed 2.3 X
Track quality 100.0 %
Test CRC 998677D3
Copy CRC 998677D3
Accurately ripped (confidence 75) [2D24C660] (AR v2)
Copy OK

Track 16

Filename E:\EAC\16 Where Were You.wav

Peak level 99.8 %
Extraction speed 2.2 X
Track quality 100.0 %
Test CRC 25D51079
Copy CRC 25D51079
Accurately ripped (confidence 73) [24C78B2A] (AR v2)
Copy OK


All tracks accurately ripped

No errors occurred

End of status report

–– CUETools DB Plugin V2.1.6

[CTDB TOCID: GOOnWEM5MVXQYc_aUqmEtElJK94-] found
Submit result: GOOnWEM5MVXQYc_aUqmEtElJK94- has been confirmed
Track | CTDB Status
1 | (352/357) Accurately ripped
2 | (354/357) Accurately ripped
3 | (353/357) Accurately ripped
4 | (354/357) Accurately ripped
5 | (354/357) Accurately ripped
6 | (354/357) Accurately ripped
7 | (353/357) Accurately ripped
8 | (353/357) Accurately ripped
9 | (352/357) Accurately ripped
10 | (352/357) Accurately ripped
11 | (352/357) Accurately ripped
12 | (351/357) Accurately ripped
13 | (352/357) Accurately ripped
14 | (348/357) Accurately ripped
15 | (349/357) Accurately ripped
16 | (347/357) Accurately ripped


==== Log checksum 463CBBAC14258173337EFBD604A838C310B2AF02C5CB6BB0EA0C423843540405 ====

––––––––––––––––––––––––––––––

Exact Audio Copy V1.3 from 2. September 2016

EAC extraction logfile from 20. March 2018, 23:05

Jeff Beck / Performing This Week… Live At Ronnie Scott's

Used drive : HL-DT-STDVDRAM GH22NS70 Adapter: 1 ID: 0

Read mode : Secure
Utilize accurate stream : Yes
Defeat audio cache : Yes
Make use of C2 pointers : No

Read offset correction : 667
Overread into Lead-In and Lead-Out : No
Fill up missing offset samples with silence : Yes
Delete leading and trailing silent blocks : No
Null samples used in CRC calculations : Yes
Used interface : Native Win32 interface for Win NT & 2000
Gap handling : Appended to previous track

Used output format : User Defined Encoder
Selected bitrate : 1024 kBit/s
Quality : High
Add ID3 tag : No
Command line compressor : C:\Program Files (x86)\Exact Audio Copy\Flac\flac.exe
Additional command line options : -8 -e -p -V -T "ARTIST=%artist%" -T "TITLE=%title%" -T "ALBUM=%albumtitle%" -T "DATE=%year%" -T "TRACKNUMBER=%tracknr%" -T "GENRE=%genre%" -T "PERFORMER=%albuminterpret%" -T "COMPOSER=%composer%" %haslyrics%–tag-from-file=LYRICS="%lyricsfile%"%haslyrics% -T "ALBUMARTIST=%albumartist%" -T "DISCNUMBER=%cdnumber%" -T "TOTALDISCS=%totalcds%" -T "TOTALTRACKS=%numtracks%" -T "COMMENT=%comment%" %source% -o %dest%


TOC of the extracted CD

Track | Start | Length | Start sector | End sector
––––––––––––––––––––––––––––-
1 | 0:00.00 | 3:29.61 | 0 | 15735
2 | 3:29.61 | 1:14.58 | 15736 | 21343
3 | 4:44.44 | 4:47.12 | 21344 | 42880
4 | 9:31.56 | 5:17.23 | 42881 | 66678
5 | 14:49.04 | 5:09.34 | 66679 | 89887
6 | 19:58.38 | 3:20.69 | 89888 | 104956
7 | 23:19.32 | 3:41.22 | 104957 | 121553
8 | 27:00.54 | 4:40.51 | 121554 | 142604
9 | 31:41.30 | 4:23.59 | 142605 | 162388
10 | 36:05.14 | 5:41.26 | 162389 | 187989
11 | 41:46.40 | 4:32.18 | 187990 | 208407
12 | 46:18.58 | 6:14.70 | 208408 | 236527
13 | 52:33.53 | 4:20.61 | 236528 | 256088
14 | 56:54.39 | 5:49.03 | 256089 | 282266
15 | 62:43.42 | 4:46.20 | 282267 | 303736
16 | 67:29.62 | 2:51.12 | 303737 | 316573


Track 1

Filename E:\EAC\01 Beck's Bolero.wav

Pre-gap length 0:00:02.00

Peak level 99.8 %
Extraction speed 0.9 X
Track quality 99.9 %
Test CRC EC70DEA1
Copy CRC EC70DEA1
Accurately ripped (confidence 74) [DCF45A40] (AR v2)
Copy OK

Track 2

Filename E:\EAC\02 Eternity's Breath.wav

Peak level 99.8 %
Extraction speed 0.9 X
Track quality 100.0 %
Test CRC F5353D06
Copy CRC F5353D06
Accurately ripped (confidence 74) [E77A2FC9] (AR v2)
Copy OK

Track 3

Filename E:\EAC\03 Stratus.wav

Peak level 99.8 %
Extraction speed 1.1 X
Track quality 99.9 %
Test CRC 08234572
Copy CRC 08234572
Accurately ripped (confidence 74) [AC019D55] (AR v2)
Copy OK

Track 4

Filename E:\EAC\04 Cause We've Ended As Lovers.wav

Peak level 99.8 %
Extraction speed 1.4 X
Track quality 100.0 %
Test CRC D2007472
Copy CRC D2007472
Accurately ripped (confidence 75) [85413791] (AR v2)
Copy OK

Track 5

Filename E:\EAC\05 Behind The Veil.wav

Peak level 99.8 %
Extraction speed 1.5 X
Track quality 100.0 %
Test CRC 22E036DD
Copy CRC 22E036DD
Accurately ripped (confidence 75) [8B5A10EB] (AR v2)
Copy OK

Track 6

Filename E:\EAC\06 You Never Know.wav

Peak level 99.8 %
Extraction speed 1.5 X
Track quality 100.0 %
Test CRC 3F5A1ADB
Copy CRC 3F5A1ADB
Accurately ripped (confidence 75) [4A6DB283] (AR v2)
Copy OK

Track 7

Filename E:\EAC\07 Nadia.wav

Peak level 99.8 %
Extraction speed 1.6 X
Track quality 100.0 %
Test CRC 8440C58D
Copy CRC 8440C58D
Accurately ripped (confidence 75) [4C230ADF] (AR v2)
Copy OK

Track 8

Filename E:\EAC\08 Blast From The East.wav

Peak level 99.8 %
Extraction speed 1.7 X
Track quality 100.0 %
Test CRC 79A13B7B
Copy CRC 79A13B7B
Accurately ripped (confidence 75) [A3D19A57] (AR v2)
Copy OK

Track 9

Filename E:\EAC\09 Led Boots.wav

Peak level 99.8 %
Extraction speed 1.8 X
Track quality 100.0 %
Test CRC B00B808E
Copy CRC B00B808E
Accurately ripped (confidence 75) [068635E5] (AR v2)
Copy OK

Track 10

Filename E:\EAC\10 Angel (Footsteps).wav

Peak level 99.8 %
Extraction speed 2.0 X
Track quality 100.0 %
Test CRC 4728B875
Copy CRC 4728B875
Accurately ripped (confidence 75) [819ADD06] (AR v2)
Copy OK

Track 11

Filename E:\EAC\11 Scatterbrain.wav

Peak level 99.8 %
Extraction speed 1.8 X
Track quality 99.9 %
Test CRC 311CB9EF
Copy CRC 311CB9EF
Accurately ripped (confidence 75) [2EAF8216] (AR v2)
Copy OK

Track 12

Filename E:\EAC\12 Goodbye Pork Pie Hat , Brush With The Blue.wav

Peak level 99.8 %
Extraction speed 2.1 X
Track quality 100.0 %
Test CRC BAE86D1A
Copy CRC BAE86D1A
Accurately ripped (confidence 75) [0734CAA5] (AR v2)
Copy OK

Track 13

Filename E:\EAC\13 Space Boogie.wav

Peak level 99.8 %
Extraction speed 2.1 X
Track quality 100.0 %
Test CRC EA671210
Copy CRC EA671210
Accurately ripped (confidence 75) [621B9E98] (AR v2)
Copy OK

Track 14

Filename E:\EAC\14 Big Block.wav

Peak level 99.8 %
Extraction speed 2.3 X
Track quality 100.0 %
Test CRC B4EE8042
Copy CRC B4EE8042
Accurately ripped (confidence 75) [6A9E26B3] (AR v2)
Copy OK

Track 15

Filename E:\EAC\15 A Day In The Life.wav

Peak level 99.8 %
Extraction speed 2.3 X
Track quality 100.0 %
Test CRC 998677D3
Copy CRC 998677D3
Accurately ripped (confidence 75) [2D24C660] (AR v2)
Copy OK

Track 16

Filename E:\EAC\16 Where Were You.wav

Peak level 99.8 %
Extraction speed 2.2 X
Track quality 100.0 %
Test CRC 25D51079
Copy CRC 25D51079
Accurately ripped (confidence 73) [24C78B2A] (AR v2)
Copy OK


All tracks accurately ripped

No errors occurred

End of status report

–– CUETools DB Plugin V2.1.6

[CTDB TOCID: GOOnWEM5MVXQYc_aUqmEtElJK94-] found
Submit result: GOOnWEM5MVXQYc_aUqmEtElJK94- has been confirmed
Track | CTDB Status
1 | (352/357) Accurately ripped
2 | (354/357) Accurately ripped
3 | (353/357) Accurately ripped
4 | (354/357) Accurately ripped
5 | (354/357) Accurately ripped
6 | (354/357) Accurately ripped
7 | (353/357) Accurately ripped
8 | (353/357) Accurately ripped
9 | (352/357) Accurately ripped
10 | (352/357) Accurately ripped
11 | (352/357) Accurately ripped
12 | (351/357) Accurately ripped
13 | (352/357) Accurately ripped
14 | (348/357) Accurately ripped
15 | (349/357) Accurately ripped
16 | (347/357) Accurately ripped


==== Log checksum 463CBBAC14258173337EFBD604A838C310B2AF02C5CB6BB0EA0C423843540405 ====


Jeff Beck - performing this week ... live at Ronnie Scott's (2008) {Eagle Rock EAGCD396}

Jeff Beck - performing this week ... live at Ronnie Scott's (2008) {Eagle Rock EAGCD396}



===