Subcategories
Tags
Language
Tags

Greenslade - Time and Tide (2CD) (1975/2019)

Posted By: Domestos
Greenslade - Time and Tide (2CD) (1975/2019)

Greenslade - Time and Tide (2CD) (1975/2019)
XLD Rip | FLAC (tracks+.cue, log) ~ 222.37 Mb + 323.46 Mb | 39:20 + 55:57 | Cover
Symphonic Prog | Country: United Kingdom | Label: Esoteric Recordings / PECLEC 22660

Esoteric Recordings is proud to announce the release of a newly re- mastered and expanded 2 CD edition of the classic 1975 album, Time & Tide by GREENSLADE. Formed in 1972 by former Colosseum keyboard player Dave Greenslade, the band also featured former Web and Samurai member Dave Lawson (keyboards, vocals), former Colosseum bass player Tony Reeves and drummer Andrew McCulloch (formerly with King Crimson and Fields). The calibre of the members of Greenslade ensured that the group would be innovative, ground breaking and dynamic in their musical approach and would also be notable due to the absence of a guitarist within their ranks. Following the release of the album Spyglass Guest, Tony Reeves departed the band and was replaced by Martin Briley, who was to feature on the band’s next album. Originally issued in May 1975, Time and Tide was the band’s final album of the 1970s and was a fine record that featured such compositions as ‘Flattery Stakes’, ‘Waltz for a Fallen Idol’, ‘Newsworth’ and ‘The Ass’s Ears’.

Considered by many to be a band at their finest on stage, this expanded edition of Time and Tide includes a bonus CD featuring a superb sixty-minute concert recorded for Swedish Radio in March 1975 in Stockholm, re-mastered from the original Swedish Radio master tapes, offering a glimpse of the excellence of this short-lived line-up of band in a live environment and released officially for the very first time. This Esoteric Recordings expanded edition has been newly re-mastered from the original master tapes and features an illustrated booklet and includes an essay by Malcolm Dome and exclusive interviews with Dave Greenslade and Dave Lawson.



Track List CD1:
01. Animal Farm (3:24)
02. Newsworth (3:03)
03. Time (1:16)
04. Tide (2:51)
05. Catalan (5:03)
06. The Flattery Stakes (3:57)
07. Waltz for a Fallen Idol (3:19)
08. The ass's Ears (3:21)
09. Doldrums (3:42)
10. Gangsters (2:27)
11. Catalan (Single Edit) (3:52)
12. Rubber Face and Lonely Eyes (2:40)

Track List CD2:
01. Pilgrim's Progress (8:03)
02. Newsworth (3:03)
03. The Flattery Stakes (4:42)
04. Bedside Manners Are Extra (6:26)
05. Joie de Vivre (10:58)
06. Waltz For A Fallen Idol (3:11)
07. The Ass's Ear (3:47)
08. Drum Folk (11:59)
09. Spirit Of The Dance (3:44)

- Dave Greenslade / keyboards (all except 1,9)
- Dave Lawson / keyboards (all except 3,4)
- Martin Briley / bass, guitar, back vocal (all except 3,4,9)
- Andrew McCulloch / drums (all except 3,4,9)

Guests:
- Ann Simmons / back vocal on 10
- Jill MacIntosh / back vocal
- Barry Morgan / timbales
- The Treverva Male Choir Directed by Edgar Kessel

X Lossless Decoder version 20181019 (151.1)

XLD extraction logfile from 2019-02-21 19:08:50 +0000

Greenslade / Time and Tide

Used drive : MATSHITA BD-MLT UJ240AF (revision 1.00)
Media type : Pressed CD

Ripper mode : XLD Secure Ripper
Disable audio cache : OK for the drive with a cache less than 1375KiB
Make use of C2 pointers : NO
Read offset correction : 103
Max retry count : 20
Gap status : Analyzed, Appended (except HTOA)

TOC of the extracted CD
Track | Start | Length | Start sector | End sector
––––––––––––––––––––––––––––-
1 | 00:00:05 | 03:26:30 | 5 | 15484
2 | 03:26:35 | 03:04:73 | 15485 | 29357
3 | 06:31:33 | 01:16:54 | 29358 | 35111
4 | 07:48:12 | 02:50:60 | 35112 | 47921
5 | 10:38:72 | 05:06:17 | 47922 | 70888
6 | 15:45:14 | 03:58:40 | 70889 | 88778
7 | 19:43:54 | 03:18:53 | 88779 | 103681
8 | 23:02:32 | 03:24:33 | 103682 | 119014
9 | 26:26:65 | 03:44:46 | 119015 | 135860
10 | 30:11:36 | 02:36:03 | 135861 | 147563
11 | 32:47:39 | 03:52:31 | 147564 | 164994
12 | 36:39:70 | 02:40:31 | 164995 | 177025

AccurateRip Summary
Disc not found in AccurateRip DB.

All Tracks
Album gain : -3.86 dB
Peak : 0.988617
Statistics
Read error : 0
Jitter error (maybe fixed) : 0
Retry sector count : 0
Damaged sector count : 0

Track 01
Filename : /Users/imac/Working Folder/XLD/Greenslade - Time and Tide (1975) [FLAC]/01 Animal Farm.flac
/Users/imac/Working Folder/XLD/Greenslade - Time and Tide (1975) [MP3-320]/01 Animal Farm.mp3
/Users/imac/Working Folder/XLD/Greenslade - Time and Tide (1975) [MP3-V0]/01 Animal Farm.mp3
/Users/imac/Working Folder/XLD/Greenslade - Time and Tide (1975) [MP3-V2]/01 Animal Farm.mp3
Pre-gap length : 00:02:05

Track gain : -5.73 dB
Peak : 0.988617
CRC32 hash (test run) : 7C2FBBB5
CRC32 hash : 7C2FBBB5
CRC32 hash (skip zero) : 89031C03
AccurateRip v1 signature : 36D9FBD9
AccurateRip v2 signature : 9A660C03
->Track not present in AccurateRip database.
Statistics
Read error : 0
Jitter error (maybe fixed) : 0
Retry sector count : 0
Damaged sector count : 0

Track 02
Filename : /Users/imac/Working Folder/XLD/Greenslade - Time and Tide (1975) [FLAC]/02 Newsworth.flac
/Users/imac/Working Folder/XLD/Greenslade - Time and Tide (1975) [MP3-320]/02 Newsworth.mp3
/Users/imac/Working Folder/XLD/Greenslade - Time and Tide (1975) [MP3-V0]/02 Newsworth.mp3
/Users/imac/Working Folder/XLD/Greenslade - Time and Tide (1975) [MP3-V2]/02 Newsworth.mp3
Pre-gap length : 00:00:50

Track gain : -4.32 dB
Peak : 0.988586
CRC32 hash (test run) : 7E7D21A5
CRC32 hash : 7E7D21A5
CRC32 hash (skip zero) : FEA88317
AccurateRip v1 signature : 0F5D61C0
AccurateRip v2 signature : 39F2AD76
->Track not present in AccurateRip database.
Statistics
Read error : 0
Jitter error (maybe fixed) : 0
Retry sector count : 0
Damaged sector count : 0

Track 03
Filename : /Users/imac/Working Folder/XLD/Greenslade - Time and Tide (1975) [FLAC]/03 Time.flac
/Users/imac/Working Folder/XLD/Greenslade - Time and Tide (1975) [MP3-320]/03 Time.mp3
/Users/imac/Working Folder/XLD/Greenslade - Time and Tide (1975) [MP3-V0]/03 Time.mp3
/Users/imac/Working Folder/XLD/Greenslade - Time and Tide (1975) [MP3-V2]/03 Time.mp3
Pre-gap length : 00:01:41

Track gain : -1.83 dB
Peak : 0.754578
CRC32 hash (test run) : 59BB83E3
CRC32 hash : 59BB83E3
CRC32 hash (skip zero) : E4101BF4
AccurateRip v1 signature : 46F11B37
AccurateRip v2 signature : 78295AD2
->Track not present in AccurateRip database.
Statistics
Read error : 0
Jitter error (maybe fixed) : 0
Retry sector count : 0
Damaged sector count : 0

Track 04
Filename : /Users/imac/Working Folder/XLD/Greenslade - Time and Tide (1975) [FLAC]/04 Tide.flac
/Users/imac/Working Folder/XLD/Greenslade - Time and Tide (1975) [MP3-320]/04 Tide.mp3
/Users/imac/Working Folder/XLD/Greenslade - Time and Tide (1975) [MP3-V0]/04 Tide.mp3
/Users/imac/Working Folder/XLD/Greenslade - Time and Tide (1975) [MP3-V2]/04 Tide.mp3

Track gain : -0.83 dB
Peak : 0.701965
CRC32 hash (test run) : 3AAD6204
CRC32 hash : 3AAD6204
CRC32 hash (skip zero) : 4AC042FD
AccurateRip v1 signature : 6DEB7E40
AccurateRip v2 signature : 74E7FA27
->Track not present in AccurateRip database.
Statistics
Read error : 0
Jitter error (maybe fixed) : 0
Retry sector count : 0
Damaged sector count : 0

Track 05
Filename : /Users/imac/Working Folder/XLD/Greenslade - Time and Tide (1975) [FLAC]/05 Catalan.flac
/Users/imac/Working Folder/XLD/Greenslade - Time and Tide (1975) [MP3-320]/05 Catalan.mp3
/Users/imac/Working Folder/XLD/Greenslade - Time and Tide (1975) [MP3-V0]/05 Catalan.mp3
/Users/imac/Working Folder/XLD/Greenslade - Time and Tide (1975) [MP3-V2]/05 Catalan.mp3

Track gain : -4.89 dB
Peak : 0.988586
CRC32 hash (test run) : A5D76B94
CRC32 hash : A5D76B94
CRC32 hash (skip zero) : 98B70D7E
AccurateRip v1 signature : AD05188C
AccurateRip v2 signature : 90A1CF56
->Track not present in AccurateRip database.
Statistics
Read error : 0
Jitter error (maybe fixed) : 0
Retry sector count : 0
Damaged sector count : 0

Track 06
Filename : /Users/imac/Working Folder/XLD/Greenslade - Time and Tide (1975) [FLAC]/06 The Flattery Stakes.flac
/Users/imac/Working Folder/XLD/Greenslade - Time and Tide (1975) [MP3-320]/06 The Flattery Stakes.mp3
/Users/imac/Working Folder/XLD/Greenslade - Time and Tide (1975) [MP3-V0]/06 The Flattery Stakes.mp3
/Users/imac/Working Folder/XLD/Greenslade - Time and Tide (1975) [MP3-V2]/06 The Flattery Stakes.mp3
Pre-gap length : 00:01:31

Track gain : -4.32 dB
Peak : 0.988556
CRC32 hash (test run) : 5F607409
CRC32 hash : 5F607409
CRC32 hash (skip zero) : 297F180B
AccurateRip v1 signature : A9DF0298
AccurateRip v2 signature : 3FF649B3
->Track not present in AccurateRip database.
Statistics
Read error : 0
Jitter error (maybe fixed) : 0
Retry sector count : 0
Damaged sector count : 0

Track 07
Filename : /Users/imac/Working Folder/XLD/Greenslade - Time and Tide (1975) [FLAC]/07 Waltz for a Fallen Idol.flac
/Users/imac/Working Folder/XLD/Greenslade - Time and Tide (1975) [MP3-320]/07 Waltz for a Fallen Idol.mp3
/Users/imac/Working Folder/XLD/Greenslade - Time and Tide (1975) [MP3-V0]/07 Waltz for a Fallen Idol.mp3
/Users/imac/Working Folder/XLD/Greenslade - Time and Tide (1975) [MP3-V2]/07 Waltz for a Fallen Idol.mp3
Pre-gap length : 00:01:37

Track gain : 0.12 dB
Peak : 0.755554
CRC32 hash (test run) : 2738592B
CRC32 hash : 2738592B
CRC32 hash (skip zero) : 99E9F5B5
AccurateRip v1 signature : 9F9D7DF7
AccurateRip v2 signature : E274FE61
->Track not present in AccurateRip database.
Statistics
Read error : 0
Jitter error (maybe fixed) : 0
Retry sector count : 0
Damaged sector count : 0

Track 08
Filename : /Users/imac/Working Folder/XLD/Greenslade - Time and Tide (1975) [FLAC]/08 The Ass's Ears.flac
/Users/imac/Working Folder/XLD/Greenslade - Time and Tide (1975) [MP3-320]/08 The Ass's Ears.mp3
/Users/imac/Working Folder/XLD/Greenslade - Time and Tide (1975) [MP3-V0]/08 The Ass's Ears.mp3
/Users/imac/Working Folder/XLD/Greenslade - Time and Tide (1975) [MP3-V2]/08 The Ass's Ears.mp3

Track gain : -3.84 dB
Peak : 0.950531
CRC32 hash (test run) : 53E9699A
CRC32 hash : 53E9699A
CRC32 hash (skip zero) : B1E28569
AccurateRip v1 signature : B51B5DB1
AccurateRip v2 signature : C62699F7
->Track not present in AccurateRip database.
Statistics
Read error : 0
Jitter error (maybe fixed) : 0
Retry sector count : 0
Damaged sector count : 0

Track 09
Filename : /Users/imac/Working Folder/XLD/Greenslade - Time and Tide (1975) [FLAC]/09 Doldrums.flac
/Users/imac/Working Folder/XLD/Greenslade - Time and Tide (1975) [MP3-320]/09 Doldrums.mp3
/Users/imac/Working Folder/XLD/Greenslade - Time and Tide (1975) [MP3-V0]/09 Doldrums.mp3
/Users/imac/Working Folder/XLD/Greenslade - Time and Tide (1975) [MP3-V2]/09 Doldrums.mp3
Pre-gap length : 00:02:19

Track gain : 2.45 dB
Peak : 0.594635
CRC32 hash (test run) : 0E7E8FE6
CRC32 hash : 0E7E8FE6
CRC32 hash (skip zero) : F5AC7085
AccurateRip v1 signature : D3D8D473
AccurateRip v2 signature : 9D96EF26
->Track not present in AccurateRip database.
Statistics
Read error : 0
Jitter error (maybe fixed) : 0
Retry sector count : 0
Damaged sector count : 0

Track 10
Filename : /Users/imac/Working Folder/XLD/Greenslade - Time and Tide (1975) [FLAC]/10 Gangsters.flac
/Users/imac/Working Folder/XLD/Greenslade - Time and Tide (1975) [MP3-320]/10 Gangsters.mp3
/Users/imac/Working Folder/XLD/Greenslade - Time and Tide (1975) [MP3-V0]/10 Gangsters.mp3
/Users/imac/Working Folder/XLD/Greenslade - Time and Tide (1975) [MP3-V2]/10 Gangsters.mp3
Pre-gap length : 00:02:24

Track gain : -5.34 dB
Peak : 0.988617
CRC32 hash (test run) : 0D68B510
CRC32 hash : 0D68B510
CRC32 hash (skip zero) : F7D80779
AccurateRip v1 signature : 6D74AACF
AccurateRip v2 signature : 49B656DA
->Track not present in AccurateRip database.
Statistics
Read error : 0
Jitter error (maybe fixed) : 0
Retry sector count : 0
Damaged sector count : 0

Track 11
Filename : /Users/imac/Working Folder/XLD/Greenslade - Time and Tide (1975) [FLAC]/11 Catalan (Single Edit).flac
/Users/imac/Working Folder/XLD/Greenslade - Time and Tide (1975) [MP3-320]/11 Catalan (Single Edit).mp3
/Users/imac/Working Folder/XLD/Greenslade - Time and Tide (1975) [MP3-V0]/11 Catalan (Single Edit).mp3
/Users/imac/Working Folder/XLD/Greenslade - Time and Tide (1975) [MP3-V2]/11 Catalan (Single Edit).mp3
Pre-gap length : 00:07:37

Track gain : -4.82 dB
Peak : 0.861053
CRC32 hash (test run) : 898F1A66
CRC32 hash : 898F1A66
CRC32 hash (skip zero) : 8B3D9A87
AccurateRip v1 signature : 42A65070
AccurateRip v2 signature : 595F6E3F
->Track not present in AccurateRip database.
Statistics
Read error : 0
Jitter error (maybe fixed) : 0
Retry sector count : 0
Damaged sector count : 0

Track 12
Filename : /Users/imac/Working Folder/XLD/Greenslade - Time and Tide (1975) [FLAC]/12 Rubber Face and Lonely Eyes.flac
/Users/imac/Working Folder/XLD/Greenslade - Time and Tide (1975) [MP3-320]/12 Rubber Face and Lonely Eyes.mp3
/Users/imac/Working Folder/XLD/Greenslade - Time and Tide (1975) [MP3-V0]/12 Rubber Face and Lonely Eyes.mp3
/Users/imac/Working Folder/XLD/Greenslade - Time and Tide (1975) [MP3-V2]/12 Rubber Face and Lonely Eyes.mp3
Pre-gap length : 00:01:52

Track gain : -3.27 dB
Peak : 0.922607
CRC32 hash (test run) : 26283EA6
CRC32 hash : 26283EA6
CRC32 hash (skip zero) : 633D6D3E
AccurateRip v1 signature : 880798AE
AccurateRip v2 signature : 3185FEC8
->Track not present in AccurateRip database.
Statistics
Read error : 0
Jitter error (maybe fixed) : 0
Retry sector count : 0
Damaged sector count : 0

No errors occurred

End of status report

––-BEGIN XLD SIGNATURE––-
QhdmkcwoVuuxYHiUPQMmMGWXGTKGnwI5zeyCPvgpq45KayK6mhJ55Sr6oZvvtYVhHKeRqvwR7.4a.e3ppOaJAj_cd8YF5I11Px5ivgK
––-END XLD SIGNATURE––-

X Lossless Decoder version 20181019 (151.1)

XLD extraction logfile from 2019-02-22 11:33:40 +0000

Greenslade / Time and Tide

Used drive : MATSHITA BD-MLT UJ240AF (revision 1.00)
Media type : Pressed CD

Ripper mode : XLD Secure Ripper
Disable audio cache : OK for the drive with a cache less than 1375KiB
Make use of C2 pointers : NO
Read offset correction : 103
Max retry count : 20
Gap status : Analyzed, Appended (except HTOA)

TOC of the extracted CD
Track | Start | Length | Start sector | End sector
––––––––––––––––––––––––––––-
1 | 00:00:00 | 08:03:06 | 0 | 36230
2 | 08:03:06 | 03:03:59 | 36231 | 50014
3 | 11:06:65 | 04:42:49 | 50015 | 71213
4 | 15:49:39 | 06:26:06 | 71214 | 100169
5 | 22:15:45 | 10:58:49 | 100170 | 149568
6 | 33:14:19 | 03:11:24 | 149569 | 163917
7 | 36:25:43 | 03:47:43 | 163918 | 180985
8 | 40:13:11 | 11:59:67 | 180986 | 234977
9 | 52:13:03 | 03:44:70 | 234978 | 251847

AccurateRip Summary
Disc not found in AccurateRip DB.

All Tracks
Album gain : -2.76 dB
Peak : 0.988617
Statistics
Read error : 0
Jitter error (maybe fixed) : 0
Retry sector count : 0
Damaged sector count : 0

Track 01
Filename : /Users/imac/Working Folder/XLD/Greenslade - Time and Tide (1975) [FLAC]/01 Pilgrim's Progress.flac
/Users/imac/Working Folder/XLD/Greenslade - Time and Tide (1975) [MP3-320]/01 Pilgrim's Progress.mp3
/Users/imac/Working Folder/XLD/Greenslade - Time and Tide (1975) [MP3-V0]/01 Pilgrim's Progress.mp3
/Users/imac/Working Folder/XLD/Greenslade - Time and Tide (1975) [MP3-V2]/01 Pilgrim's Progress.mp3
Pre-gap length : 00:02:00

Track gain : -4.40 dB
Peak : 0.988617
CRC32 hash (test run) : 1F551EF0
CRC32 hash : 1F551EF0
CRC32 hash (skip zero) : D672F348
AccurateRip v1 signature : 679A0E05
AccurateRip v2 signature : C19CD089
->Track not present in AccurateRip database.
Statistics
Read error : 0
Jitter error (maybe fixed) : 0
Retry sector count : 0
Damaged sector count : 0

Track 02
Filename : /Users/imac/Working Folder/XLD/Greenslade - Time and Tide (1975) [FLAC]/02 Newsworth.flac
/Users/imac/Working Folder/XLD/Greenslade - Time and Tide (1975) [MP3-320]/02 Newsworth.mp3
/Users/imac/Working Folder/XLD/Greenslade - Time and Tide (1975) [MP3-V0]/02 Newsworth.mp3
/Users/imac/Working Folder/XLD/Greenslade - Time and Tide (1975) [MP3-V2]/02 Newsworth.mp3

Track gain : -3.18 dB
Peak : 0.988617
CRC32 hash (test run) : D67295C6
CRC32 hash : D67295C6
CRC32 hash (skip zero) : 143E4A6B
AccurateRip v1 signature : CBAEC5CC
AccurateRip v2 signature : 9D831C48
->Track not present in AccurateRip database.
Statistics
Read error : 0
Jitter error (maybe fixed) : 0
Retry sector count : 0
Damaged sector count : 0

Track 03
Filename : /Users/imac/Working Folder/XLD/Greenslade - Time and Tide (1975) [FLAC]/03 The Flattery Stakes.flac
/Users/imac/Working Folder/XLD/Greenslade - Time and Tide (1975) [MP3-320]/03 The Flattery Stakes.mp3
/Users/imac/Working Folder/XLD/Greenslade - Time and Tide (1975) [MP3-V0]/03 The Flattery Stakes.mp3
/Users/imac/Working Folder/XLD/Greenslade - Time and Tide (1975) [MP3-V2]/03 The Flattery Stakes.mp3

Track gain : -3.04 dB
Peak : 0.988617
CRC32 hash (test run) : 94269577
CRC32 hash : 94269577
CRC32 hash (skip zero) : 1DAF1058
AccurateRip v1 signature : 0322EF6E
AccurateRip v2 signature : EE1D70F8
->Track not present in AccurateRip database.
Statistics
Read error : 0
Jitter error (maybe fixed) : 0
Retry sector count : 0
Damaged sector count : 0

Track 04
Filename : /Users/imac/Working Folder/XLD/Greenslade - Time and Tide (1975) [FLAC]/04 Beside Manners Are Extra.flac
/Users/imac/Working Folder/XLD/Greenslade - Time and Tide (1975) [MP3-320]/04 Beside Manners Are Extra.mp3
/Users/imac/Working Folder/XLD/Greenslade - Time and Tide (1975) [MP3-V0]/04 Beside Manners Are Extra.mp3
/Users/imac/Working Folder/XLD/Greenslade - Time and Tide (1975) [MP3-V2]/04 Beside Manners Are Extra.mp3

Track gain : 0.80 dB
Peak : 0.931152
CRC32 hash (test run) : 5B378409
CRC32 hash : 5B378409
CRC32 hash (skip zero) : 64823237
AccurateRip v1 signature : D4B3F710
AccurateRip v2 signature : 3F5E17AC
->Track not present in AccurateRip database.
Statistics
Read error : 0
Jitter error (maybe fixed) : 0
Retry sector count : 0
Damaged sector count : 0

Track 05
Filename : /Users/imac/Working Folder/XLD/Greenslade - Time and Tide (1975) [FLAC]/05 Joie De Vie.flac
/Users/imac/Working Folder/XLD/Greenslade - Time and Tide (1975) [MP3-320]/05 Joie De Vie.mp3
/Users/imac/Working Folder/XLD/Greenslade - Time and Tide (1975) [MP3-V0]/05 Joie De Vie.mp3
/Users/imac/Working Folder/XLD/Greenslade - Time and Tide (1975) [MP3-V2]/05 Joie De Vie.mp3

Track gain : -2.31 dB
Peak : 0.988586
CRC32 hash (test run) : 4DC702BD
CRC32 hash : 4DC702BD
CRC32 hash (skip zero) : F3379538
AccurateRip v1 signature : 5EB4E75E
AccurateRip v2 signature : EF2E405E
->Track not present in AccurateRip database.
Statistics
Read error : 0
Jitter error (maybe fixed) : 0
Retry sector count : 0
Damaged sector count : 0

Track 06
Filename : /Users/imac/Working Folder/XLD/Greenslade - Time and Tide (1975) [FLAC]/06 Waltz for a Fallen Idol.flac
/Users/imac/Working Folder/XLD/Greenslade - Time and Tide (1975) [MP3-320]/06 Waltz for a Fallen Idol.mp3
/Users/imac/Working Folder/XLD/Greenslade - Time and Tide (1975) [MP3-V0]/06 Waltz for a Fallen Idol.mp3
/Users/imac/Working Folder/XLD/Greenslade - Time and Tide (1975) [MP3-V2]/06 Waltz for a Fallen Idol.mp3

Track gain : -2.52 dB
Peak : 0.988586
CRC32 hash (test run) : 84762AD6
CRC32 hash : 84762AD6
CRC32 hash (skip zero) : 8DCD25DB
AccurateRip v1 signature : CD003CF9
AccurateRip v2 signature : 7D20DBEB
->Track not present in AccurateRip database.
Statistics
Read error : 0
Jitter error (maybe fixed) : 0
Retry sector count : 0
Damaged sector count : 0

Track 07
Filename : /Users/imac/Working Folder/XLD/Greenslade - Time and Tide (1975) [FLAC]/07 The Ass's Ears.flac
/Users/imac/Working Folder/XLD/Greenslade - Time and Tide (1975) [MP3-320]/07 The Ass's Ears.mp3
/Users/imac/Working Folder/XLD/Greenslade - Time and Tide (1975) [MP3-V0]/07 The Ass's Ears.mp3
/Users/imac/Working Folder/XLD/Greenslade - Time and Tide (1975) [MP3-V2]/07 The Ass's Ears.mp3

Track gain : -3.87 dB
Peak : 0.988617
CRC32 hash (test run) : 19A3D931
CRC32 hash : 19A3D931
CRC32 hash (skip zero) : 083F6681
AccurateRip v1 signature : F43A16B3
AccurateRip v2 signature : BA4C450E
->Track not present in AccurateRip database.
Statistics
Read error : 0
Jitter error (maybe fixed) : 0
Retry sector count : 0
Damaged sector count : 0

Track 08
Filename : /Users/imac/Working Folder/XLD/Greenslade - Time and Tide (1975) [FLAC]/08 Drum Folk.flac
/Users/imac/Working Folder/XLD/Greenslade - Time and Tide (1975) [MP3-320]/08 Drum Folk.mp3
/Users/imac/Working Folder/XLD/Greenslade - Time and Tide (1975) [MP3-V0]/08 Drum Folk.mp3
/Users/imac/Working Folder/XLD/Greenslade - Time and Tide (1975) [MP3-V2]/08 Drum Folk.mp3

Track gain : -2.45 dB
Peak : 0.988617
CRC32 hash (test run) : F9EFC46B
CRC32 hash : F9EFC46B
CRC32 hash (skip zero) : EAA76269
AccurateRip v1 signature : 6869BE6A
AccurateRip v2 signature : E78C6EF4
->Track not present in AccurateRip database.
Statistics
Read error : 0
Jitter error (maybe fixed) : 0
Retry sector count : 0
Damaged sector count : 0

Track 09
Filename : /Users/imac/Working Folder/XLD/Greenslade - Time and Tide (1975) [FLAC]/09 Spirit of the Dance.flac
/Users/imac/Working Folder/XLD/Greenslade - Time and Tide (1975) [MP3-320]/09 Spirit of the Dance.mp3
/Users/imac/Working Folder/XLD/Greenslade - Time and Tide (1975) [MP3-V0]/09 Spirit of the Dance.mp3
/Users/imac/Working Folder/XLD/Greenslade - Time and Tide (1975) [MP3-V2]/09 Spirit of the Dance.mp3

Track gain : -2.70 dB
Peak : 0.930573
CRC32 hash (test run) : C9ABD53D
CRC32 hash : C9ABD53D
CRC32 hash (skip zero) : CA0EB0AE
AccurateRip v1 signature : 3C279DA3
AccurateRip v2 signature : 156ECA15
->Track not present in AccurateRip database.
Statistics
Read error : 0
Jitter error (maybe fixed) : 0
Retry sector count : 0
Damaged sector count : 0

No errors occurred

End of status report

––-BEGIN XLD SIGNATURE––-
jzTYqPscHERfmKXf6tHLUB.n.oHARzq6ytp9jP5ETZrV8V8Rst8d6Pnh2KEe8b_VF0sjQqryFAuahs_W08BVSHibUhQuCKPuBhuuRTu
––-END XLD SIGNATURE––-

All thanks go to the redacted

More Music in My Blog
Follow My RSS Channel