Subcategories
Tags
Language
Tags

Chelsea Wolfe - Hiss Spun (2017)

Posted By: delpotro
Chelsea Wolfe - Hiss Spun (2017)

Chelsea Wolfe - Hiss Spun (2017)
EAC Rip | FLAC (tracks+log+.cue) | 00:48:16 | 308 Mb
Dark Indie, Experimental, Female Vocal | Label: Sargent House

Hiss Spun is the fifth studio album by American singer-songwriter Chelsea Wolfe, released on September 22, 2017, by Sargent House. The album features guitar contributions by Troy Van Leeuwen of Queens of the Stone Age, as well as a guest appearance by Aaron Turner of Isis.

Hiss Spun is an explosion of ideas that one would think doesn't make sense at all yet it all comes together perfectly. This might be the best album I've heard in years. It is somehow, both devastating and ethereal. Chelsea's angelic, light vocals against the demonic musical composition will haunt me for many days to come. Hiss Spun entices my quest to hear music that transcends the idea of music being something one listens to. You can experience so much in this record. Favorite track: Static Hum.
Tracklist:
1. Spun (05:28)
2. 16 Psyche (04:18)
3. Vex (03:02)
4. Strain (01:13)
5. The Culling (06:00)
6. Particle Flux (04:52)
7. Twin Fawn (06:06)
8. Offering (02:49)
9. Static Hum (04:21)
10. Welt (01:54)
11. Two Spirit (05:04)
12. Scrape (03:03)

Exact Audio Copy V1.1 from 23. June 2015

EAC extraction logfile from 22. September 2017, 18:06

Chelsea Wolfe / Hiss Spun

Used drive : PLDS DVD+-RW DU-8A5LH Adapter: 1 ID: 0

Read mode : Secure
Utilize accurate stream : Yes
Defeat audio cache : Yes
Make use of C2 pointers : No

Read offset correction : 6
Overread into Lead-In and Lead-Out : No
Fill up missing offset samples with silence : Yes
Delete leading and trailing silent blocks : No
Null samples used in CRC calculations : Yes
Used interface : Native Win32 interface for Win NT & 2000
Gap handling : Appended to previous track

Used output format : User Defined Encoder
Selected bitrate : 1024 kBit/s
Quality : High
Add ID3 tag : No
Command line compressor : C:\Program Files (x86)\Exact Audio Copy\FLAC\FLAC.EXE
Additional command line options : -8 -e -p -V -T "ARTIST=%artist%" -T "TITLE=%title%" -T "ALBUM=%albumtitle%" -T "DATE=%year%" -T "TRACKNUMBER=%tracknr%" -T "GENRE=%genre%" -T "PERFORMER=%albuminterpret%" -T "COMPOSER=%composer%" %haslyrics%–tag-from-file=LYRICS="%lyricsfile%"%haslyrics% -T "ALBUMARTIST=%albumartist%" -T "DISCNUMBER=%cdnumber%" -T "TOTALDISCS=%totalcds%" -T "TOTALTRACKS=%numtracks%" -T "COMMENT=%comment%" %source% -o %dest%


TOC of the extracted CD

Track | Start | Length | Start sector | End sector
––––––––––––––––––––––––––––-
1 | 0:00.00 | 5:28.41 | 0 | 24640
2 | 5:28.41 | 4:18.42 | 24641 | 44032
3 | 9:47.08 | 3:02.22 | 44033 | 57704
4 | 12:49.30 | 1:13.60 | 57705 | 63239
5 | 14:03.15 | 6:00.48 | 63240 | 90287
6 | 20:03.63 | 4:52.41 | 90288 | 112228
7 | 24:56.29 | 6:06.60 | 112229 | 139738
8 | 31:03.14 | 2:49.62 | 139739 | 152475
9 | 33:53.01 | 4:21.15 | 152476 | 172065
10 | 38:14.16 | 1:54.34 | 172066 | 180649
11 | 40:08.50 | 5:04.07 | 180650 | 203456
12 | 45:12.57 | 3:03.50 | 203457 | 217231


Track 1

Filename F:\My Music\Official\S-X\Chelsea Wolfe\2017.09.22 - Hiss Spun (Sargent House SH 184)\01. Spun.wav

Pre-gap length 0:00:02.00

Peak level 96.8 %
Extraction speed 1.2 X
Track quality 100.0 %
Test CRC 358989C9
Copy CRC 358989C9
Track not present in AccurateRip database
Copy OK

Track 2

Filename F:\My Music\Official\S-X\Chelsea Wolfe\2017.09.22 - Hiss Spun (Sargent House SH 184)\02. 16 Psyche.wav

Peak level 96.7 %
Extraction speed 1.3 X
Track quality 100.0 %
Test CRC 2466808C
Copy CRC 2466808C
Track not present in AccurateRip database
Copy OK

Track 3

Filename F:\My Music\Official\S-X\Chelsea Wolfe\2017.09.22 - Hiss Spun (Sargent House SH 184)\03. Vex.wav

Peak level 96.7 %
Extraction speed 1.3 X
Track quality 100.0 %
Test CRC F28084A5
Copy CRC F28084A5
Track not present in AccurateRip database
Copy OK

Track 4

Filename F:\My Music\Official\S-X\Chelsea Wolfe\2017.09.22 - Hiss Spun (Sargent House SH 184)\04. Strain.wav

Peak level 96.6 %
Extraction speed 1.1 X
Track quality 100.0 %
Test CRC 20D9347D
Copy CRC 20D9347D
Track not present in AccurateRip database
Copy OK

Track 5

Filename F:\My Music\Official\S-X\Chelsea Wolfe\2017.09.22 - Hiss Spun (Sargent House SH 184)\05. The Culling.wav

Peak level 96.7 %
Extraction speed 1.6 X
Track quality 100.0 %
Test CRC 0065CE1F
Copy CRC 0065CE1F
Track not present in AccurateRip database
Copy OK

Track 6

Filename F:\My Music\Official\S-X\Chelsea Wolfe\2017.09.22 - Hiss Spun (Sargent House SH 184)\06. Particle Flux.wav

Peak level 96.7 %
Extraction speed 1.7 X
Track quality 100.0 %
Test CRC DAFE7697
Copy CRC DAFE7697
Track not present in AccurateRip database
Copy OK

Track 7

Filename F:\My Music\Official\S-X\Chelsea Wolfe\2017.09.22 - Hiss Spun (Sargent House SH 184)\07. Twin Fawn.wav

Peak level 96.8 %
Extraction speed 1.8 X
Track quality 100.0 %
Test CRC C151BF11
Copy CRC C151BF11
Track not present in AccurateRip database
Copy OK

Track 8

Filename F:\My Music\Official\S-X\Chelsea Wolfe\2017.09.22 - Hiss Spun (Sargent House SH 184)\08. Offering.wav

Peak level 96.7 %
Extraction speed 1.8 X
Track quality 100.0 %
Test CRC D765307A
Copy CRC D765307A
Track not present in AccurateRip database
Copy OK

Track 9

Filename F:\My Music\Official\S-X\Chelsea Wolfe\2017.09.22 - Hiss Spun (Sargent House SH 184)\09. Static Hum.wav

Peak level 96.7 %
Extraction speed 1.9 X
Track quality 100.0 %
Test CRC 4C4927BB
Copy CRC 4C4927BB
Track not present in AccurateRip database
Copy OK

Track 10

Filename F:\My Music\Official\S-X\Chelsea Wolfe\2017.09.22 - Hiss Spun (Sargent House SH 184)\10. Welt.wav

Peak level 96.6 %
Extraction speed 1.7 X
Track quality 100.0 %
Test CRC 81760E9C
Copy CRC 81760E9C
Track not present in AccurateRip database
Copy OK

Track 11

Filename F:\My Music\Official\S-X\Chelsea Wolfe\2017.09.22 - Hiss Spun (Sargent House SH 184)\11. Two Spirit.wav

Peak level 96.6 %
Extraction speed 1.9 X
Track quality 99.9 %
Test CRC 22F1127B
Copy CRC 22F1127B
Track not present in AccurateRip database
Copy OK

Track 12

Filename F:\My Music\Official\S-X\Chelsea Wolfe\2017.09.22 - Hiss Spun (Sargent House SH 184)\12. Scrape.wav

Peak level 96.7 %
Extraction speed 2.0 X
Track quality 100.0 %
Test CRC 16C54BC0
Copy CRC 16C54BC0
Track not present in AccurateRip database
Copy OK


None of the tracks are present in the AccurateRip database

No errors occurred

End of status report

–– CUETools DB Plugin V2.1.6

[CTDB TOCID: KhMsNa7bXBh4oPi6QDx6ML6wg7E-] found
Submit result: KhMsNa7bXBh4oPi6QDx6ML6wg7E- has been confirmed
Track | CTDB Status
1 | (4/4) Accurately ripped
2 | (4/4) Accurately ripped
3 | (4/4) Accurately ripped
4 | (4/4) Accurately ripped
5 | (4/4) Accurately ripped
6 | (4/4) Accurately ripped
7 | (4/4) Accurately ripped
8 | (4/4) Accurately ripped
9 | (4/4) Accurately ripped
10 | (4/4) Accurately ripped
11 | (4/4) Accurately ripped
12 | (4/4) Accurately ripped


==== Log checksum 53EDD0DA68ED178E386FCC23B10E2F191434F567B22987BB93D74AF80049E70E ====



Chelsea Wolfe - Hiss Spun (2017)

Thanks to the Original ripper lemondays !