Subcategories
Please register here if you want to download anything!

If domain in your address bar is different from the list below
PLEASE LEAVE THAT SITE IMMEDIATELY
❗IT'S A DANGEROUS FAKE❗



Spicy Magazines for Men! ;-)

Bonez MC & RAF Camora - Palmen aus Plastik - Winteredition (Tannen aus Plastik) (2016) {AUF!KEINEN!FALL!}

Posted By: shamanicus
Bonez MC & RAF Camora - Palmen aus Plastik - Winteredition (Tannen aus Plastik) (2016) {AUF!KEINEN!FALL!}

Bonez MC & RAF Camora - Palmen aus Plastik - Winteredition (Tannen aus Plastik) (2016)
EAC Rip | FLAC with CUE and log | 942 mb | MP3 CBR 320kbps | 335 mb
Hip-Hop, Rap, Deutsch Rap


СD1 - Palmen Aus Plastik (Album)

Bonez MC & RAF Camora - Palmen aus Plastik - Winteredition (Tannen aus Plastik) (2016) {AUF!KEINEN!FALL!}


TRACKLIST:
01. Intro
02. Ciao Ciao
03. Palmen aus Plastik
04. Mörder (feat. Gzuz)
05. Ohne mein Team (feat. Maxwell)
06. Erblindet
07. Evil (feat. Tommy Lee Sparta)
08. Attackieren (feat. Hanybal)
09. Killa (feat. D-Flame)
10. Ruhe nach dem Sturm
11. Vaporizer (feat. Trettmann)
12. Dankbarkeit
13. Skimaske (feat. Gzuz)
14. Cabriolet
15. Daneben (feat. Trettmann)

Exact Audio Copy V1.0 beta 4 from 7. December 2014

EAC extraction logfile from 15. December 2016, 17:18

Bonez MC & RAF Camora / Palmen aus Plastik

Used drive : HL-DT-STBD-RE BH16NS40 Adapter: 1 ID: 0

Read mode : Secure
Utilize accurate stream : Yes
Defeat audio cache : Yes
Make use of C2 pointers : No

Read offset correction : 6
Overread into Lead-In and Lead-Out : No
Fill up missing offset samples with silence : Yes
Delete leading and trailing silent blocks : No
Null samples used in CRC calculations : Yes
Used interface : Native Win32 interface for Win NT & 2000
Gap handling : Appended to previous track

Used output format : User Defined Encoder
Selected bitrate : 1024 kBit/s
Quality : High
Add ID3 tag : No
Command line compressor : C:\Program Files (x86)\Exact Audio Copy\Flac\flac.exe
Additional command line options : -8 -V -T "ARTIST=%artist%" -T "TITLE=%title%" -T "ALBUM=%albumtitle%" -T "DATE=%year%" -T "TRACKNUMBER=%tracknr%" -T "GENRE=%genre%" -T "PERFORMER=%albuminterpret%" -T "COMPOSER=%composer%" %haslyrics%–tag-from-file=LYRICS="%lyricsfile%"%haslyrics% -T "ALBUMARTIST=%albumartist%" -T "DISCNUMBER=%cdnumber%" -T "TOTALDISCS=%totalcds%" -T "TOTALTRACKS=%numtracks%" -T "COMMENT=%comment%" %source% -o %dest%


TOC of the extracted CD

Track | Start | Length | Start sector | End sector
––––––––––––––––––––––––––––-
1 | 0:00.00 | 0:37.66 | 0 | 2840
2 | 0:37.66 | 2:33.35 | 2841 | 14350
3 | 3:11.26 | 3:05.02 | 14351 | 28227
4 | 6:16.28 | 3:34.55 | 28228 | 44332
5 | 9:51.08 | 3:08.38 | 44333 | 58470
6 | 12:59.46 | 3:10.13 | 58471 | 72733
7 | 16:09.59 | 5:42.01 | 72734 | 98384
8 | 21:51.60 | 4:02.14 | 98385 | 116548
9 | 25:53.74 | 2:36.00 | 116549 | 128248
10 | 28:29.74 | 3:14.66 | 128249 | 142864
11 | 31:44.65 | 3:52.28 | 142865 | 160292
12 | 35:37.18 | 3:29.34 | 160293 | 176001
13 | 39:06.52 | 2:27.00 | 176002 | 187026
14 | 41:33.52 | 3:33.40 | 187027 | 203041
15 | 45:07.17 | 3:44.70 | 203042 | 219911


Track 1

Filename C:\EAC\TEMPORIS@PASSTHEHEADPHONES.ME\Bonez MC & RAF Camora - Palmen aus Plastik - Winteredition (Tannen aus Plastik) (2016) [FLAC]\Disc 1\01 Intro.wav

Pre-gap length 0:00:02.00

Peak level 65.2 %
Extraction speed 0.6 X
Track quality 100.0 %
Test CRC 9C5722C5
Copy CRC 9C5722C5
Cannot be verified as accurate (confidence 2) [BD37E2ED], AccurateRip returned [B745E407] (AR v2)
Copy OK

Track 2

Filename C:\EAC\TEMPORIS@PASSTHEHEADPHONES.ME\Bonez MC & RAF Camora - Palmen aus Plastik - Winteredition (Tannen aus Plastik) (2016) [FLAC]\Disc 1\02 Ciao Ciao.wav

Peak level 97.7 %
Extraction speed 1.0 X
Track quality 100.0 %
Test CRC 9D27D556
Copy CRC 9D27D556
Cannot be verified as accurate (confidence 2) [02A87F6A], AccurateRip returned [CCBD0E16] (AR v2)
Copy OK

Track 3

Filename C:\EAC\TEMPORIS@PASSTHEHEADPHONES.ME\Bonez MC & RAF Camora - Palmen aus Plastik - Winteredition (Tannen aus Plastik) (2016) [FLAC]\Disc 1\03 Palmen aus Plastik.wav

Peak level 97.7 %
Extraction speed 1.1 X
Track quality 100.0 %
Test CRC 460FC21A
Copy CRC 460FC21A
Cannot be verified as accurate (confidence 2) [D123A817], AccurateRip returned [798BAA98] (AR v2)
Copy OK

Track 4

Filename C:\EAC\TEMPORIS@PASSTHEHEADPHONES.ME\Bonez MC & RAF Camora - Palmen aus Plastik - Winteredition (Tannen aus Plastik) (2016) [FLAC]\Disc 1\04 Mörder (feat. Gzuz).wav

Peak level 97.7 %
Extraction speed 1.2 X
Track quality 100.0 %
Test CRC 63AE9895
Copy CRC 63AE9895
Cannot be verified as accurate (confidence 2) [EAFE5AC1], AccurateRip returned [F034AB93] (AR v2)
Copy OK

Track 5

Filename C:\EAC\TEMPORIS@PASSTHEHEADPHONES.ME\Bonez MC & RAF Camora - Palmen aus Plastik - Winteredition (Tannen aus Plastik) (2016) [FLAC]\Disc 1\05 Ohne mein Team (feat. Maxwell).wav

Peak level 97.7 %
Extraction speed 1.3 X
Track quality 100.0 %
Test CRC CD50F1CA
Copy CRC CD50F1CA
Cannot be verified as accurate (confidence 2) [2BEFCDD3], AccurateRip returned [F62C9F8B] (AR v2)
Copy OK

Track 6

Filename C:\EAC\TEMPORIS@PASSTHEHEADPHONES.ME\Bonez MC & RAF Camora - Palmen aus Plastik - Winteredition (Tannen aus Plastik) (2016) [FLAC]\Disc 1\06 Erblindet.wav

Peak level 97.7 %
Extraction speed 1.4 X
Track quality 100.0 %
Test CRC DE207FF5
Copy CRC DE207FF5
Cannot be verified as accurate (confidence 2) [2E1DF625], AccurateRip returned [3B394AD9] (AR v2)
Copy OK

Track 7

Filename C:\EAC\TEMPORIS@PASSTHEHEADPHONES.ME\Bonez MC & RAF Camora - Palmen aus Plastik - Winteredition (Tannen aus Plastik) (2016) [FLAC]\Disc 1\07 Evil (feat. Tommy Lee Sparta).wav

Peak level 99.2 %
Extraction speed 1.6 X
Track quality 100.0 %
Test CRC 90077B9E
Copy CRC 90077B9E
Cannot be verified as accurate (confidence 2) [CDC529D5], AccurateRip returned [C339067B] (AR v2)
Copy OK

Track 8

Filename C:\EAC\TEMPORIS@PASSTHEHEADPHONES.ME\Bonez MC & RAF Camora - Palmen aus Plastik - Winteredition (Tannen aus Plastik) (2016) [FLAC]\Disc 1\08 Attackieren (feat. Hanybal).wav

Peak level 97.7 %
Extraction speed 1.6 X
Track quality 100.0 %
Test CRC 81BA4C13
Copy CRC 81BA4C13
Cannot be verified as accurate (confidence 2) [5D0F1A6C], AccurateRip returned [EEF1A30D] (AR v2)
Copy OK

Track 9

Filename C:\EAC\TEMPORIS@PASSTHEHEADPHONES.ME\Bonez MC & RAF Camora - Palmen aus Plastik - Winteredition (Tannen aus Plastik) (2016) [FLAC]\Disc 1\09 Killa (feat. D-Flame).wav

Peak level 97.7 %
Extraction speed 1.3 X
Track quality 99.9 %
Test CRC 9034DF11
Copy CRC 9034DF11
Cannot be verified as accurate (confidence 2) [5B432ED4], AccurateRip returned [2C5FB97D] (AR v2)
Copy OK

Track 10

Filename C:\EAC\TEMPORIS@PASSTHEHEADPHONES.ME\Bonez MC & RAF Camora - Palmen aus Plastik - Winteredition (Tannen aus Plastik) (2016) [FLAC]\Disc 1\10 Ruhe nach dem Sturm.wav

Peak level 97.7 %
Extraction speed 1.4 X
Track quality 99.9 %
Test CRC 271561C1
Copy CRC 271561C1
Cannot be verified as accurate (confidence 2) [82FA943B], AccurateRip returned [AD96E59D] (AR v2)
Copy OK

Track 11

Filename C:\EAC\TEMPORIS@PASSTHEHEADPHONES.ME\Bonez MC & RAF Camora - Palmen aus Plastik - Winteredition (Tannen aus Plastik) (2016) [FLAC]\Disc 1\11 Vaporizer (feat. Trettmann).wav

Peak level 97.7 %
Extraction speed 1.6 X
Track quality 99.9 %
Test CRC A0D0A700
Copy CRC A0D0A700
Cannot be verified as accurate (confidence 2) [2C9BE87E], AccurateRip returned [57646E4F] (AR v2)
Copy OK

Track 12

Filename C:\EAC\TEMPORIS@PASSTHEHEADPHONES.ME\Bonez MC & RAF Camora - Palmen aus Plastik - Winteredition (Tannen aus Plastik) (2016) [FLAC]\Disc 1\12 Dankbarkeit.wav

Peak level 97.7 %
Extraction speed 1.6 X
Track quality 99.9 %
Test CRC D66CB5F2
Copy CRC D66CB5F2
Cannot be verified as accurate (confidence 2) [98C97140], AccurateRip returned [B6CF4AFA] (AR v2)
Copy OK

Track 13

Filename C:\EAC\TEMPORIS@PASSTHEHEADPHONES.ME\Bonez MC & RAF Camora - Palmen aus Plastik - Winteredition (Tannen aus Plastik) (2016) [FLAC]\Disc 1\13 Skimaske (feat. Gzuz).wav

Peak level 97.7 %
Extraction speed 1.8 X
Track quality 100.0 %
Test CRC A5038621
Copy CRC A5038621
Cannot be verified as accurate (confidence 2) [64013522], AccurateRip returned [E871E3F7] (AR v2)
Copy OK

Track 14

Filename C:\EAC\TEMPORIS@PASSTHEHEADPHONES.ME\Bonez MC & RAF Camora - Palmen aus Plastik - Winteredition (Tannen aus Plastik) (2016) [FLAC]\Disc 1\14 Cabriolet.wav

Peak level 97.7 %
Extraction speed 1.9 X
Track quality 100.0 %
Test CRC 0F0679CA
Copy CRC 0F0679CA
Cannot be verified as accurate (confidence 2) [3665F1FB], AccurateRip returned [6D1E0B4D] (AR v2)
Copy OK

Track 15

Filename C:\EAC\TEMPORIS@PASSTHEHEADPHONES.ME\Bonez MC & RAF Camora - Palmen aus Plastik - Winteredition (Tannen aus Plastik) (2016) [FLAC]\Disc 1\15 Daneben (feat. Trettmann).wav

Peak level 97.7 %
Extraction speed 2.0 X
Track quality 100.0 %
Test CRC ACC7856B
Copy CRC ACC7856B
Cannot be verified as accurate (confidence 2) [0427DF4E], AccurateRip returned [767745BF] (AR v2)
Copy OK


No tracks could be verified as accurate
You may have a different pressing from the one(s) in the database

No errors occurred

End of status report

–– CUETools DB Plugin V2.1.4

[CTDB TOCID: Ay2Ih6zK5WpP.vTd6kINaxhe8TI-] found
Submit result: Ay2Ih6zK5WpP.vTd6kINaxhe8TI- has been confirmed
Track | CTDB Status
1 | (73/73) Accurately ripped
2 | (73/73) Accurately ripped
3 | (73/73) Accurately ripped
4 | (73/73) Accurately ripped
5 | (73/73) Accurately ripped
6 | (73/73) Accurately ripped
7 | (73/73) Accurately ripped
8 | (73/73) Accurately ripped
9 | (73/73) Accurately ripped
10 | (73/73) Accurately ripped
11 | (73/73) Accurately ripped
12 | (73/73) Accurately ripped
13 | (73/73) Accurately ripped
14 | (73/73) Accurately ripped
15 | (73/73) Accurately ripped


==== Log checksum A39FEA66086A9F7C001F97D05927533AE27419E3D9F019CE791BDB301D3441A2 ====


СD2 - Palmen Aus Plastik (Instrumentals)
Bonez MC & RAF Camora - Palmen aus Plastik - Winteredition (Tannen aus Plastik) (2016) {AUF!KEINEN!FALL!}


TRACKLIST:
01. Palmen aus Gold
02. An ihnen vorbei
03. Skandale
04. Atramis (feat. Bausa)
05. Verräter
06. Palmen aus Gold (Instrumental)
07. An ihnen vorbei (Instrumental)
08. Skandale (Instrumental)
09. Atramis (Instrumental)
10. Verräter (Instrumental)

Exact Audio Copy V1.3 from 2. September 2016

EAC extraction logfile from 15. December 2016, 18:10

Bonez MC & RAF Camora / Tannen aus Plastik

Used drive : HL-DT-STBD-RE BH16NS40 Adapter: 1 ID: 0

Read mode : Secure
Utilize accurate stream : Yes
Defeat audio cache : Yes
Make use of C2 pointers : No

Read offset correction : 6
Overread into Lead-In and Lead-Out : No
Fill up missing offset samples with silence : Yes
Delete leading and trailing silent blocks : No
Null samples used in CRC calculations : Yes
Used interface : Native Win32 interface for Win NT & 2000
Gap handling : Appended to previous track

Used output format : User Defined Encoder
Selected bitrate : 1024 kBit/s
Quality : High
Add ID3 tag : No
Command line compressor : C:\Program Files (x86)\Exact Audio Copy\Flac\flac.exe
Additional command line options : -8 -V -T "ARTIST=%artist%" -T "TITLE=%title%" -T "ALBUM=%albumtitle%" -T "DATE=%year%" -T "TRACKNUMBER=%tracknr%" -T "GENRE=%genre%" -T "PERFORMER=%albuminterpret%" -T "COMPOSER=%composer%" %haslyrics%–tag-from-file=LYRICS="%lyricsfile%"%haslyrics% -T "ALBUMARTIST=%albumartist%" -T "DISCNUMBER=%cdnumber%" -T "TOTALDISCS=%totalcds%" -T "TOTALTRACKS=%numtracks%" -T "COMMENT=%comment%" %source% -o %dest%


TOC of the extracted CD

Track | Start | Length | Start sector | End sector
––––––––––––––––––––––––––––-
1 | 0:00.00 | 3:22.31 | 0 | 15180
2 | 3:22.31 | 3:20.40 | 15181 | 30220
3 | 6:42.71 | 3:14.38 | 30221 | 44808
4 | 9:57.34 | 2:56.04 | 44809 | 58012
5 | 12:53.38 | 3:47.53 | 58013 | 75090
6 | 16:41.16 | 3:22.00 | 75091 | 90240
7 | 20:03.16 | 3:20.45 | 90241 | 105285
8 | 23:23.61 | 3:14.10 | 105286 | 119845
9 | 26:37.71 | 2:56.44 | 119846 | 133089
10 | 29:34.40 | 3:48.36 | 133090 | 150225


Track 1

Filename C:\EAC\TEMPORIS@PASSTHEHEADPHONES.ME\Bonez MC & RAF Camora - Palmen aus Plastik - Winteredition (Tannen aus Plastik) (2016) [FLAC]\Disc 2\01 Palmen aus Gold.wav

Pre-gap length 0:00:02.00

Peak level 97.7 %
Extraction speed 4.2 X
Track quality 100.0 %
Test CRC EF704E13
Copy CRC EF704E13
Track not present in AccurateRip database
Copy OK

Track 2

Filename C:\EAC\TEMPORIS@PASSTHEHEADPHONES.ME\Bonez MC & RAF Camora - Palmen aus Plastik - Winteredition (Tannen aus Plastik) (2016) [FLAC]\Disc 2\02 An ihnen vorbei.wav

Peak level 97.7 %
Extraction speed 4.0 X
Track quality 99.9 %
Test CRC 5A6D0C50
Copy CRC 5A6D0C50
Track not present in AccurateRip database
Copy OK

Track 3

Filename C:\EAC\TEMPORIS@PASSTHEHEADPHONES.ME\Bonez MC & RAF Camora - Palmen aus Plastik - Winteredition (Tannen aus Plastik) (2016) [FLAC]\Disc 2\03 Skandale.wav

Peak level 97.7 %
Extraction speed 4.0 X
Track quality 99.9 %
Test CRC 1B24DA05
Copy CRC 1B24DA05
Track not present in AccurateRip database
Copy OK

Track 4

Filename C:\EAC\TEMPORIS@PASSTHEHEADPHONES.ME\Bonez MC & RAF Camora - Palmen aus Plastik - Winteredition (Tannen aus Plastik) (2016) [FLAC]\Disc 2\04 Atramis (feat. Bausa).wav

Peak level 97.7 %
Extraction speed 5.4 X
Track quality 100.0 %
Test CRC 521E5321
Copy CRC 521E5321
Track not present in AccurateRip database
Copy OK

Track 5

Filename C:\EAC\TEMPORIS@PASSTHEHEADPHONES.ME\Bonez MC & RAF Camora - Palmen aus Plastik - Winteredition (Tannen aus Plastik) (2016) [FLAC]\Disc 2\05 Verräter.wav

Peak level 97.7 %
Extraction speed 4.7 X
Track quality 99.9 %
Test CRC FAAF5D01
Copy CRC FAAF5D01
Track not present in AccurateRip database
Copy OK

Track 6

Filename C:\EAC\TEMPORIS@PASSTHEHEADPHONES.ME\Bonez MC & RAF Camora - Palmen aus Plastik - Winteredition (Tannen aus Plastik) (2016) [FLAC]\Disc 2\06 Palmen aus Gold (Instrumental).wav

Peak level 97.7 %
Extraction speed 6.1 X
Track quality 100.0 %
Test CRC 0E307DCB
Copy CRC 0E307DCB
Track not present in AccurateRip database
Copy OK

Track 7

Filename C:\EAC\TEMPORIS@PASSTHEHEADPHONES.ME\Bonez MC & RAF Camora - Palmen aus Plastik - Winteredition (Tannen aus Plastik) (2016) [FLAC]\Disc 2\07 An ihnen vorbei (Instrumental).wav

Peak level 97.7 %
Extraction speed 6.0 X
Track quality 100.0 %
Test CRC AAA3630D
Copy CRC AAA3630D
Track not present in AccurateRip database
Copy OK

Track 8

Filename C:\EAC\TEMPORIS@PASSTHEHEADPHONES.ME\Bonez MC & RAF Camora - Palmen aus Plastik - Winteredition (Tannen aus Plastik) (2016) [FLAC]\Disc 2\08 Skandale (Instrumental).wav

Peak level 97.7 %
Extraction speed 6.6 X
Track quality 100.0 %
Test CRC B96F4E55
Copy CRC B96F4E55
Track not present in AccurateRip database
Copy OK

Track 9

Filename C:\EAC\TEMPORIS@PASSTHEHEADPHONES.ME\Bonez MC & RAF Camora - Palmen aus Plastik - Winteredition (Tannen aus Plastik) (2016) [FLAC]\Disc 2\09 Atramis (Instrumental).wav

Peak level 97.7 %
Extraction speed 5.2 X
Track quality 99.9 %
Test CRC 2C48087B
Copy CRC 2C48087B
Track not present in AccurateRip database
Copy OK

Track 10

Filename C:\EAC\TEMPORIS@PASSTHEHEADPHONES.ME\Bonez MC & RAF Camora - Palmen aus Plastik - Winteredition (Tannen aus Plastik) (2016) [FLAC]\Disc 2\10 Verräter (Instrumental).wav

Peak level 97.7 %
Extraction speed 7.1 X
Track quality 100.0 %
Test CRC DB20BE31
Copy CRC DB20BE31
Track not present in AccurateRip database
Copy OK


None of the tracks are present in the AccurateRip database

No errors occurred

End of status report

–– CUETools DB Plugin V2.1.6

[CTDB TOCID: 5cA121pYsANp6ifZYaT7nn_dvDY-] found
Submit result: 5cA121pYsANp6ifZYaT7nn_dvDY- has been confirmed
Track | CTDB Status
1 | (1/1) Accurately ripped
2 | (1/1) Accurately ripped
3 | (1/1) Accurately ripped
4 | (1/1) Accurately ripped
5 | (1/1) Accurately ripped
6 | (1/1) Accurately ripped
7 | (1/1) Accurately ripped
8 | (1/1) Accurately ripped
9 | (1/1) Accurately ripped
10 | (1/1) Accurately ripped


==== Log checksum 15C813E59B59AC71017806310220A6E27C1F7F770A18407FB4A7BB2974CE544C ====


СD3 - Maxwell - Safari (Bonus EP)
Bonez MC & RAF Camora - Palmen aus Plastik - Winteredition (Tannen aus Plastik) (2016) {AUF!KEINEN!FALL!}


TRACKLIST:
01. Hakuna Matata
02. Safari (feat. RAF Camora & Bonez MC)
03. Spielplatz (feat. Bonez MC)
04. Hochspannung (feat. RAF Camora)
05. Goldene Zeiten
06. Hakuna Matata (Instrumental)
07. Safari (Instrumental)
08. Spielplatz (Instrumental)
09. Hochspannung (Instrumental)
10. Goldene Zeiten (Instrumental)

Exact Audio Copy V1.3 from 2. September 2016

EAC extraction logfile from 15. December 2016, 19:20

Maxwell / Safari

Used drive : HL-DT-STBD-RE BH16NS40 Adapter: 1 ID: 0

Read mode : Secure
Utilize accurate stream : Yes
Defeat audio cache : Yes
Make use of C2 pointers : No

Read offset correction : 6
Overread into Lead-In and Lead-Out : No
Fill up missing offset samples with silence : Yes
Delete leading and trailing silent blocks : No
Null samples used in CRC calculations : Yes
Used interface : Native Win32 interface for Win NT & 2000
Gap handling : Appended to previous track

Used output format : User Defined Encoder
Selected bitrate : 1024 kBit/s
Quality : High
Add ID3 tag : No
Command line compressor : C:\Program Files (x86)\Exact Audio Copy\Flac\flac.exe
Additional command line options : -8 -V -T "ARTIST=%artist%" -T "TITLE=%title%" -T "ALBUM=%albumtitle%" -T "DATE=%year%" -T "TRACKNUMBER=%tracknr%" -T "GENRE=%genre%" -T "PERFORMER=%albuminterpret%" -T "COMPOSER=%composer%" %haslyrics%–tag-from-file=LYRICS="%lyricsfile%"%haslyrics% -T "ALBUMARTIST=%albumartist%" -T "DISCNUMBER=%cdnumber%" -T "TOTALDISCS=%totalcds%" -T "TOTALTRACKS=%numtracks%" -T "COMMENT=%comment%" %source% -o %dest%


TOC of the extracted CD

Track | Start | Length | Start sector | End sector
––––––––––––––––––––––––––––-
1 | 0:00.00 | 2:25.06 | 0 | 10880
2 | 2:25.06 | 2:38.73 | 10881 | 22803
3 | 5:04.04 | 2:35.40 | 22804 | 34468
4 | 7:39.44 | 2:22.01 | 34469 | 45119
5 | 10:01.45 | 2:23.61 | 45120 | 55905
6 | 12:25.31 | 2:24.58 | 55906 | 66763
7 | 14:50.14 | 2:38.73 | 66764 | 78686
8 | 17:29.12 | 2:35.41 | 78687 | 90352
9 | 20:04.53 | 2:22.00 | 90353 | 101002
10 | 22:26.53 | 2:24.47 | 101003 | 111849


Track 1

Filename C:\EAC\TEMPORIS@PASSTHEHEADPHONES.ME\Bonez MC & RAF Camora - Palmen aus Plastik - Winteredition (Tannen aus Plastik) (2016) [FLAC]\Disc 3\01 - Maxwell - Hakuna Matata.wav

Pre-gap length 0:00:02.00

Peak level 97.7 %
Extraction speed 3.4 X
Track quality 99.9 %
Test CRC 2AD1E822
Copy CRC 2AD1E822
Track not present in AccurateRip database
Copy OK

Track 2

Filename C:\EAC\TEMPORIS@PASSTHEHEADPHONES.ME\Bonez MC & RAF Camora - Palmen aus Plastik - Winteredition (Tannen aus Plastik) (2016) [FLAC]\Disc 3\02 - Maxwell, Raf Camora & Bonez MC - Safari (feat. Raf Camora & Bonez MC).wav

Peak level 97.7 %
Extraction speed 4.5 X
Track quality 100.0 %
Test CRC A12A16CC
Copy CRC A12A16CC
Track not present in AccurateRip database
Copy OK

Track 3

Filename C:\EAC\TEMPORIS@PASSTHEHEADPHONES.ME\Bonez MC & RAF Camora - Palmen aus Plastik - Winteredition (Tannen aus Plastik) (2016) [FLAC]\Disc 3\03 - Maxwell & Bonez MC - Spielplatz (feat. Bonez MC).wav

Peak level 97.7 %
Extraction speed 4.7 X
Track quality 100.0 %
Test CRC 8A350109
Copy CRC 8A350109
Track not present in AccurateRip database
Copy OK

Track 4

Filename C:\EAC\TEMPORIS@PASSTHEHEADPHONES.ME\Bonez MC & RAF Camora - Palmen aus Plastik - Winteredition (Tannen aus Plastik) (2016) [FLAC]\Disc 3\04 - Maxwell & Raf Camora - Hochspannung (feat. Raf Camora).wav

Peak level 97.7 %
Extraction speed 4.9 X
Track quality 100.0 %
Test CRC 565233CA
Copy CRC 565233CA
Track not present in AccurateRip database
Copy OK

Track 5

Filename C:\EAC\TEMPORIS@PASSTHEHEADPHONES.ME\Bonez MC & RAF Camora - Palmen aus Plastik - Winteredition (Tannen aus Plastik) (2016) [FLAC]\Disc 3\05 - Maxwell - Goldene Zeiten.wav

Peak level 97.7 %
Extraction speed 5.1 X
Track quality 100.0 %
Test CRC E72343BB
Copy CRC E72343BB
Track not present in AccurateRip database
Copy OK

Track 6

Filename C:\EAC\TEMPORIS@PASSTHEHEADPHONES.ME\Bonez MC & RAF Camora - Palmen aus Plastik - Winteredition (Tannen aus Plastik) (2016) [FLAC]\Disc 3\06 - Maxwell - Hakuna Matata (Instrumental).wav

Peak level 97.7 %
Extraction speed 4.0 X
Track quality 99.9 %
Test CRC F456C0B8
Copy CRC F456C0B8
Track not present in AccurateRip database
Copy OK

Track 7

Filename C:\EAC\TEMPORIS@PASSTHEHEADPHONES.ME\Bonez MC & RAF Camora - Palmen aus Plastik - Winteredition (Tannen aus Plastik) (2016) [FLAC]\Disc 3\07 - Maxwell, Raf Camora & Bonez MC - Safari (feat. Raf Camora & Bonez MC) (Instrumental).wav

Peak level 97.7 %
Extraction speed 5.7 X
Track quality 100.0 %
Test CRC 1FF3B5AD
Copy CRC 1FF3B5AD
Track not present in AccurateRip database
Copy OK

Track 8

Filename C:\EAC\TEMPORIS@PASSTHEHEADPHONES.ME\Bonez MC & RAF Camora - Palmen aus Plastik - Winteredition (Tannen aus Plastik) (2016) [FLAC]\Disc 3\08 - Maxwell & Bonez MC - Spielplatz (feat. Bonez MC) Instrumental.wav

Peak level 97.7 %
Extraction speed 5.8 X
Track quality 100.0 %
Test CRC A29BAAA7
Copy CRC A29BAAA7
Track not present in AccurateRip database
Copy OK

Track 9

Filename C:\EAC\TEMPORIS@PASSTHEHEADPHONES.ME\Bonez MC & RAF Camora - Palmen aus Plastik - Winteredition (Tannen aus Plastik) (2016) [FLAC]\Disc 3\09 - Maxwell & Raf Camora - Hochspannung (feat. Raf Camora) (Instrumental).wav

Peak level 97.7 %
Extraction speed 5.9 X
Track quality 100.0 %
Test CRC 676735D9
Copy CRC 676735D9
Track not present in AccurateRip database
Copy OK

Track 10

Filename C:\EAC\TEMPORIS@PASSTHEHEADPHONES.ME\Bonez MC & RAF Camora - Palmen aus Plastik - Winteredition (Tannen aus Plastik) (2016) [FLAC]\Disc 3\10 - Maxwell - Goldene Zeiten (Instrumental).wav

Peak level 97.7 %
Extraction speed 6.0 X
Track quality 100.0 %
Test CRC 8EF5BFDC
Copy CRC 8EF5BFDC
Track not present in AccurateRip database
Copy OK


None of the tracks are present in the AccurateRip database

No errors occurred

End of status report

–– CUETools DB Plugin V2.1.6

[CTDB TOCID: M29T3QKGiEPnzYZtrK4UqqIQkww-] found
Submit result: M29T3QKGiEPnzYZtrK4UqqIQkww- has been confirmed
Track | CTDB Status
1 | (2/2) Accurately ripped
2 | (2/2) Accurately ripped
3 | (2/2) Accurately ripped
4 | (2/2) Accurately ripped
5 | (2/2) Accurately ripped
6 | (2/2) Accurately ripped
7 | (2/2) Accurately ripped
8 | (2/2) Accurately ripped
9 | (2/2) Accurately ripped
10 | (2/2) Accurately ripped


==== Log checksum 02330C0AF5F673CF698C19877F17EDD76B3D31BECF1B714A3DFD898C824F4915 ====


СD4 - 187 Strassenbande - 187 Allstars EP (Bonus EP)
Bonez MC & RAF Camora - Palmen aus Plastik - Winteredition (Tannen aus Plastik) (2016) {AUF!KEINEN!FALL!}


TRACKLIST:
01. 10 Jahre
02. Grosses Kaliber
03. Wieder vereint
04. Meine Sprache (feat. RAF Camora)
05. Lebenslauf
06. 10 Jahre (Instrumental)
07. Grosses Kaliber (Instrumental)
08. Wieder vereint (Instrumental)
09. Meine Sprache (Instrumental)
10. Lebenslauf (Instrumental)

Exact Audio Copy V1.3 from 2. September 2016

EAC extraction logfile from 15. December 2016, 19:41

187 Strassenbande / 187 Allstars EP

Used drive : HL-DT-STBD-RE BH16NS40 Adapter: 1 ID: 0

Read mode : Secure
Utilize accurate stream : Yes
Defeat audio cache : Yes
Make use of C2 pointers : No

Read offset correction : 6
Overread into Lead-In and Lead-Out : No
Fill up missing offset samples with silence : Yes
Delete leading and trailing silent blocks : No
Null samples used in CRC calculations : Yes
Used interface : Native Win32 interface for Win NT & 2000
Gap handling : Appended to previous track

Used output format : User Defined Encoder
Selected bitrate : 1024 kBit/s
Quality : High
Add ID3 tag : No
Command line compressor : C:\Program Files (x86)\Exact Audio Copy\Flac\flac.exe
Additional command line options : -8 -V -T "ARTIST=%artist%" -T "TITLE=%title%" -T "ALBUM=%albumtitle%" -T "DATE=%year%" -T "TRACKNUMBER=%tracknr%" -T "GENRE=%genre%" -T "PERFORMER=%albuminterpret%" -T "COMPOSER=%composer%" %haslyrics%–tag-from-file=LYRICS="%lyricsfile%"%haslyrics% -T "ALBUMARTIST=%albumartist%" -T "DISCNUMBER=%cdnumber%" -T "TOTALDISCS=%totalcds%" -T "TOTALTRACKS=%numtracks%" -T "COMMENT=%comment%" %source% -o %dest%


TOC of the extracted CD

Track | Start | Length | Start sector | End sector
––––––––––––––––––––––––––––-
1 | 0:00.00 | 3:48.08 | 0 | 17107
2 | 3:48.08 | 3:04.18 | 17108 | 30925
3 | 6:52.26 | 2:32.74 | 30926 | 42399
4 | 9:25.25 | 4:00.40 | 42400 | 60439
5 | 13:25.65 | 3:27.72 | 60440 | 76036
6 | 16:53.62 | 3:47.53 | 76037 | 93114
7 | 20:41.40 | 2:58.07 | 93115 | 106471
8 | 23:39.47 | 2:33.02 | 106472 | 117948
9 | 26:12.49 | 4:00.12 | 117949 | 135960
10 | 30:12.61 | 3:28.57 | 135961 | 151617


Track 1

Filename C:\EAC\TEMPORIS@PASSTHEHEADPHONES.ME\Bonez MC & RAF Camora - Palmen aus Plastik - Winteredition (Tannen aus Plastik) (2016) [FLAC]\Disc 4\01 - Gzuz, LX, Bonez MC & Maxwell - 10 Jahre.wav

Pre-gap length 0:00:02.00

Peak level 97.7 %
Extraction speed 4.3 X
Track quality 100.0 %
Test CRC 9DA37BD2
Copy CRC 9DA37BD2
Track not present in AccurateRip database
Copy OK

Track 2

Filename C:\EAC\TEMPORIS@PASSTHEHEADPHONES.ME\Bonez MC & RAF Camora - Palmen aus Plastik - Winteredition (Tannen aus Plastik) (2016) [FLAC]\Disc 4\02 - Bonez MC & Maxwell - Grosses Kaliber.wav

Peak level 97.7 %
Extraction speed 3.9 X
Track quality 99.9 %
Test CRC F500AFA5
Copy CRC F500AFA5
Track not present in AccurateRip database
Copy OK

Track 3

Filename C:\EAC\TEMPORIS@PASSTHEHEADPHONES.ME\Bonez MC & RAF Camora - Palmen aus Plastik - Winteredition (Tannen aus Plastik) (2016) [FLAC]\Disc 4\03 - LX & Maxwell - Wieder vereint.wav

Peak level 97.7 %
Extraction speed 5.0 X
Track quality 100.0 %
Test CRC B2D31AB7
Copy CRC B2D31AB7
Track not present in AccurateRip database
Copy OK

Track 4

Filename C:\EAC\TEMPORIS@PASSTHEHEADPHONES.ME\Bonez MC & RAF Camora - Palmen aus Plastik - Winteredition (Tannen aus Plastik) (2016) [FLAC]\Disc 4\04 - Gzuz, Bonez MC & Sa4 - Meine Sprache (feat. RAF Camora).wav

Peak level 97.7 %
Extraction speed 5.6 X
Track quality 100.0 %
Test CRC C4CC8636
Copy CRC C4CC8636
Track not present in AccurateRip database
Copy OK

Track 5

Filename C:\EAC\TEMPORIS@PASSTHEHEADPHONES.ME\Bonez MC & RAF Camora - Palmen aus Plastik - Winteredition (Tannen aus Plastik) (2016) [FLAC]\Disc 4\05 - Bonez MC & Gzuz - Lebenslauf.wav

Peak level 97.7 %
Extraction speed 5.6 X
Track quality 100.0 %
Test CRC 111D9A34
Copy CRC 111D9A34
Track not present in AccurateRip database
Copy OK

Track 6

Filename C:\EAC\TEMPORIS@PASSTHEHEADPHONES.ME\Bonez MC & RAF Camora - Palmen aus Plastik - Winteredition (Tannen aus Plastik) (2016) [FLAC]\Disc 4\06 - Gzuz, LX, Bonez MC & Maxwell - 10 Jahre (Instrumental).wav

Peak level 97.7 %
Extraction speed 5.2 X
Track quality 99.9 %
Test CRC DCE24AB1
Copy CRC DCE24AB1
Track not present in AccurateRip database
Copy OK

Track 7

Filename C:\EAC\TEMPORIS@PASSTHEHEADPHONES.ME\Bonez MC & RAF Camora - Palmen aus Plastik - Winteredition (Tannen aus Plastik) (2016) [FLAC]\Disc 4\07 - Bonez MC & Maxwell - Grosses Kaliber (Instrumental).wav

Peak level 97.7 %
Extraction speed 5.7 X
Track quality 100.0 %
Test CRC 7AF0AA07
Copy CRC 7AF0AA07
Track not present in AccurateRip database
Copy OK

Track 8

Filename C:\EAC\TEMPORIS@PASSTHEHEADPHONES.ME\Bonez MC & RAF Camora - Palmen aus Plastik - Winteredition (Tannen aus Plastik) (2016) [FLAC]\Disc 4\08 - LX & Maxwell - Wieder vereint (Instrumental).wav

Peak level 97.7 %
Extraction speed 4.8 X
Track quality 99.9 %
Test CRC 90D1FBAB
Copy CRC 90D1FBAB
Track not present in AccurateRip database
Copy OK

Track 9

Filename C:\EAC\TEMPORIS@PASSTHEHEADPHONES.ME\Bonez MC & RAF Camora - Palmen aus Plastik - Winteredition (Tannen aus Plastik) (2016) [FLAC]\Disc 4\09 - Gzuz, Bonez MC & Sa4 - Meine Sprache (Instrumental).wav

Peak level 97.7 %
Extraction speed 7.0 X
Track quality 100.0 %
Test CRC 54307783
Copy CRC 54307783
Track not present in AccurateRip database
Copy OK

Track 10

Filename C:\EAC\TEMPORIS@PASSTHEHEADPHONES.ME\Bonez MC & RAF Camora - Palmen aus Plastik - Winteredition (Tannen aus Plastik) (2016) [FLAC]\Disc 4\10 - Bonez MC & Gzuz - Lebenslauf (Instrumental).wav

Peak level 97.7 %
Extraction speed 7.1 X
Track quality 100.0 %
Test CRC 48252B82
Copy CRC 48252B82
Track not present in AccurateRip database
Copy OK


None of the tracks are present in the AccurateRip database

No errors occurred

End of status report

–– CUETools DB Plugin V2.1.6

[CTDB TOCID: NKNDXJirfPPROjucgmVT35aroX4-] found
Submit result: NKNDXJirfPPROjucgmVT35aroX4- has been confirmed
Track | CTDB Status
1 | (1/1) Accurately ripped
2 | (1/1) Accurately ripped
3 | (1/1) Accurately ripped
4 | (1/1) Accurately ripped
5 | (1/1) Accurately ripped
6 | (1/1) Accurately ripped
7 | (1/1) Accurately ripped
8 | (1/1) Accurately ripped
9 | (1/1) Accurately ripped
10 | (1/1) Accurately ripped


==== Log checksum DFE646C983CCE21521C92FBB20558FB7A80AB89C617A1D6A999EF8C305D1F20D ====