Subcategories
Tags
Language
Tags

Yamamoto Seiichi & Acid Mothers Temple - Mega Psychedelia (2011) {Acid Mothers Temple}

Posted By: TestTickles
Yamamoto Seiichi & Acid Mothers Temple - Mega Psychedelia (2011) {Acid Mothers Temple}

Yamamoto Seiichi & Acid Mothers Temple - Mega Psychedelia (2011) {Acid Mothers Temple}
EAC Rip | FLAC with CUE and log | scans | 505 mb
MP3 CBR 320 kbps | RAR | 175 mb
Genre: psychedelic rock

Mega Psychedelia is a 2011 collaborative album by Yamamoto Seiichi & Acid Mothers Temple. This was released on Acid Mothers Temple, whic means it's for their fans.

1. Space Introduction/Planet Dreaming Turtles/Brain Stormbringer (27:02)
2. Electric/Pink Lady Lemonade Acid 2009 (36:56)
3. Cometary Orbital Driver/Mega Psychedelia Or Absolutely Mu (15:09)

Yamamoto Seiichi-guitar
Tsuyama Atsushi-bass, voice-acoustic guitar
Shimura Koji-drums
Higashi Hiros-synthesizer
Kawabata Makoto-guitar, electric bouzouki, electronics

Producer & mixed by Kawabata Makoto

X Lossless Decoder version 20120609 (141.0)

XLD extraction logfile from 2013-03-10 08:16:26 -0400

Yamamoto Seiichi & Acid Mothers Temple / Mega Psychedelia

Used drive : HL-DT-ST BD-RE WH10LS30 (revision 1.00)

Ripper mode : XLD Secure Ripper
Disable audio cache : OK for the drive with a cache less than 1375KiB
Make use of C2 pointers : NO
Read offset correction : 667
Max retry count : 20
Gap status : Analyzed, Appended

TOC of the extracted CD
Track | Start | Length | Start sector | End sector
––––––––––––––––––––––––––––-
1 | 00:00:00 | 27:05:01 | 0 | 121875
2 | 27:05:01 | 36:59:67 | 121876 | 288367
3 | 64:04:68 | 15:09:34 | 288368 | 356576

AccurateRip Summary
Disc not found in AccurateRip DB.

All Tracks
Album gain : -11.37 dB
Peak : 0.988678
Statistics
Read error : 0
Jitter error (maybe fixed) : 0
Retry sector count : 0
Damaged sector count : 0

Track 01
Filename : /cuntfist/FLAC/Yamamoto Seiichi & Acid Mothers Temple - Mega Psychedelia (2011) [FLAC] {Acid Mothers Temple}/01 - Space Introduction, Planet Dreaming Turtles, Brain Stormbringer.flac
Pre-gap length : 00:02:00
Track gain : -10.26 dB
Peak : 0.988647
CRC32 hash (test run) : DA46F6FD
CRC32 hash : DA46F6FD
CRC32 hash (skip zero) : 06FD253A
AccurateRip v1 signature : 41B0AE8C
AccurateRip v2 signature : 06032779
->Track not present in AccurateRip database.
Statistics
Read error : 0
Jitter error (maybe fixed) : 0
Retry sector count : 0
Damaged sector count : 0

Track 02
Filename : /cuntfist/FLAC/Yamamoto Seiichi & Acid Mothers Temple - Mega Psychedelia (2011) [FLAC] {Acid Mothers Temple}/02 - Electric, Pink Lady Lemonade Acid 2009.flac
Pre-gap length : 00:03:00
Track gain : -11.93 dB
Peak : 0.988678
CRC32 hash (test run) : 89FB9BCB
CRC32 hash : 89FB9BCB
CRC32 hash (skip zero) : 6F503169
AccurateRip v1 signature : A2C40ED5
AccurateRip v2 signature : E418EC45
->Track not present in AccurateRip database.
Statistics
Read error : 0
Jitter error (maybe fixed) : 0
Retry sector count : 0
Damaged sector count : 0

Track 03
Filename : /cuntfist/FLAC/Yamamoto Seiichi & Acid Mothers Temple - Mega Psychedelia (2011) [FLAC] {Acid Mothers Temple}/03 - Cometary Orbital Driver, Mega Psychedelia Or Absolutely Mu.flac
Pre-gap length : 00:03:01
Track gain : -10.79 dB
Peak : 0.988678
CRC32 hash (test run) : B6815E0E
CRC32 hash : B6815E0E
CRC32 hash (skip zero) : 5EF6B9FD
AccurateRip v1 signature : 0C31B9A4
AccurateRip v2 signature : E24133AA
->Track not present in AccurateRip database.
Statistics
Read error : 0
Jitter error (maybe fixed) : 0
Retry sector count : 0
Damaged sector count : 0

No errors occurred

End of status report


Yamamoto Seiichi & Acid Mothers Temple - Mega Psychedelia (2011) {Acid Mothers Temple}


Thank you to the original uploader.