Subcategories

Weather Report - Original Album Classics [5CD Box Set] (2007)

Posted By: JET 1
Weather Report - Original Album Classics [5CD Box Set] (2007)

Weather Report - Original Album Classics [5CD Box Set] (2007)
EAC Rip | FLAC (Tracks) +CUE, LOG | 1.4 GB | Covers Included
Genre: Jazz, Fusion, Jazz-Rock | Label: Columbia | Catalog Number: 88697145472

2007 five CD set, a great installment in Sony/BMG's Original Album Classics series that brings together rare and out of print titles with some best sellers from the Sony/BMG Jazz catalog. Many of these albums have been unavailable on CD for some time and are sought after by collectors. Each set is presented in a high quality, rigid cardboard slipcase containing five 'vinyl replica' mini LP sleeves. This collection from the Jazz fusion greats features the albums I Sing the Body Electric, Sweetnighter, Mysterious Traveller, Black Market and Night Passage.

Exact Audio Copy V1.0 beta 6 from 9. April 2015

EAC extraction logfile from 5. May 2015, 13:25

Weather Report / I Sing The Body Electric

Used drive : TSSTcorpBDDVDW SE-506CB Adapter: 1 ID: 1

Read mode : Secure
Utilize accurate stream : Yes
Defeat audio cache : Yes
Make use of C2 pointers : No

Read offset correction : 6
Overread into Lead-In and Lead-Out : No
Fill up missing offset samples with silence : Yes
Delete leading and trailing silent blocks : No
Null samples used in CRC calculations : Yes
Used interface : Native Win32 interface for Win NT & 2000
Gap handling : Appended to previous track

Used output format : User Defined Encoder
Selected bitrate : 1024 kBit/s
Quality : High
Add ID3 tag : No
Command line compressor : C:\Program Files (x86)\Exact Audio Copy\FLAC\FLAC.EXE
Additional command line options : -8 -V -T "ARTIST=%artist%" -T "TITLE=%title%" -T "ALBUM=%albumtitle%" -T "DATE=%year%" -T "TRACKNUMBER=%tracknr%" -T "GENRE=%genre%" -T "PERFORMER=%albuminterpret%" -T "COMPOSER=%composer%" %haslyrics%–tag-from-file=LYRICS="%lyricsfile%"%haslyrics% -T "ALBUMARTIST=%albumartist%" -T "DISCNUMBER=%cdnumber%" -T "TOTALDISCS=%totalcds%" -T "TOTALTRACKS=%numtracks%" -T "COMMENT=%comment%" %source% -o %dest%


TOC of the extracted CD

Track | Start | Length | Start sector | End sector
––––––––––––––––––––––––––––-
1 | 0:00.00 | 8:00.05 | 0 | 36004
2 | 8:00.05 | 4:43.20 | 36005 | 57249
3 | 12:43.25 | 7:19.27 | 57250 | 90201
4 | 20:02.52 | 4:12.23 | 90202 | 109124
5 | 24:15.00 | 10:39.60 | 109125 | 157109
6 | 34:54.60 | 7:41.27 | 157110 | 191711
7 | 42:36.12 | 4:34.48 | 191712 | 212309


Track 1

Filename F:\My Storage\What.cd Uploads\Weather Report - Original Album Classics (2007) [FLAC]\Disc 1 (I Sing the Body Electric)\01 - Unknown Soldier.wav

Pre-gap length 0:00:02.00

Peak level 90.3 %
Extraction speed 1.2 X
Track quality 99.9 %
Test CRC 43B0E982
Copy CRC 43B0E982
Cannot be verified as accurate (confidence 72) [0A77317F], AccurateRip returned [1D8FD99E] (AR v2)
Copy OK

Track 2

Filename F:\My Storage\What.cd Uploads\Weather Report - Original Album Classics (2007) [FLAC]\Disc 1 (I Sing the Body Electric)\02 - The Moors.wav

Pre-gap length 0:00:03.00

Peak level 88.3 %
Extraction speed 1.4 X
Track quality 100.0 %
Test CRC 7009B6EB
Copy CRC 7009B6EB
Cannot be verified as accurate (confidence 72) [7C501198], AccurateRip returned [3AFB5281] (AR v2)
Copy OK

Track 3

Filename F:\My Storage\What.cd Uploads\Weather Report - Original Album Classics (2007) [FLAC]\Disc 1 (I Sing the Body Electric)\03 - Crystal.wav

Pre-gap length 0:00:03.00

Peak level 69.8 %
Extraction speed 1.6 X
Track quality 100.0 %
Test CRC E86F46D6
Copy CRC E86F46D6
Cannot be verified as accurate (confidence 72) [DE1D56BA], AccurateRip returned [C00C4554] (AR v2)
Copy OK

Track 4

Filename F:\My Storage\What.cd Uploads\Weather Report - Original Album Classics (2007) [FLAC]\Disc 1 (I Sing the Body Electric)\04 - Second Sunday In August.wav

Pre-gap length 0:00:03.00

Peak level 76.4 %
Extraction speed 1.5 X
Track quality 99.9 %
Test CRC E0C8678E
Copy CRC E0C8678E
Cannot be verified as accurate (confidence 71) [E9766EF2], AccurateRip returned [D1AEC98D] (AR v2)
Copy OK

Track 5

Filename F:\My Storage\What.cd Uploads\Weather Report - Original Album Classics (2007) [FLAC]\Disc 1 (I Sing the Body Electric)\05 - Medley- Vertical Invader, T.H., Dr. Honoris Causa.wav

Pre-gap length 0:00:03.00

Peak level 74.7 %
Extraction speed 1.9 X
Track quality 100.0 %
Test CRC 3A1E8728
Copy CRC 3A1E8728
Cannot be verified as accurate (confidence 72) [419CA611], AccurateRip returned [90651D65] (AR v2)
Copy OK

Track 6

Filename F:\My Storage\What.cd Uploads\Weather Report - Original Album Classics (2007) [FLAC]\Disc 1 (I Sing the Body Electric)\06 - Surucucu.wav

Peak level 67.7 %
Extraction speed 2.0 X
Track quality 100.0 %
Test CRC EA987E0D
Copy CRC EA987E0D
Cannot be verified as accurate (confidence 72) [75628FBE], AccurateRip returned [A060DB7C] (AR v2)
Copy OK

Track 7

Filename F:\My Storage\What.cd Uploads\Weather Report - Original Album Classics (2007) [FLAC]\Disc 1 (I Sing the Body Electric)\07 - Directions.wav

Peak level 68.0 %
Extraction speed 2.1 X
Track quality 100.0 %
Test CRC 5F3DB038
Copy CRC 5F3DB038
Cannot be verified as accurate (confidence 72) [F1AF8885], AccurateRip returned [C14ADD4F] (AR v2)
Copy OK


No tracks could be verified as accurate
You may have a different pressing from the one(s) in the database

No errors occurred

End of status report

–– CUETools DB Plugin V2.1.6

[CTDB TOCID: PAPOAT3tkk3e.CxvBmM674s_9b4-] found
Submit result: PAPOAT3tkk3e.CxvBmM674s_9b4- has been confirmed
Track | CTDB Status
1 | (52/52) Accurately ripped
2 | (52/52) Accurately ripped
3 | (52/52) Accurately ripped
4 | (52/52) Accurately ripped
5 | (52/52) Accurately ripped
6 | (52/52) Accurately ripped
7 | (52/52) Accurately ripped


==== Log checksum E02AA705B4168FCD1FD2BE70D2D7480682595145F0793DA3CC222DF71F64E542 ====


Exact Audio Copy V1.0 beta 6 from 9. April 2015

EAC extraction logfile from 5. May 2015, 14:34

Weather Report / Sweetnighter

Used drive : TSSTcorpBDDVDW SE-506CB Adapter: 1 ID: 1

Read mode : Secure
Utilize accurate stream : Yes
Defeat audio cache : Yes
Make use of C2 pointers : No

Read offset correction : 6
Overread into Lead-In and Lead-Out : No
Fill up missing offset samples with silence : Yes
Delete leading and trailing silent blocks : No
Null samples used in CRC calculations : Yes
Used interface : Native Win32 interface for Win NT & 2000
Gap handling : Appended to previous track

Used output format : User Defined Encoder
Selected bitrate : 1024 kBit/s
Quality : High
Add ID3 tag : No
Command line compressor : C:\Program Files (x86)\Exact Audio Copy\FLAC\FLAC.EXE
Additional command line options : -8 -V -T "ARTIST=%artist%" -T "TITLE=%title%" -T "ALBUM=%albumtitle%" -T "DATE=%year%" -T "TRACKNUMBER=%tracknr%" -T "GENRE=%genre%" -T "PERFORMER=%albuminterpret%" -T "COMPOSER=%composer%" %haslyrics%–tag-from-file=LYRICS="%lyricsfile%"%haslyrics% -T "ALBUMARTIST=%albumartist%" -T "DISCNUMBER=%cdnumber%" -T "TOTALDISCS=%totalcds%" -T "TOTALTRACKS=%numtracks%" -T "COMMENT=%comment%" %source% -o %dest%


TOC of the extracted CD

Track | Start | Length | Start sector | End sector
––––––––––––––––––––––––––––-
1 | 0:00.00 | 13:06.38 | 0 | 58987
2 | 13:06.38 | 5:58.25 | 58988 | 85862
3 | 19:04.63 | 3:01.12 | 85863 | 99449
4 | 22:06.00 | 12:15.65 | 99450 | 154639
5 | 34:21.65 | 6:22.63 | 154640 | 183352
6 | 40:44.53 | 3:50.72 | 183353 | 200674


Track 1

Filename F:\My Storage\What.cd Uploads\Weather Report - Original Album Classics (2007) [FLAC]\Disc 2 (Sweetnighter)\01 - Boogie Woogie Waltz.wav

Pre-gap length 0:00:02.00

Peak level 100.0 %
Extraction speed 1.3 X
Track quality 99.9 %
Test CRC 3E922FF8
Copy CRC 3E922FF8
Accurately ripped (confidence 32) [F8638E97] (AR v2)
Copy OK

Track 2

Filename F:\My Storage\What.cd Uploads\Weather Report - Original Album Classics (2007) [FLAC]\Disc 2 (Sweetnighter)\02 - Manolete.wav

Pre-gap length 0:00:03.97

Peak level 100.0 %
Extraction speed 1.6 X
Track quality 100.0 %
Test CRC 6C645BEE
Copy CRC 6C645BEE
Accurately ripped (confidence 31) [5E8C98F0] (AR v2)
Copy OK

Track 3

Filename F:\My Storage\What.cd Uploads\Weather Report - Original Album Classics (2007) [FLAC]\Disc 2 (Sweetnighter)\03 - Adios.wav

Pre-gap length 0:00:03.24

Peak level 84.9 %
Extraction speed 1.5 X
Track quality 100.0 %
Test CRC 1E9543E0
Copy CRC 1E9543E0
Accurately ripped (confidence 31) [D749CCBD] (AR v2)
Copy OK

Track 4

Filename F:\My Storage\What.cd Uploads\Weather Report - Original Album Classics (2007) [FLAC]\Disc 2 (Sweetnighter)\04 - 125th Street Congress.wav

Pre-gap length 0:00:02.82

Peak level 100.0 %
Extraction speed 1.9 X
Track quality 100.0 %
Test CRC 38CC97D6
Copy CRC 38CC97D6
Accurately ripped (confidence 32) [AE12D938] (AR v2)
Copy OK

Track 5

Filename F:\My Storage\What.cd Uploads\Weather Report - Original Album Classics (2007) [FLAC]\Disc 2 (Sweetnighter)\05 - Will.wav

Pre-gap length 0:00:03.13

Peak level 84.5 %
Extraction speed 2.0 X
Track quality 100.0 %
Test CRC 7530310C
Copy CRC 7530310C
Accurately ripped (confidence 32) [BDD49360] (AR v2)
Copy OK

Track 6

Filename F:\My Storage\What.cd Uploads\Weather Report - Original Album Classics (2007) [FLAC]\Disc 2 (Sweetnighter)\06 - Non-Stop Home.wav

Pre-gap length 0:00:04.57

Peak level 100.0 %
Extraction speed 2.0 X
Track quality 100.0 %
Test CRC A4B7C5BE
Copy CRC A4B7C5BE
Accurately ripped (confidence 31) [E6474358] (AR v2)
Copy OK


All tracks accurately ripped

No errors occurred

End of status report

–– CUETools DB Plugin V2.1.6

[CTDB TOCID: 1nEsbe1hX4g6vqt8j8v5VrUrIok-] found
Submit result: 1nEsbe1hX4g6vqt8j8v5VrUrIok- has been confirmed
Track | CTDB Status
1 | (53/53) Accurately ripped
2 | (53/53) Accurately ripped
3 | (53/53) Accurately ripped
4 | (53/53) Accurately ripped
5 | (53/53) Accurately ripped
6 | (53/53) Accurately ripped


==== Log checksum F1C8B305D9AE3327F448C9F76D480B6CBEADECABCC9B09861806A32EC2C28CDC ====


Exact Audio Copy V1.0 beta 6 from 9. April 2015

EAC extraction logfile from 5. May 2015, 15:44

Weather Report / Mysterious Traveller

Used drive : TSSTcorpBDDVDW SE-506CB Adapter: 1 ID: 1

Read mode : Secure
Utilize accurate stream : Yes
Defeat audio cache : Yes
Make use of C2 pointers : No

Read offset correction : 6
Overread into Lead-In and Lead-Out : No
Fill up missing offset samples with silence : Yes
Delete leading and trailing silent blocks : No
Null samples used in CRC calculations : Yes
Used interface : Native Win32 interface for Win NT & 2000
Gap handling : Appended to previous track

Used output format : User Defined Encoder
Selected bitrate : 1024 kBit/s
Quality : High
Add ID3 tag : No
Command line compressor : C:\Program Files (x86)\Exact Audio Copy\FLAC\FLAC.EXE
Additional command line options : -8 -V -T "ARTIST=%artist%" -T "TITLE=%title%" -T "ALBUM=%albumtitle%" -T "DATE=%year%" -T "TRACKNUMBER=%tracknr%" -T "GENRE=%genre%" -T "PERFORMER=%albuminterpret%" -T "COMPOSER=%composer%" %haslyrics%–tag-from-file=LYRICS="%lyricsfile%"%haslyrics% -T "ALBUMARTIST=%albumartist%" -T "DISCNUMBER=%cdnumber%" -T "TOTALDISCS=%totalcds%" -T "TOTALTRACKS=%numtracks%" -T "COMMENT=%comment%" %source% -o %dest%


TOC of the extracted CD

Track | Start | Length | Start sector | End sector
––––––––––––––––––––––––––––-
1 | 0:00.00 | 10:40.37 | 0 | 48036
2 | 10:40.37 | 3:40.08 | 48037 | 64544
3 | 14:20.45 | 8:22.40 | 64545 | 102234
4 | 22:43.10 | 7:21.32 | 102235 | 135341
5 | 30:04.42 | 5:02.48 | 135342 | 158039
6 | 35:07.15 | 5:45.72 | 158040 | 183986
7 | 40:53.12 | 7:22.43 | 183987 | 217179


Track 1

Filename F:\My Storage\What.cd Uploads\Weather Report - Original Album Classics (2007) [FLAC]\Disc 3 (Mysterious Traveller)\01 - Nubian Sundance.wav

Pre-gap length 0:00:02.00

Peak level 75.0 %
Extraction speed 1.3 X
Track quality 100.0 %
Test CRC 2713924A
Copy CRC 2713924A
Cannot be verified as accurate (confidence 72) [AE09C052], AccurateRip returned [BB2BD447] (AR v2)
Copy OK

Track 2

Filename F:\My Storage\What.cd Uploads\Weather Report - Original Album Classics (2007) [FLAC]\Disc 3 (Mysterious Traveller)\02 - American Tango.wav

Pre-gap length 0:00:01.46

Peak level 74.9 %
Extraction speed 1.2 X
Track quality 99.9 %
Test CRC CE9C6E9C
Copy CRC CE9C6E9C
Cannot be verified as accurate (confidence 71) [E0DC3094], AccurateRip returned [8740BFC4] (AR v2)
Copy OK

Track 3

Filename F:\My Storage\What.cd Uploads\Weather Report - Original Album Classics (2007) [FLAC]\Disc 3 (Mysterious Traveller)\03 - Cucumber Slumber.wav

Pre-gap length 0:00:00.73

Peak level 74.9 %
Extraction speed 1.7 X
Track quality 100.0 %
Test CRC 2C0C0CFF
Copy CRC 2C0C0CFF
Cannot be verified as accurate (confidence 72) [BAC5B327], AccurateRip returned [C2A03D95] (AR v2)
Copy OK

Track 4

Filename F:\My Storage\What.cd Uploads\Weather Report - Original Album Classics (2007) [FLAC]\Disc 3 (Mysterious Traveller)\04 - Mysterious Traveller.wav

Pre-gap length 0:00:01.66

Peak level 100.0 %
Extraction speed 1.8 X
Track quality 100.0 %
Test CRC 6E6E5A7F
Copy CRC 6E6E5A7F
Cannot be verified as accurate (confidence 72) [2A433881], AccurateRip returned [E039508E] (AR v2)
Copy OK

Track 5

Filename F:\My Storage\What.cd Uploads\Weather Report - Original Album Classics (2007) [FLAC]\Disc 3 (Mysterious Traveller)\05 - Blackthorn Rose.wav

Pre-gap length 0:00:02.00

Peak level 95.8 %
Extraction speed 1.9 X
Track quality 100.0 %
Test CRC AF67D8CE
Copy CRC AF67D8CE
Cannot be verified as accurate (confidence 72) [F23F3B47], AccurateRip returned [3551AA04] (AR v2)
Copy OK

Track 6

Filename F:\My Storage\What.cd Uploads\Weather Report - Original Album Classics (2007) [FLAC]\Disc 3 (Mysterious Traveller)\06 - Scarlet Woman.wav

Pre-gap length 0:00:03.04

Peak level 79.4 %
Extraction speed 2.0 X
Track quality 100.0 %
Test CRC 55C14FDE
Copy CRC 55C14FDE
Cannot be verified as accurate (confidence 72) [F00371E1], AccurateRip returned [936F411F] (AR v2)
Copy OK

Track 7

Filename F:\My Storage\What.cd Uploads\Weather Report - Original Album Classics (2007) [FLAC]\Disc 3 (Mysterious Traveller)\07 - Jungle Book.wav

Pre-gap length 0:00:01.93

Peak level 94.4 %
Extraction speed 2.0 X
Track quality 99.9 %
Test CRC 869D8EEA
Copy CRC 869D8EEA
Cannot be verified as accurate (confidence 72) [629B2584], AccurateRip returned [34C2F9F7] (AR v2)
Copy OK


No tracks could be verified as accurate
You may have a different pressing from the one(s) in the database

No errors occurred

End of status report

–– CUETools DB Plugin V2.1.6

[CTDB TOCID: jp3j5G.Nr89rTyj9drwOhAeZp8o-] found
Submit result: jp3j5G.Nr89rTyj9drwOhAeZp8o- has been confirmed
Track | CTDB Status
1 | (51/51) Accurately ripped
2 | (51/51) Accurately ripped
3 | (51/51) Accurately ripped
4 | (51/51) Accurately ripped
5 | (50/51) Accurately ripped
6 | (51/51) Accurately ripped
7 | (51/51) Accurately ripped


==== Log checksum A3CE91F78AA877F4252C68C812A3B9B087DB72D2BC8AFAB9EFB5CC7237BE8D72 ====


Exact Audio Copy V1.0 beta 6 from 9. April 2015

EAC extraction logfile from 5. May 2015, 16:50

Weather Report / Black Market

Used drive : TSSTcorpBDDVDW SE-506CB Adapter: 1 ID: 1

Read mode : Secure
Utilize accurate stream : Yes
Defeat audio cache : Yes
Make use of C2 pointers : No

Read offset correction : 6
Overread into Lead-In and Lead-Out : No
Fill up missing offset samples with silence : Yes
Delete leading and trailing silent blocks : No
Null samples used in CRC calculations : Yes
Used interface : Native Win32 interface for Win NT & 2000
Gap handling : Appended to previous track

Used output format : User Defined Encoder
Selected bitrate : 1024 kBit/s
Quality : High
Add ID3 tag : No
Command line compressor : C:\Program Files (x86)\Exact Audio Copy\FLAC\FLAC.EXE
Additional command line options : -8 -V -T "ARTIST=%artist%" -T "TITLE=%title%" -T "ALBUM=%albumtitle%" -T "DATE=%year%" -T "TRACKNUMBER=%tracknr%" -T "GENRE=%genre%" -T "PERFORMER=%albuminterpret%" -T "COMPOSER=%composer%" %haslyrics%–tag-from-file=LYRICS="%lyricsfile%"%haslyrics% -T "ALBUMARTIST=%albumartist%" -T "DISCNUMBER=%cdnumber%" -T "TOTALDISCS=%totalcds%" -T "TOTALTRACKS=%numtracks%" -T "COMMENT=%comment%" %source% -o %dest%


TOC of the extracted CD

Track | Start | Length | Start sector | End sector
––––––––––––––––––––––––––––-
1 | 0:00.00 | 6:30.20 | 0 | 29269
2 | 6:30.20 | 4:40.52 | 29270 | 50321
3 | 11:10.72 | 7:49.23 | 50322 | 85519
4 | 19:00.20 | 5:03.40 | 85520 | 108284
5 | 24:03.60 | 3:27.30 | 108285 | 123839
6 | 27:31.15 | 3:10.67 | 123840 | 138156
7 | 30:42.07 | 6:38.40 | 138157 | 168046


Track 1

Filename F:\My Storage\What.cd Uploads\Weather Report - Original Album Classics (2007) [FLAC]\Disc 4 (Black Market)\01 - Black Market.wav

Pre-gap length 0:00:02.00

Peak level 99.9 %
Extraction speed 1.2 X
Track quality 100.0 %
Test CRC 883D67A0
Copy CRC 883D67A0
Cannot be verified as accurate (confidence 75) [B17F3779], AccurateRip returned [F904C617] (AR v2)
Copy OK

Track 2

Filename F:\My Storage\What.cd Uploads\Weather Report - Original Album Classics (2007) [FLAC]\Disc 4 (Black Market)\02 - Cannon Ball.wav

Peak level 99.9 %
Extraction speed 1.3 X
Track quality 100.0 %
Test CRC C4EFF749
Copy CRC C4EFF749
Cannot be verified as accurate (confidence 75) [A98A2B6B], AccurateRip returned [1C21CB60] (AR v2)
Copy OK

Track 3

Filename F:\My Storage\What.cd Uploads\Weather Report - Original Album Classics (2007) [FLAC]\Disc 4 (Black Market)\03 - Gibraltar.wav

Peak level 99.9 %
Extraction speed 1.6 X
Track quality 100.0 %
Test CRC 74DD312B
Copy CRC 74DD312B
Cannot be verified as accurate (confidence 75) [D20C9C76], AccurateRip returned [5BD2F470] (AR v2)
Copy OK

Track 4

Filename F:\My Storage\What.cd Uploads\Weather Report - Original Album Classics (2007) [FLAC]\Disc 4 (Black Market)\04 - Elegant People.wav

Peak level 99.9 %
Extraction speed 1.6 X
Track quality 100.0 %
Test CRC AD5AD2B4
Copy CRC AD5AD2B4
Cannot be verified as accurate (confidence 75) [4E0852AE], AccurateRip returned [C37B8C00] (AR v2)
Copy OK

Track 5

Filename F:\My Storage\What.cd Uploads\Weather Report - Original Album Classics (2007) [FLAC]\Disc 4 (Black Market)\05 - Three Clowns.wav

Peak level 99.9 %
Extraction speed 1.6 X
Track quality 100.0 %
Test CRC 4641DE9B
Copy CRC 4641DE9B
Cannot be verified as accurate (confidence 75) [4AC73B43], AccurateRip returned [B8AE354E] (AR v2)
Copy OK

Track 6

Filename F:\My Storage\What.cd Uploads\Weather Report - Original Album Classics (2007) [FLAC]\Disc 4 (Black Market)\06 - Barbary Coast.wav

Peak level 99.9 %
Extraction speed 1.5 X
Track quality 99.9 %
Test CRC EB10A387
Copy CRC EB10A387
Cannot be verified as accurate (confidence 75) [1AAB4BB3], AccurateRip returned [6F84DC95] (AR v2)
Copy OK

Track 7

Filename F:\My Storage\What.cd Uploads\Weather Report - Original Album Classics (2007) [FLAC]\Disc 4 (Black Market)\07 - Herandnu.wav

Peak level 99.9 %
Extraction speed 2.0 X
Track quality 100.0 %
Test CRC D757E1CE
Copy CRC D757E1CE
Cannot be verified as accurate (confidence 75) [F72E1647], AccurateRip returned [0B4AEB68] (AR v2)
Copy OK


No tracks could be verified as accurate
You may have a different pressing from the one(s) in the database

No errors occurred

End of status report

–– CUETools DB Plugin V2.1.6

[CTDB TOCID: rp.64qMW63vzSgmfAw3YMhOYrWk-] found
Submit result: rp.64qMW63vzSgmfAw3YMhOYrWk- has been confirmed
Track | CTDB Status
1 | (54/54) Accurately ripped
2 | (54/54) Accurately ripped
3 | (54/54) Accurately ripped
4 | (54/54) Accurately ripped
5 | (54/54) Accurately ripped
6 | (54/54) Accurately ripped
7 | (54/54) Accurately ripped


==== Log checksum 4F3BE5FF33E2419B8AF3991D3C0F082695BF78EE9DC6B3FAB246CD28E1B0F574 ====


Exact Audio Copy V1.0 beta 6 from 9. April 2015

EAC extraction logfile from 5. May 2015, 17:59

Weather Report / Night Passage

Used drive : TSSTcorpBDDVDW SE-506CB Adapter: 1 ID: 1

Read mode : Secure
Utilize accurate stream : Yes
Defeat audio cache : Yes
Make use of C2 pointers : No

Read offset correction : 6
Overread into Lead-In and Lead-Out : No
Fill up missing offset samples with silence : Yes
Delete leading and trailing silent blocks : No
Null samples used in CRC calculations : Yes
Used interface : Native Win32 interface for Win NT & 2000
Gap handling : Appended to previous track

Used output format : User Defined Encoder
Selected bitrate : 1024 kBit/s
Quality : High
Add ID3 tag : No
Command line compressor : C:\Program Files (x86)\Exact Audio Copy\FLAC\FLAC.EXE
Additional command line options : -8 -V -T "ARTIST=%artist%" -T "TITLE=%title%" -T "ALBUM=%albumtitle%" -T "DATE=%year%" -T "TRACKNUMBER=%tracknr%" -T "GENRE=%genre%" -T "PERFORMER=%albuminterpret%" -T "COMPOSER=%composer%" %haslyrics%–tag-from-file=LYRICS="%lyricsfile%"%haslyrics% -T "ALBUMARTIST=%albumartist%" -T "DISCNUMBER=%cdnumber%" -T "TOTALDISCS=%totalcds%" -T "TOTALTRACKS=%numtracks%" -T "COMMENT=%comment%" %source% -o %dest%


TOC of the extracted CD

Track | Start | Length | Start sector | End sector
––––––––––––––––––––––––––––-
1 | 0:00.00 | 6:30.00 | 0 | 29249
2 | 6:30.00 | 6:26.00 | 29250 | 58199
3 | 12:56.00 | 5:09.00 | 58200 | 81374
4 | 18:05.00 | 3:55.12 | 81375 | 99011
5 | 22:00.12 | 3:02.05 | 99012 | 112666
6 | 25:02.17 | 6:17.20 | 112667 | 140961
7 | 31:19.37 | 5:50.13 | 140962 | 167224
8 | 37:09.50 | 10:56.25 | 167225 | 216449


Track 1

Filename F:\My Storage\What.cd Uploads\Weather Report - Original Album Classics (2007) [FLAC]\Disc 5 (Night Passage)\01 - Night Passage.wav

Pre-gap length 0:00:02.00

Peak level 93.6 %
Extraction speed 1.2 X
Track quality 100.0 %
Test CRC 5994F3B3
Copy CRC 5994F3B3
Accurately ripped (confidence 5) [68DCF970] (AR v2)
Copy OK

Track 2

Filename F:\My Storage\What.cd Uploads\Weather Report - Original Album Classics (2007) [FLAC]\Disc 5 (Night Passage)\02 - Dream Clock.wav

Peak level 74.0 %
Extraction speed 1.4 X
Track quality 100.0 %
Test CRC 6D958F8F
Copy CRC 6D958F8F
Accurately ripped (confidence 5) [8E124002] (AR v2)
Copy OK

Track 3

Filename F:\My Storage\What.cd Uploads\Weather Report - Original Album Classics (2007) [FLAC]\Disc 5 (Night Passage)\03 - Port of Entry.wav

Peak level 87.4 %
Extraction speed 1.5 X
Track quality 100.0 %
Test CRC 98E0AC68
Copy CRC 98E0AC68
Accurately ripped (confidence 5) [49B90C77] (AR v2)
Copy OK

Track 4

Filename F:\My Storage\What.cd Uploads\Weather Report - Original Album Classics (2007) [FLAC]\Disc 5 (Night Passage)\04 - Forlorn.wav

Peak level 37.4 %
Extraction speed 1.6 X
Track quality 100.0 %
Test CRC 5ED95230
Copy CRC 5ED95230
Accurately ripped (confidence 5) [8B5D6750] (AR v2)
Copy OK

Track 5

Filename F:\My Storage\What.cd Uploads\Weather Report - Original Album Classics (2007) [FLAC]\Disc 5 (Night Passage)\05 - Rockin' in Rhythm.wav

Peak level 86.5 %
Extraction speed 1.6 X
Track quality 100.0 %
Test CRC FC8D25D4
Copy CRC FC8D25D4
Accurately ripped (confidence 5) [760D6184] (AR v2)
Copy OK

Track 6

Filename F:\My Storage\What.cd Uploads\Weather Report - Original Album Classics (2007) [FLAC]\Disc 5 (Night Passage)\06 - Fast City.wav

Peak level 100.0 %
Extraction speed 1.8 X
Track quality 100.0 %
Test CRC 09DA124C
Copy CRC 09DA124C
Accurately ripped (confidence 5) [5FE63158] (AR v2)
Copy OK

Track 7

Filename F:\My Storage\What.cd Uploads\Weather Report - Original Album Classics (2007) [FLAC]\Disc 5 (Night Passage)\07 - Three Views of a Secret.wav

Peak level 100.0 %
Extraction speed 1.9 X
Track quality 100.0 %
Test CRC B3340C94
Copy CRC B3340C94
Accurately ripped (confidence 5) [8F155F31] (AR v2)
Copy OK

Track 8

Filename F:\My Storage\What.cd Uploads\Weather Report - Original Album Classics (2007) [FLAC]\Disc 5 (Night Passage)\08 - Madagascar.wav

Peak level 97.0 %
Extraction speed 2.2 X
Track quality 100.0 %
Test CRC DF0A1F71
Copy CRC DF0A1F71
Accurately ripped (confidence 5) [1191F705] (AR v2)
Copy OK


All tracks accurately ripped

No errors occurred

End of status report

–– CUETools DB Plugin V2.1.6

[CTDB TOCID: Ip.UAFkKdmtOFvz.X0pKoWHeB4k-] found
Submit result: Ip.UAFkKdmtOFvz.X0pKoWHeB4k- has been confirmed
Track | CTDB Status
1 | ( 88/139) Accurately ripped
2 | ( 88/139) Accurately ripped
3 | ( 88/139) Accurately ripped
4 | ( 88/139) Accurately ripped
5 | ( 75/139) Accurately ripped, or (13/139) differs in 43945 samples @03:01:22-03:01:67
6 | ( 75/139) Accurately ripped, or (13/139) differs in 25055 samples @00:01:07-00:01:29
7 | ( 88/139) Accurately ripped
8 | ( 88/139) Accurately ripped


==== Log checksum EE7CD0DFBA875BCA23C92DE50FB1C87B5A5A8DF746AD7995D451319121DAA99D ====


Tracklist:
Disc 1: I Sing the Body Electric (1972)
1-1 Unknown Soldier 7:57
1-2 The Moors 4:49
1-3 Crystal 7:23
1-4 Second Day In August 4:04
1-5 Medley: Vertical Invader, T.H., Dr. Honoris Causa 10:45
1-6 Surucucú 7:46
1-7 Directions 4:37

Disc 2: Sweetnighter (1973)
2-1 Boogie Woogie Waltz 13:03
2-2 Manolete 5:55
2-3 Adios 2:59
2-4 125th Street Congress 12:13
2-5 Will 6:20
2-6 Non-Stop Home 3:52

Disc 3: Mysterious Traveller (1974)
3-1 Nubian Sundance 10:40
3-2 American Tango 3:42
3-3 Cucumber Slumber 8:22
3-4 Mysterious Traveller 7:18
3-5 Blackthorn Rose 5:02
3-6 Scarlet Woman 5:47
3-7 Jungle Book 7:20

Disc 4: Black Market (1976)
4-1 Black Market 6:30
4-2 Cannon Ball 4:40
4-3 Gibraltar 7:49
4-4 Elegant People 5:03
4-5 Three Clowns 3:27
4-6 Barbary Coast 3:10
4-7 Herandnu 6:38

Disc 5: Night Passage (1980)
5-1 Night Passage 6:30
5-2 Dream Clock 6:26
5-3 Port Of Entry 5:09
5-4 Forlorn 3:55
5-5 Rockin' In Rhythm 3:02
5-6 Fast City 6:17
5-7 Three Views Of A Secret 5:50
5-8 Madagascar 10:56