Tags
Language
Tags
December 2022
Su Mo Tu We Th Fr Sa
27 28 29 30 1 2 3
4 5 6 7 8 9 10
11 12 13 14 15 16 17
18 19 20 21 22 23 24
25 26 27 28 29 30 31

Valery Gergiev, London Symphony Chorus & Orchestra - Alexander Scriabin: Symphonies Nos 1 & 2 (2016) 2CDs

Posted By: Designol
Valery Gergiev, London Symphony Chorus & Orchestra - Alexander Scriabin: Symphonies Nos 1 & 2 (2016) 2CDs

Alexander Scriabin: Symphonies Nos 1 & 2 (2016) 2CDs
Ekaterina Sergeeva, mezzo soprano; Alexander Timchenko, tenor
London Symphony Chorus & Orchestra; Valery Gergiev, conductor

EAC | FLAC | Image (Cue&Log) ~ 356 Mb | Mp3 (CBR320) ~ 212 Mb | Scans included
Classical | Label: LSO Live | # LSO0770 | Time: 01:31:10

As a composer of orchestral music, Alexander Scriabin is best known for his last two idiosyncratic symphonies, the Poem of Ecstasy and Prometheus: The Poem of Fire, which are essentially symphonic poems, not symphonies in the conventional sense. The Symphony No. 1 (1900) and the Symphony No. 2 (1901), however, are more recognizable as symphonies in their multiple-movement forms, and their durations are comparable to the expansive symphonies of Scriabin's contemporary, Gustav Mahler. They also share the post-Romantic tendency toward Wagnerian harmonies, rhapsodic melodies, and lush orchestration, which, in Scriabin's case, were developed to express heightened emotional states and mystical transcendence. This 2016 double SACD by Valery Gergiev and the London Symphony Orchestra presents each of the symphonies on its own disc, and the high-quality multichannel sound is ideal for bringing across the subtle nuances of tone color and the shifting of dynamics that are characteristic of his style. Listeners who are daunted by the sheer density and intensity of Scriabin's later works might find these symphonies more approachable, and the live interpretations by Gergiev and the LSO are hard to improve on. Highly recommended.

Review by Blair Sanderson, Allmusic.com

Valery Gergiev, London Symphony Chorus & Orchestra - Alexander Scriabin: Symphonies Nos 1 & 2 (2016) 2CDs



Valery Gergiev, London Symphony Chorus & Orchestra - Alexander Scriabin: Symphonies Nos 1 & 2 (2016) 2CDs



Ekaterina Sergeeva, mezzo soprano (Symphony No.1)
Alexander Timchenko, tenor (Symphony No.1)
London Symphony Chorus, Simon Halsey, chorus director (Symphony No.1)
London Symphony Orchestra
Valery Gergiev, conductor

Tracklist:

CD1 - Symphony no 1 in E major, Op. 26:

01. I. Lento (06:51)
02. II. Allegro drammatico (10:56)
03. III. Lento (07:59)
04. IV. Vivace (03:22)
05. V. Allegro (07:17)
06. VI. Andante (13:41)

CD2 - Symphony no 2 in C minor, Op. 29 :

01. I. Andante (05:52)
02. II. Allegro (09:50)
03. III. Andante (11:54)
04. IV. Tempestoso (05:30)
05. V. Maestoso (07:53)


Exact Audio Copy V1.1 from 23. June 2015

EAC extraction logfile from 16. October 2016, 22:09

Ekaterina Sergeeva, Alexander Timchenko, LSC, LSO, Valery Gergiev / Scriabin - Symphony No.1

Used drive : HL-DT-STDVDRAM GU70N Adapter: 1 ID: 0

Read mode : Secure
Utilize accurate stream : Yes
Defeat audio cache : Yes
Make use of C2 pointers : No

Read offset correction : 48
Overread into Lead-In and Lead-Out : No
Fill up missing offset samples with silence : Yes
Delete leading and trailing silent blocks : No
Null samples used in CRC calculations : Yes
Used interface : Native Win32 interface for Win NT & 2000

Used output format : User Defined Encoder
Selected bitrate : 128 kBit/s
Quality : High
Add ID3 tag : No
Command line compressor : C:\Program Files (x86)\Exact Audio Copy\Flac\flac.exe
Additional command line options : -V -8 -T "Date=%year%" -T "Genre=%genre%" %source%


TOC of the extracted CD

Track | Start | Length | Start sector | End sector
––––––––––––––––––––––––––––-
1 | 0:00.00 | 6:51.16 | 0 | 30840
2 | 6:51.16 | 10:56.72 | 30841 | 80112
3 | 17:48.13 | 7:59.54 | 80113 | 116091
4 | 25:47.67 | 3:22.00 | 116092 | 131241
5 | 29:09.67 | 7:17.46 | 131242 | 164062
6 | 36:27.38 | 13:41.01 | 164063 | 225638


Range status and errors

Selected range

Filename C:\temp\Scriabin - Symphonies Nos. 1 & 2 -LSO, Gergiev\CD1\Scriabin - Symphony No.1.wav

Peak level 100.0 %
Extraction speed 2.1 X
Range quality 100.0 %
Test CRC B700550B
Copy CRC B700550B
Copy OK

No errors occurred


AccurateRip summary

Track 1 accurately ripped (confidence 3) [6956F638] (AR v2)
Track 2 accurately ripped (confidence 3) [BAFD9407] (AR v2)
Track 3 accurately ripped (confidence 3) [8B9E2192] (AR v2)
Track 4 accurately ripped (confidence 3) [C076BCDA] (AR v2)
Track 5 accurately ripped (confidence 3) [23663583] (AR v2)
Track 6 accurately ripped (confidence 3) [6E465479] (AR v2)

All tracks accurately ripped

End of status report

==== Log checksum 6A5265636B4C8FE251A72E0E63C058BFEA4A4CD6893813069D79433C2B94FF34 ====

foobar2000 1.2 / Dynamic Range Meter 1.1.1
log date: 2016-11-03 06:38:45

––––––––––––––––––––––––––––––––––––––––
Analyzed: LSO, Valery Gergiev / Scriabin - Symphony No.1
––––––––––––––––––––––––––––––––––––––––

DR Peak RMS Duration Track
––––––––––––––––––––––––––––––––––––––––
DR13 -10.98 dB -31.15 dB 6:51 01-Symphony No.1 - I. Lento
DR14 -3.72 dB -23.18 dB 10:57 02-Symphony No.1 - II. Allegro drammatico
DR13 -7.34 dB -26.49 dB 8:00 03-Symphony No.1 - III. Lento
DR13 -12.95 dB -33.77 dB 3:22 04-Symphony No.1 - IV. Vivace
DR14 -1.55 dB -22.72 dB 7:18 05-Symphony No.1 - V. Allegro
––––––––––––––––––––––––––––––––––––––––

Number of tracks: 5
Official DR value: DR13

Samplerate: 44100 Hz
Channels: 2
Bits per sample: 16
Bitrate: 509 kbps
Codec: FLAC
================================================================================

foobar2000 1.2 / Dynamic Range Meter 1.1.1
log date: 2016-11-03 06:38:33

––––––––––––––––––––––––––––––––––––––––
Statistics for: 06-Symphony No.1 - VI. Andante
Number of samples: 36206688
Duration: 13:41
––––––––––––––––––––––––––––––––––––––––

Left Right

Peak Value: -1.54 dB –- 0.00 dB
Avg RMS: -23.31 dB –- -23.26 dB
DR channel: 15.07 dB –- 16.92 dB
––––––––––––––––––––––––––––––––––––––––

Official DR Value: DR16

Samplerate: 44100 Hz
Channels: 2
Bits per sample: 16
Bitrate: 509 kbps
Codec: FLAC
================================================================================


Exact Audio Copy V1.1 from 23. June 2015

EAC extraction logfile from 16. October 2016, 23:02

LSO, Valery Gergiev / Scriabin - Symphony No.2

Used drive : HL-DT-STDVDRAM GU70N Adapter: 1 ID: 0

Read mode : Secure
Utilize accurate stream : Yes
Defeat audio cache : Yes
Make use of C2 pointers : No

Read offset correction : 48
Overread into Lead-In and Lead-Out : No
Fill up missing offset samples with silence : Yes
Delete leading and trailing silent blocks : No
Null samples used in CRC calculations : Yes
Used interface : Native Win32 interface for Win NT & 2000

Used output format : User Defined Encoder
Selected bitrate : 128 kBit/s
Quality : High
Add ID3 tag : No
Command line compressor : C:\Program Files (x86)\Exact Audio Copy\Flac\flac.exe
Additional command line options : -V -8 -T "Date=%year%" -T "Genre=%genre%" %source%


TOC of the extracted CD

Track | Start | Length | Start sector | End sector
––––––––––––––––––––––––––––-
1 | 0:00.00 | 5:52.22 | 0 | 26421
2 | 5:52.22 | 9:50.67 | 26422 | 70738
3 | 15:43.14 | 11:54.41 | 70739 | 124329
4 | 27:37.55 | 5:30.21 | 124330 | 149100
5 | 33:08.01 | 7:53.21 | 149101 | 184596


Range status and errors

Selected range

Filename C:\temp\Scriabin - Symphonies Nos. 1 & 2 -LSO, Gergiev\CD2\Scriabin - Symphony No.2.wav

Peak level 100.0 %
Extraction speed 2.0 X
Range quality 100.0 %
Test CRC 7DB07BBE
Copy CRC 7DB07BBE
Copy OK

No errors occurred


AccurateRip summary

Track 1 accurately ripped (confidence 3) [852E9A21] (AR v2)
Track 2 accurately ripped (confidence 3) [CF087A3D] (AR v2)
Track 3 accurately ripped (confidence 3) [ECA68140] (AR v2)
Track 4 accurately ripped (confidence 3) [F0B50230] (AR v2)
Track 5 accurately ripped (confidence 3) [EE90BA3A] (AR v2)

All tracks accurately ripped

End of status report

==== Log checksum CF79AA392D33FB137A6219A56601ADC505AC953730C21999D93107D541AF2F54 ====

foobar2000 1.2 / Dynamic Range Meter 1.1.1
log date: 2016-11-03 06:38:59

––––––––––––––––––––––––––––––––––––––––
Analyzed: LSO, Valery Gergiev / Scriabin - Symphony No.2
––––––––––––––––––––––––––––––––––––––––

DR Peak RMS Duration Track
––––––––––––––––––––––––––––––––––––––––
DR16 -0.98 dB -24.12 dB 5:52 01-Symphony No.2 - I. Andante
DR13 -2.71 dB -20.03 dB 9:51 02-Symphony No.2 - II. Allegro
DR15 -3.52 dB -25.07 dB 11:55 03-Symphony No.2 - III. Andante
DR15 0.00 dB -20.87 dB 5:30 04-Symphony No.2 - IV. Tempestoso
DR13 -0.04 dB -18.66 dB 7:53 05-Symphony No.2 - V. Maestoso
––––––––––––––––––––––––––––––––––––––––

Number of tracks: 5
Official DR value: DR14

Samplerate: 44100 Hz
Channels: 2
Bits per sample: 16
Bitrate: 584 kbps
Codec: FLAC
================================================================================

Valery Gergiev, London Symphony Chorus & Orchestra - Alexander Scriabin: Symphonies Nos 1 & 2 (2016) 2CDs

All thanks to original releaser

More interesting music in My Blog