Tags
Language
Tags
June 2024
Su Mo Tu We Th Fr Sa
26 27 28 29 30 31 1
2 3 4 5 6 7 8
9 10 11 12 13 14 15
16 17 18 19 20 21 22
23 24 25 26 27 28 29
30 1 2 3 4 5 6

Tommy Emmanuel, C.G.P. - The Very Best of Tommy Emmanuel (2001) 2CDs

Posted By: Designol
Tommy Emmanuel, C.G.P. - The Very Best of Tommy Emmanuel (2001) 2CDs

Tommy Emmanuel, C.G.P. - The Very Best of Tommy Emmanuel (2001) 2CDs
EAC | FLAC | Tracks (Cue&Log) ~ 815 Mb | Mp3 (CBR320) ~ 278 Mb
Label: Columbia | # 5033112000 | Time: 02:01:34 | Scans ~ 17 MB
Guitar Virtuoso, Fingerpicking, World, Folk, Guitar Jazz, Instrumental Rock

This is a two-disc, 28-track anthology of favorites by Australian guitar virtuoso Tommy Emmanuel. Disc one is electric and disc two is acoustic. This cd is a wonderful introduction to Tommy Emmanuel's music. This virtuoso has been hailed by Chet Atkins as "One of the greatest players on this planet" and was honored by Chet in 1999 as CGP. He's known throughout the world and is starting to make a name for himself in the US. If you enjoy lush rich guitar playing, this one is for you. It's full of many styles - jazz, blues, country - and many moods. It also gives the listener a great sampling of his range both acoustically and electric. I've had the chance to see him live and he plays his music with every fiber of his being. If you cannot get his whole catalog, this one is a great beginning to your collection.

Tommy Emmanuel, four-time winner of Australia's Best Guitarist award, has helped bring the art of rock guitar down under to a higher awareness over his two-decade-long career by bringing a sense of jazz improvisation into a mix that also includes blues, country, rock, classical, and Spanish music. After years as a popular sideman and ace songwriter, the two-time ARIA (Aussie Grammys equivalent) award winner launched his solo career in 1988 with Up from Down Under. Several releases have followed, most notably 1993's critically acclaimed The Journey, which hit high on Gavin and Radio & Records NAC airplay charts. He has shown a mastery and affinity for both electric and acoustic axes and has been singled out by the likes of notable musicians such as Chet Atkins – with whom he recorded The Day Finger Pickers Took Over the World in 1997 – and Todd Rundgren, who considers him an innovator on the instrument. Only appeared in 2001, followed by 2002's Endless Road (it was finally released in the U.S. three years later), 2005's Live One, and 2006's Happy Hour (with Jim Nichols) and Mystery.

Although Emmanuel took a brief hiatus from the music industry at the end of 2007 for health reasons, that October he recorded all three nights of a residency at the Sierra Nevada Brewery in Chico, California. These recordings would make up the acclaimed double-CD live set that was released as Center Stage in April 2008. Equally well-received was 2010’s Little by Little, a comeback of sorts in the form of a double-studio album which featured a tasteful rendition of Carole King's "Tapestry." 2011’s All I Want for Christmas nodded in places to John Fahey's classic festive recordings, while 2013’s The Colonel & The Governor saw him team up with the equally talented English guitarist Martin Taylor.

Jonathan Widran, Allmusic.com

Tommy Emmanuel, C.G.P. - The Very Best of Tommy Emmanuel (2001) 2CDs



Tracklist:

CD1 - 'Electric':

01. Don't Hold Me Back (03:29)
02. The Journey (04:59)
03. Fear Of Rain (04:55)
04. Who Dares Wins (05:22)
05. Big Brother (04:00)
06. Stevie's Blues (04:23)
07. Hearts Grow Fonder (04:10)
08. Guitar Boogie (03:30)
09. When You Come Home (04:32)
10. Determination (04:48)
11. Don't Argue (03:59)
12. From The Hip (04:34)
13. Tailin' The Invisible Man (05:04)
14. The Rise And Fall Of Flingel Bunt (03:48)

CD2 - 'Acoustic':

01. Amanda's Room (04:31)
02. Classical Gas (05:05)
03. Hellos And Goodbyes (04:36)
04. Countrywide (02:54)
05. Up From Down Under (05:27)
06. Villa De Martin (04:25)
07. Fiesta (04:23)
08. Midnight Drive (04:09)
09. Since We Met (04:00)
10. Mountain Of Truth (04:50)
11. Initiation (04:19)
12. Last Time I Saw You (04:35)
13. Blue Moon (02:37)
14. Change For Good (03:57)


Exact Audio Copy V0.99 prebeta 5 from 4. May 2009

EAC extraction logfile from 10. May 2009, 20:46

Tommy Emmanuel / The Very Best of

Used drive : HL-DT-STDVDRAM GSA-4167B Adapter: 0 ID: 2

Read mode : Secure
Utilize accurate stream : Yes
Defeat audio cache : Yes
Make use of C2 pointers : No

Read offset correction : 667
Overread into Lead-In and Lead-Out : No
Fill up missing offset samples with silence : Yes
Delete leading and trailing silent blocks : No
Null samples used in CRC calculations : Yes
Used interface : Native Win32 interface for Win NT & 2000
Gap handling : Appended to previous track

Used output format : User Defined Encoder
Selected bitrate : 320 kBit/s
Quality : High
Add ID3 tag : No
Command line compressor : C:\Program Files\Exact Audio Copy\Flac\flac.exe
Additional command line options : -V -8 -T "artist=%a" -T "title=%t" -T "album=%g" -T "date=%y" -T "tracknumber=%n" -T "genre=%m" %s


TOC of the extracted CD

Track | Start | Length | Start sector | End sector
––––––––––––––––––––––––––––-
1 | 0:00.00 | 3:29.52 | 0 | 15726
2 | 3:29.52 | 4:59.05 | 15727 | 38156
3 | 8:28.57 | 4:55.53 | 38157 | 60334
4 | 13:24.35 | 5:22.12 | 60335 | 84496
5 | 18:46.47 | 4:00.30 | 84497 | 102526
6 | 22:47.02 | 4:23.25 | 102527 | 122276
7 | 27:10.27 | 4:10.40 | 122277 | 141066
8 | 31:20.67 | 3:30.15 | 141067 | 156831
9 | 34:51.07 | 4:32.65 | 156832 | 177296
10 | 39:23.72 | 4:48.38 | 177297 | 198934
11 | 44:12.35 | 3:59.22 | 198935 | 216881
12 | 48:11.57 | 4:34.13 | 216882 | 237444
13 | 52:45.70 | 5:04.35 | 237445 | 260279
14 | 57:50.30 | 3:48.25 | 260280 | 277404


Track 1

Filename C:\Documents and Settings\All Users\Documents\My Music\FLAC\Tommy Emmanuel\The Very Best of\01 - Don't Hold Me Back.wav

Pre-gap length 0:00:02.00

Peak level 98.8 %
Track quality 100.0 %
Test CRC 012B9F10
Copy CRC 012B9F10
Accurately ripped (confidence 3) [54DF1D48]
Copy OK

Track 2

Filename C:\Documents and Settings\All Users\Documents\My Music\FLAC\Tommy Emmanuel\The Very Best of\02 - The Journey.wav

Peak level 95.2 %
Track quality 100.0 %
Test CRC 9A7E1704
Copy CRC 9A7E1704
Accurately ripped (confidence 3) [1FE340E8]
Copy OK

Track 3

Filename C:\Documents and Settings\All Users\Documents\My Music\FLAC\Tommy Emmanuel\The Very Best of\03 - Fear of Rain.wav

Peak level 100.0 %
Track quality 100.0 %
Test CRC 8CB98300
Copy CRC 8CB98300
Accurately ripped (confidence 3) [3CC5FD6B]
Copy OK

Track 4

Filename C:\Documents and Settings\All Users\Documents\My Music\FLAC\Tommy Emmanuel\The Very Best of\04 - Who Dares Wins.wav

Pre-gap length 0:00:01.10

Peak level 98.8 %
Track quality 100.0 %
Test CRC FBA2EC5F
Copy CRC FBA2EC5F
Accurately ripped (confidence 3) [501BBA87]
Copy OK

Track 5

Filename C:\Documents and Settings\All Users\Documents\My Music\FLAC\Tommy Emmanuel\The Very Best of\05 - Big Brother.wav

Peak level 98.2 %
Track quality 99.9 %
Test CRC 19E7AD76
Copy CRC 19E7AD76
Accurately ripped (confidence 3) [6373926D]
Copy OK

Track 6

Filename C:\Documents and Settings\All Users\Documents\My Music\FLAC\Tommy Emmanuel\The Very Best of\06 - Stevie's Blues.wav

Peak level 92.2 %
Track quality 99.9 %
Test CRC 177BFE05
Copy CRC 177BFE05
Accurately ripped (confidence 3) [F58167B4]
Copy OK

Track 7

Filename C:\Documents and Settings\All Users\Documents\My Music\FLAC\Tommy Emmanuel\The Very Best of\07 - Hearts Grow Fonder.wav

Pre-gap length 0:00:01.32

Peak level 93.3 %
Track quality 100.0 %
Test CRC ADA45F5D
Copy CRC ADA45F5D
Accurately ripped (confidence 3) [B2EA34D1]
Copy OK

Track 8

Filename C:\Documents and Settings\All Users\Documents\My Music\FLAC\Tommy Emmanuel\The Very Best of\08 - Guitar Boogie.wav

Pre-gap length 0:00:01.05

Peak level 93.3 %
Track quality 99.9 %
Test CRC 1D906A5A
Copy CRC 1D906A5A
Accurately ripped (confidence 3) [A6501761]
Copy OK

Track 9

Filename C:\Documents and Settings\All Users\Documents\My Music\FLAC\Tommy Emmanuel\The Very Best of\09 - When You Come Home.wav

Pre-gap length 0:00:01.67

Peak level 92.2 %
Track quality 100.0 %
Test CRC 1C982134
Copy CRC 1C982134
Accurately ripped (confidence 3) [DFEAD613]
Copy OK

Track 10

Filename C:\Documents and Settings\All Users\Documents\My Music\FLAC\Tommy Emmanuel\The Very Best of\10 - Determination.wav

Peak level 98.8 %
Track quality 100.0 %
Test CRC D072137C
Copy CRC D072137C
Accurately ripped (confidence 2) [87E6D217]
Copy OK

Track 11

Filename C:\Documents and Settings\All Users\Documents\My Music\FLAC\Tommy Emmanuel\The Very Best of\11 - Don't Argue.wav

Peak level 94.4 %
Track quality 100.0 %
Test CRC 7582C487
Copy CRC 7582C487
Accurately ripped (confidence 2) [72C28C18]
Copy OK

Track 12

Filename C:\Documents and Settings\All Users\Documents\My Music\FLAC\Tommy Emmanuel\The Very Best of\12 - From the Hip.wav

Pre-gap length 0:00:01.27

Peak level 92.2 %
Track quality 100.0 %
Test CRC BD56F256
Copy CRC BD56F256
Accurately ripped (confidence 2) [7FCC3858]
Copy OK

Track 13

Filename C:\Documents and Settings\All Users\Documents\My Music\FLAC\Tommy Emmanuel\The Very Best of\13 - Tailin' the Invisible Man.wav

Pre-gap length 0:00:01.10

Peak level 92.9 %
Track quality 100.0 %
Test CRC C11413E2
Copy CRC C11413E2
Accurately ripped (confidence 3) [152DF366]
Copy OK

Track 14

Filename C:\Documents and Settings\All Users\Documents\My Music\FLAC\Tommy Emmanuel\The Very Best of\14 - The Rise and Fall of Flingel Bunt.wav

Pre-gap length 0:00:01.10

Peak level 93.3 %
Track quality 100.0 %
Test CRC 2D8F5863
Copy CRC 2D8F5863
Accurately ripped (confidence 3) [83B212D8]
Copy OK


All tracks accurately ripped

No errors occurred

End of status report

[CUETools log; Date: 26.08.2015 19:02:27; Version: 2.1.4]
[CTDB TOCID: GK4EMYap2XJAas3nhJ_J6DXVwLo-] found.
Track | CTDB Status
1 | (9/9) Accurately ripped
2 | (9/9) Accurately ripped
3 | (9/9) Accurately ripped
4 | (9/9) Accurately ripped
5 | (9/9) Accurately ripped
6 | (9/9) Accurately ripped
7 | (9/9) Accurately ripped
8 | (9/9) Accurately ripped
9 | (9/9) Accurately ripped
10 | (9/9) Accurately ripped
11 | (9/9) Accurately ripped
12 | (9/9) Accurately ripped
13 | (9/9) Accurately ripped
14 | (9/9) Accurately ripped
[AccurateRip ID: 001fe2bf-0153e98f-be0e720e] found.
Track [ CRC | V2 ] Status
01 [54df1d48|ca5b98e2] (07+00/25) Accurately ripped
02 [1fe340e8|de6b0bc1] (07+00/25) Accurately ripped
03 [3cc5fd6b|e878f7e0] (07+00/25) Accurately ripped
04 [501bba87|24b8b4f1] (07+00/25) Accurately ripped
05 [6373926d|a3a14727] (07+00/24) Accurately ripped
06 [f58167b4|bdc460ed] (07+00/25) Accurately ripped
07 [b2ea34d1|971d0dab] (07+00/25) Accurately ripped
08 [a6501761|ff98fdac] (07+00/25) Accurately ripped
09 [dfead613|d8625388] (07+00/25) Accurately ripped
10 [87e6d217|ecb5842b] (06+00/24) Accurately ripped
11 [72c28c18|7b5660fd] (06+00/23) Accurately ripped
12 [7fcc3858|76a0eac5] (06+00/24) Accurately ripped
13 [152df366|c5290c88] (07+00/25) Accurately ripped
14 [83b212d8|7bc032d4] (07+00/23) Accurately ripped
Offsetted by 1:
01 [3af082e0] (06/25) Accurately ripped
02 [5cf840e8] (06/25) Accurately ripped
03 [ef6f0b40] (06/25) Accurately ripped
04 [d5c94876] (06/25) Accurately ripped
05 [ee63ee2b] (05/24) Accurately ripped
06 [7f9adb7e] (06/25) Accurately ripped
07 [b7eef9d9] (06/25) Accurately ripped
08 [b52ccb89] (06/25) Accurately ripped
09 [0926f505] (06/25) Accurately ripped
10 [e77805bb] (06/24) Accurately ripped
11 [c20e046e] (06/23) Accurately ripped
12 [7661b8bc] (06/24) Accurately ripped
13 [80218f72] (06/25) Accurately ripped
14 [a49b7d08] (06/23) Accurately ripped
Offsetted by -664:
01 [97bf9b08] (02/25) Accurately ripped
02 [b16b40e8] (02/25) Accurately ripped
03 [d64a1cf3] (02/25) Accurately ripped
04 [95f3969f] (02/25) Accurately ripped
05 [04059d9d] (02/24) Accurately ripped
06 [c37d13c4] (02/25) Accurately ripped
07 [ae8b2811] (02/25) Accurately ripped
08 [19dccfa1] (02/25) Accurately ripped
09 [ebfa9263] (02/25) Accurately ripped
10 [a748e0b7] (02/24) Accurately ripped
11 [c7026d08] (02/23) Accurately ripped
12 [ec0734f8] (02/24) Accurately ripped
13 [ad513446] (02/25) Accurately ripped
14 [2646a658] (00/23) No match (V2 was not tested)

Track Peak [ CRC32 ] [W/O NULL] [ LOG ]
– 100,0 [369D9F6E] [874C63DF]
01 98,8 [012B9F10] [A12BC71C] CRC32
02 95,2 [9A7E1704] [97B4AB9A] CRC32
03 100,0 [8CB98300] [7793B907] CRC32
04 98,8 [FBA2EC5F] [3DABFE5D] CRC32
05 98,2 [19E7AD76] [DE7789FA] CRC32
06 92,2 [177BFE05] [2260C3C1] CRC32
07 93,3 [ADA45F5D] [30FD7C3E] CRC32
08 93,3 [1D906A5A] [F8A8F754] CRC32
09 92,2 [1C982134] [761ED663] CRC32
10 98,8 [D072137C] [84F9894C] CRC32
11 94,4 [7582C487] [678217D3] CRC32
12 92,2 [BD56F256] [BF3DC468] CRC32
13 92,9 [C11413E2] [763BB673] CRC32
14 93,3 [2D8F5863] [84B4A1F1] CRC32

foobar2000 1.2 / Dynamic Range Meter 1.1.1
log date: 2015-08-26 19:10:27

––––––––––––––––––––––––––––––––––––––––
Analyzed: Tommy Emmanuel / The Very Best Of Tommy Emmanuel (disc 1 - electric)
––––––––––––––––––––––––––––––––––––––––

DR Peak RMS Duration Track
––––––––––––––––––––––––––––––––––––––––
DR8 -0.10 dB -9.15 dB 3:30 01-Don't Hold Me Back
DR6 -0.43 dB -9.66 dB 4:59 02-The Journey
DR8 0.00 dB -9.82 dB 4:56 03-Fear Of Rain
DR8 -0.10 dB -9.80 dB 5:22 04-Who Dares Wins
DR7 -0.16 dB -9.80 dB 4:00 05-Big Brother
DR8 -0.70 dB -10.15 dB 4:23 06-Stevie's Blues
DR9 -0.60 dB -11.57 dB 4:11 07-Hearts Grow Fonder
DR9 -0.60 dB -10.30 dB 3:30 08-Guitar Boogie
DR10 -0.70 dB -11.69 dB 4:33 09-When You Come Home
DR9 -0.10 dB -10.27 dB 4:49 10-Determination
DR8 -0.50 dB -10.66 dB 3:59 11-Don't Argue
DR9 -0.70 dB -10.51 dB 4:34 12-From The Hip
DR8 -0.63 dB -10.62 dB 5:04 13-Tailin' The Invisible Man
DR9 -0.60 dB -11.18 dB 3:48 14-The Rise And Fall Of Flingel Bunt
––––––––––––––––––––––––––––––––––––––––

Number of tracks: 14
Official DR value: DR8

Samplerate: 44100 Hz
Channels: 2
Bits per sample: 16
Bitrate: 1030 kbps
Codec: FLAC
================================================================================


Exact Audio Copy V0.99 prebeta 5 from 4. May 2009

EAC extraction logfile from 10. May 2009, 22:16

Tommy Emmanuel / The Very Best of

Used drive : HL-DT-STDVDRAM GSA-4167B Adapter: 0 ID: 2

Read mode : Secure
Utilize accurate stream : Yes
Defeat audio cache : Yes
Make use of C2 pointers : No

Read offset correction : 667
Overread into Lead-In and Lead-Out : No
Fill up missing offset samples with silence : Yes
Delete leading and trailing silent blocks : No
Null samples used in CRC calculations : Yes
Used interface : Native Win32 interface for Win NT & 2000
Gap handling : Appended to previous track

Used output format : User Defined Encoder
Selected bitrate : 320 kBit/s
Quality : High
Add ID3 tag : No
Command line compressor : C:\Program Files\Exact Audio Copy\Flac\flac.exe
Additional command line options : -V -8 -T "artist=%a" -T "title=%t" -T "album=%g" -T "date=%y" -T "tracknumber=%n" -T "genre=%m" %s


TOC of the extracted CD

Track | Start | Length | Start sector | End sector
––––––––––––––––––––––––––––-
1 | 0:00.00 | 4:31.22 | 0 | 20346
2 | 4:31.22 | 5:05.45 | 20347 | 43266
3 | 9:36.67 | 4:36.43 | 43267 | 64009
4 | 14:13.35 | 2:54.30 | 64010 | 77089
5 | 17:07.65 | 5:27.00 | 77090 | 101614
6 | 22:34.65 | 4:25.30 | 101615 | 121519
7 | 27:00.20 | 4:23.12 | 121520 | 141256
8 | 31:23.32 | 4:09.53 | 141257 | 159984
9 | 35:33.10 | 4:00.70 | 159985 | 178054
10 | 39:34.05 | 4:50.40 | 178055 | 199844
11 | 44:24.45 | 4:19.62 | 199845 | 219331
12 | 48:44.32 | 4:35.38 | 219332 | 239994
13 | 53:19.70 | 2:37.62 | 239995 | 251831
14 | 55:57.57 | 3:57.50 | 251832 | 269656


Track 1

Filename C:\Documents and Settings\All Users\Documents\My Music\FLAC\Tommy Emmanuel\The Very Best of\01 - Amanda's Room.wav

Pre-gap length 0:00:02.00

Peak level 98.8 %
Track quality 99.9 %
Test CRC 87FDA240
Copy CRC 87FDA240
Accurately ripped (confidence 7) [47ED011B]
Copy OK

Track 2

Filename C:\Documents and Settings\All Users\Documents\My Music\FLAC\Tommy Emmanuel\The Very Best of\02 - Classical Gas.wav

Pre-gap length 0:00:01.17

Peak level 98.8 %
Track quality 100.0 %
Test CRC 6DBB9F53
Copy CRC 6DBB9F53
Accurately ripped (confidence 7) [C03F67A9]
Copy OK

Track 3

Filename C:\Documents and Settings\All Users\Documents\My Music\FLAC\Tommy Emmanuel\The Very Best of\03 - Hellos and Goodbyes.wav

Pre-gap length 0:00:01.72

Peak level 91.7 %
Track quality 100.0 %
Test CRC 639D316D
Copy CRC 639D316D
Accurately ripped (confidence 7) [285A4601]
Copy OK

Track 4

Filename C:\Documents and Settings\All Users\Documents\My Music\FLAC\Tommy Emmanuel\The Very Best of\04 - Countrywide.wav

Pre-gap length 0:00:01.15

Peak level 98.8 %
Track quality 100.0 %
Test CRC EB5D6DA8
Copy CRC EB5D6DA8
Accurately ripped (confidence 6) [25CB3D1D]
Copy OK

Track 5

Filename C:\Documents and Settings\All Users\Documents\My Music\FLAC\Tommy Emmanuel\The Very Best of\05 - Up from Down Under.wav

Pre-gap length 0:00:01.20

Peak level 99.9 %
Track quality 100.0 %
Test CRC 064E09F5
Copy CRC 064E09F5
Accurately ripped (confidence 7) [4D1583B4]
Copy OK

Track 6

Filename C:\Documents and Settings\All Users\Documents\My Music\FLAC\Tommy Emmanuel\The Very Best of\06 - Villa de Martin.wav

Peak level 92.3 %
Track quality 100.0 %
Test CRC 8CFF0F06
Copy CRC 8CFF0F06
Accurately ripped (confidence 7) [AF68F465]
Copy OK

Track 7

Filename C:\Documents and Settings\All Users\Documents\My Music\FLAC\Tommy Emmanuel\The Very Best of\07 - Fiesta.wav

Pre-gap length 0:00:01.18

Peak level 98.8 %
Track quality 100.0 %
Test CRC 6FB424AE
Copy CRC 6FB424AE
Accurately ripped (confidence 7) [B536CA76]
Copy OK

Track 8

Filename C:\Documents and Settings\All Users\Documents\My Music\FLAC\Tommy Emmanuel\The Very Best of\08 - Midnight Drive.wav

Pre-gap length 0:00:01.22

Peak level 87.7 %
Track quality 99.9 %
Test CRC 8C56D239
Copy CRC 8C56D239
Accurately ripped (confidence 7) [404C11E6]
Copy OK

Track 9

Filename C:\Documents and Settings\All Users\Documents\My Music\FLAC\Tommy Emmanuel\The Very Best of\09 - Since We Met.wav

Pre-gap length 0:00:01.03

Peak level 88.1 %
Track quality 100.0 %
Test CRC 538776DE
Copy CRC 538776DE
Accurately ripped (confidence 7) [C168BEDC]
Copy OK

Track 10

Filename C:\Documents and Settings\All Users\Documents\My Music\FLAC\Tommy Emmanuel\The Very Best of\10 - Mountain of Truth.wav

Pre-gap length 0:00:01.15

Peak level 98.8 %
Track quality 99.9 %
Test CRC 32C20652
Copy CRC 32C20652
Accurately ripped (confidence 7) [FE5E4622]
Copy OK

Track 11

Filename C:\Documents and Settings\All Users\Documents\My Music\FLAC\Tommy Emmanuel\The Very Best of\11 - Initiation.wav

Pre-gap length 0:00:01.48

Peak level 82.0 %
Track quality 100.0 %
Test CRC 9223A328
Copy CRC 9223A328
Accurately ripped (confidence 6) [3928124A]
Copy OK

Track 12

Filename C:\Documents and Settings\All Users\Documents\My Music\FLAC\Tommy Emmanuel\The Very Best of\12 - Last Time I Saw You.wav

Pre-gap length 0:00:01.47

Peak level 92.2 %
Track quality 100.0 %
Test CRC 7208FC78
Copy CRC 7208FC78
Accurately ripped (confidence 7) [1AE4E333]
Copy OK

Track 13

Filename C:\Documents and Settings\All Users\Documents\My Music\FLAC\Tommy Emmanuel\The Very Best of\13 - Blue Moon.wav

Pre-gap length 0:00:01.53

Peak level 92.2 %
Track quality 100.0 %
Test CRC CD608E79
Copy CRC CD608E79
Accurately ripped (confidence 7) [575CFCA9]
Copy OK

Track 14

Filename C:\Documents and Settings\All Users\Documents\My Music\FLAC\Tommy Emmanuel\The Very Best of\14 - Change for Good.wav

Pre-gap length 0:00:01.40

Peak level 92.2 %
Track quality 100.0 %
Test CRC 67D19157
Copy CRC 67D19157
Accurately ripped (confidence 6) [953E1A66]
Copy OK


All tracks accurately ripped

No errors occurred

End of status report

[CUETools log; Date: 26.08.2015 19:02:27; Version: 2.1.4]
[CTDB TOCID: GK4EMYap2XJAas3nhJ_J6DXVwLo-] found.
Track | CTDB Status
1 | (9/9) Accurately ripped
2 | (9/9) Accurately ripped
3 | (9/9) Accurately ripped
4 | (9/9) Accurately ripped
5 | (9/9) Accurately ripped
6 | (9/9) Accurately ripped
7 | (9/9) Accurately ripped
8 | (9/9) Accurately ripped
9 | (9/9) Accurately ripped
10 | (9/9) Accurately ripped
11 | (9/9) Accurately ripped
12 | (9/9) Accurately ripped
13 | (9/9) Accurately ripped
14 | (9/9) Accurately ripped
[AccurateRip ID: 001fe2bf-0153e98f-be0e720e] found.
Track [ CRC | V2 ] Status
01 [54df1d48|ca5b98e2] (07+00/25) Accurately ripped
02 [1fe340e8|de6b0bc1] (07+00/25) Accurately ripped
03 [3cc5fd6b|e878f7e0] (07+00/25) Accurately ripped
04 [501bba87|24b8b4f1] (07+00/25) Accurately ripped
05 [6373926d|a3a14727] (07+00/24) Accurately ripped
06 [f58167b4|bdc460ed] (07+00/25) Accurately ripped
07 [b2ea34d1|971d0dab] (07+00/25) Accurately ripped
08 [a6501761|ff98fdac] (07+00/25) Accurately ripped
09 [dfead613|d8625388] (07+00/25) Accurately ripped
10 [87e6d217|ecb5842b] (06+00/24) Accurately ripped
11 [72c28c18|7b5660fd] (06+00/23) Accurately ripped
12 [7fcc3858|76a0eac5] (06+00/24) Accurately ripped
13 [152df366|c5290c88] (07+00/25) Accurately ripped
14 [83b212d8|7bc032d4] (07+00/23) Accurately ripped
Offsetted by 1:
01 [3af082e0] (06/25) Accurately ripped
02 [5cf840e8] (06/25) Accurately ripped
03 [ef6f0b40] (06/25) Accurately ripped
04 [d5c94876] (06/25) Accurately ripped
05 [ee63ee2b] (05/24) Accurately ripped
06 [7f9adb7e] (06/25) Accurately ripped
07 [b7eef9d9] (06/25) Accurately ripped
08 [b52ccb89] (06/25) Accurately ripped
09 [0926f505] (06/25) Accurately ripped
10 [e77805bb] (06/24) Accurately ripped
11 [c20e046e] (06/23) Accurately ripped
12 [7661b8bc] (06/24) Accurately ripped
13 [80218f72] (06/25) Accurately ripped
14 [a49b7d08] (06/23) Accurately ripped
Offsetted by -664:
01 [97bf9b08] (02/25) Accurately ripped
02 [b16b40e8] (02/25) Accurately ripped
03 [d64a1cf3] (02/25) Accurately ripped
04 [95f3969f] (02/25) Accurately ripped
05 [04059d9d] (02/24) Accurately ripped
06 [c37d13c4] (02/25) Accurately ripped
07 [ae8b2811] (02/25) Accurately ripped
08 [19dccfa1] (02/25) Accurately ripped
09 [ebfa9263] (02/25) Accurately ripped
10 [a748e0b7] (02/24) Accurately ripped
11 [c7026d08] (02/23) Accurately ripped
12 [ec0734f8] (02/24) Accurately ripped
13 [ad513446] (02/25) Accurately ripped
14 [2646a658] (00/23) No match (V2 was not tested)

Track Peak [ CRC32 ] [W/O NULL] [ LOG ]
– 100,0 [369D9F6E] [874C63DF]
01 98,8 [012B9F10] [A12BC71C] CRC32
02 95,2 [9A7E1704] [97B4AB9A] CRC32
03 100,0 [8CB98300] [7793B907] CRC32
04 98,8 [FBA2EC5F] [3DABFE5D] CRC32
05 98,2 [19E7AD76] [DE7789FA] CRC32
06 92,2 [177BFE05] [2260C3C1] CRC32
07 93,3 [ADA45F5D] [30FD7C3E] CRC32
08 93,3 [1D906A5A] [F8A8F754] CRC32
09 92,2 [1C982134] [761ED663] CRC32
10 98,8 [D072137C] [84F9894C] CRC32
11 94,4 [7582C487] [678217D3] CRC32
12 92,2 [BD56F256] [BF3DC468] CRC32
13 92,9 [C11413E2] [763BB673] CRC32
14 93,3 [2D8F5863] [84B4A1F1] CRC32

foobar2000 1.2 / Dynamic Range Meter 1.1.1
log date: 2015-08-26 19:10:27

––––––––––––––––––––––––––––––––––––––––
Analyzed: Tommy Emmanuel / The Very Best Of Tommy Emmanuel (disc 1 - electric)
––––––––––––––––––––––––––––––––––––––––

DR Peak RMS Duration Track
––––––––––––––––––––––––––––––––––––––––
DR8 -0.10 dB -9.15 dB 3:30 01-Don't Hold Me Back
DR6 -0.43 dB -9.66 dB 4:59 02-The Journey
DR8 0.00 dB -9.82 dB 4:56 03-Fear Of Rain
DR8 -0.10 dB -9.80 dB 5:22 04-Who Dares Wins
DR7 -0.16 dB -9.80 dB 4:00 05-Big Brother
DR8 -0.70 dB -10.15 dB 4:23 06-Stevie's Blues
DR9 -0.60 dB -11.57 dB 4:11 07-Hearts Grow Fonder
DR9 -0.60 dB -10.30 dB 3:30 08-Guitar Boogie
DR10 -0.70 dB -11.69 dB 4:33 09-When You Come Home
DR9 -0.10 dB -10.27 dB 4:49 10-Determination
DR8 -0.50 dB -10.66 dB 3:59 11-Don't Argue
DR9 -0.70 dB -10.51 dB 4:34 12-From The Hip
DR8 -0.63 dB -10.62 dB 5:04 13-Tailin' The Invisible Man
DR9 -0.60 dB -11.18 dB 3:48 14-The Rise And Fall Of Flingel Bunt
––––––––––––––––––––––––––––––––––––––––

Number of tracks: 14
Official DR value: DR8

Samplerate: 44100 Hz
Channels: 2
Bits per sample: 16
Bitrate: 1030 kbps
Codec: FLAC
================================================================================

Tommy Emmanuel, C.G.P. - The Very Best of Tommy Emmanuel (2001) 2CDs

All thanks to original releaser

More interesting music in My Blog