Subcategories
Please register here if you want to download anything!

If domain in your address bar is different from the list below
PLEASE LEAVE THAT SITE IMMEDIATELY
❗IT'S A DANGEROUS FAKE❗



Spicy Magazines for Men! ;-)

The Paul Butterfield Blues Band - East-West Live (1996)

Posted By: uff
The Paul Butterfield Blues Band - East-West Live (1996)

The Paul Butterfield Blues Band - East-West Live (1996)
Blues Rock | 1cd | EAC Rip | Flac + Cue + Log | covers
Winner 447 | rec: 1966-1967 | 230Mb

The tune "East-West" from the second Paul Butterfield Blues Band album of the same name made music history. It is arguably the first extended rock solo, a fusing of blues-rock with Eastern scales and tone. Here is the root of psychedelic acid rock. Now, thanks to Mark Naftalin (the original Butterfield keyboardist), listeners have three live recordings of "East-West" recorded in 1966-1967 that capture the origin and development of this classic tune. The first example (some 12 minutes) was taped prior to the edited studio version; the second (16 minutes) and third (28 minutes) were recorded after the album cut. There is some great music (and music history) here. ~Allmusic

Track listing
01. East-West Live Version 1 (12:38)
02. East-West Live Version 2 (15:55)
03. East-West Live Version 3 (28:06)


EAC extraction logfile from 20. March 2007, 12:40 for CD
Butterfield Blues Band / East-West Live

Used drive : TSSTcorpCD/DVDW TS-L632D Adapter: 0 ID: 1
Read mode : Secure with NO C2, accurate stream, disable cache
Read offset correction : 6
Overread into Lead-In and Lead-Out : No

Used output format : C:\Programmi\FLAC\flac.exe (User Defined Encoder)
320 kBit/s
Additional command line options : -V –replay-gain -8 -T "artist=%a" -T "title=%t" -T "album=%g" -T "date=%y" -T "tracknumber=%n" -T "genre=%m" %s

Other options :
Fill up missing offset samples with silence : Yes
Delete leading and trailing silent blocks : No
Installed external ASPI interface


Track 1
Filename C:\Documents and Settings\user\Documenti\Musica\01East-West Live Version #1.wav

Pre-gap length 0:00:02.00

Peak level 100.0 %
Track quality 100.0 %
Test CRC 122C4DA0
Copy CRC 122C4DA0
Copy OK

Track 2
Filename C:\Documents and Settings\user\Documenti\Musica\02East-West Live Version #2.wav

Pre-gap length 0:00:02.77

Peak level 87.7 %
Track quality 100.0 %
Test CRC B6BEBFE1
Copy CRC B6BEBFE1
Copy OK

Track 3
Filename C:\Documents and Settings\user\Documenti\Musica\03East-West Live Version #3.wav

Pre-gap length 0:00:03.56

Peak level 85.8 %
Track quality 99.9 %
Test CRC A4C18EDF
Copy CRC A4C18EDF
Copy OK

No errors occured


End of status report



[CUETools log; Date: 2017. 06. 17. 23:02:14; Version: 2.1.6]
[CTDB TOCID: p27elUko3C0Er.rmD..gjUGNJC8-] found.
Track | CTDB Status
1 | (14/15) Accurately ripped
2 | (14/15) Accurately ripped
3 | (14/15) Accurately ripped
[AccurateRip ID: 0006bd43-00173f1a-1e0d4f03] found.
Track [ CRC | V2 ] Status
01 [1dac94b7|92eb293a] (10+08/21) Accurately ripped
02 [5ce416d7|78042d11] (11+08/22) Accurately ripped
03 [f010364a|9fefa66b] (11+08/22) Accurately ripped
Offsetted by -18:
01 [422311d2] (03/21) Accurately ripped
02 [f7846389] (03/22) Accurately ripped
03 [35b72561] (03/22) Accurately ripped

Track Peak [ CRC32 ] [W/O NULL] [ LOG ]
– 100,0 [9F300868] [AE122BD4]
01 100,0 [122C4DA0] [9000F9A9] CRC32
02 87,7 [B6BEBFE1] [E04FA045] CRC32
03 85,8 [A4C18EDF] [702DBBCE] CRC32


Original uploader unknown