Subcategories
Tags
Language
Tags

The Rolling Stones - From The Vault: No Security - San Jose '99 (2018)

Posted By: v3122
The Rolling Stones - From The Vault: No Security - San Jose '99 (2018)

The Rolling Stones - From The Vault: No Security - San Jose '99 (2018)
EAC | Flac(Image) + Cue + Log & MP3 CBR 320Kbps
Eagle Rock/Rolling Stones Rec. EAGDV096 | ~ 807 or 261 Mb | Artwork(jpg) -> 59 Mb
DVD-9: NTSC 16:9 (720x480) VBR, Auto Letterboxed
Dolby AC3, 2 ch / Dolby AC3, 6 ch / DTS, 6 ch
Blues Rock, Classic Rock, Rock & Roll

The Rolling Stones’ No Security tour ran from January to June 1999 through North America and Europe. It followed on from the colossal Bridges To Babylon tour and took its name from the “No Security” live album recorded on that 1997/98 tour. In reaction to the huge stadiums played on Bridges To Babylon the conscious decision was made to book smaller venues for the initial North American leg of the No Security tour. This latest addition to the acclaimed From The Vaults series was filmed at the San Jose Arena in front of an audience of a little over 30,000 (intimate by Rolling Stones standards!) at the end of the North American dates. Previously unreleased, it captures the band in top form playing a set that spans from mid-sixties hit singles up to the then current Bridges To Babylon album.
The Rolling Stones - From The Vault: No Security - San Jose '99 (2018):

The Rolling Stones - From The Vault: No Security - San Jose '99 (2018)

Tracklist CD1:

01. Jumpin' Jack Flash 3:48
02. Bitch 5:03
03. You Got Me Rocking 3:49
04. Respectible 3:44
05. Honky Tonk Women 4:50
06. I Got The Blues 3:47
07. Saint Of Me 5:48
08. Some Girls 5:06
09. Paint It Black 8:59
10. You Got The Silver 4:40
11. Before They Make Me Run 3:57

Exact Audio Copy V1.3 from 2. September 2016

EAC extraction logfile from 27. August 2018, 22:00

The Rolling Stones / No Security San Jose 99 (CD1)

Used drive : ASUS SDRW-08D2S-U Adapter: 1 ID: 0

Read mode : Secure
Utilize accurate stream : Yes
Defeat audio cache : Yes
Make use of C2 pointers : No

Read offset correction : 6
Overread into Lead-In and Lead-Out : No
Fill up missing offset samples with silence : Yes
Delete leading and trailing silent blocks : No
Null samples used in CRC calculations : Yes
Used interface : Native Win32 interface for Win NT & 2000

Used output format : User Defined Encoder
Selected bitrate : 896 kBit/s
Quality : High
Add ID3 tag : No
Command line compressor : D:\Install\flac.exe
Additional command line options : -V -8 -T "Date=%year%" -T "Genre=%genre%" %source%


TOC of the extracted CD

Track | Start | Length | Start sector | End sector
––––––––––––––––––––––––––––-
1 | 0:00.00 | 3:47.66 | 0 | 17090
2 | 3:47.66 | 5:02.44 | 17091 | 39784
3 | 8:50.35 | 3:48.72 | 39785 | 56956
4 | 12:39.32 | 3:43.46 | 56957 | 73727
5 | 16:23.03 | 4:50.34 | 73728 | 95511
6 | 21:13.37 | 3:47.11 | 95512 | 112547
7 | 25:00.48 | 5:47.49 | 112548 | 138621
8 | 30:48.22 | 5:06.37 | 138622 | 161608
9 | 35:54.59 | 8:59.02 | 161609 | 202035
10 | 44:53.61 | 4:40.04 | 202036 | 223039
11 | 49:33.65 | 3:56.60 | 223040 | 240799


Range status and errors

Selected range

Filename D:\222\2018 - The Rolling Stones - No Security San Jose 99\CD1\The Rolling Stones - No Security San Jose 99 (CD1).wav

Peak level 98.5 %
Extraction speed 4.2 X
Range quality 100.0 %
Test CRC BCC75F91
Copy CRC BCC75F91
Copy OK

No errors occurred


AccurateRip summary

Track 1 not present in database
Track 2 not present in database
Track 3 not present in database
Track 4 not present in database
Track 5 not present in database
Track 6 not present in database
Track 7 not present in database
Track 8 not present in database
Track 9 not present in database
Track 10 not present in database
Track 11 not present in database

None of the tracks are present in the AccurateRip database

End of status report

–– CUETools DB Plugin V2.1.6

[CTDB TOCID: BO1AbjhdUZcEli1lRy1uIR8WBUE-] found
Submit result: BO1AbjhdUZcEli1lRy1uIR8WBUE- has been confirmed
Track | CTDB Status
1 | (27/29) Accurately ripped
2 | (29/29) Accurately ripped
3 | (29/29) Accurately ripped
4 | (29/29) Accurately ripped
5 | (29/29) Accurately ripped
6 | (29/29) Accurately ripped
7 | (29/29) Accurately ripped
8 | (29/29) Accurately ripped
9 | (29/29) Accurately ripped
10 | (29/29) Accurately ripped
11 | (29/29) Accurately ripped


==== Log checksum 1AA4F6F33D205333523E36D49C15BC8B896BD5044C3341EEE81E9186098CE1EE ====


[CUETools log; Date: 27.12.2019 14:25:22; Version: 2.1.5]
[CTDB TOCID: BO1AbjhdUZcEli1lRy1uIR8WBUE-] found.
Track | CTDB Status
1 | (94/96) Accurately ripped
2 | (96/96) Accurately ripped
3 | (96/96) Accurately ripped
4 | (96/96) Accurately ripped
5 | (96/96) Accurately ripped
6 | (96/96) Accurately ripped
7 | (96/96) Accurately ripped
8 | (96/96) Accurately ripped
9 | (96/96) Accurately ripped
10 | (96/96) Accurately ripped
11 | (96/96) Accurately ripped
[AccurateRip ID: 0014c740-00b7ae8b-9d0c8a0b] found.
Track [ CRC | V2 ] Status
01 [8c3873a8|3c0aeb77] (00+12/29) Accurately ripped
02 [b9cd13af|953bc38d] (00+12/29) Accurately ripped
03 [f2ea9312|9d0613ac] (00+12/27) Accurately ripped
04 [43b59bc5|05f9dcda] (00+12/27) Accurately ripped
05 [e7dd1282|c2949a02] (00+12/27) Accurately ripped
06 [60f98726|2f09a212] (00+12/29) Accurately ripped
07 [9f3bee27|0e7465bb] (00+12/29) Accurately ripped
08 [8d7d4025|2f9cbff0] (00+12/29) Accurately ripped
09 [b4fd73ea|eb1d5291] (00+12/29) Accurately ripped
10 [23577507|e9a89653] (00+12/29) Accurately ripped
11 [69166bb6|177f737f] (00+12/29) Accurately ripped
Offsetted by 12:
01 [133bd2a8] (02/29) Accurately ripped
02 [aa24c1df] (02/29) Accurately ripped
03 [4aa26510] (00/27) No match (V2 was not tested)
04 [fbc9d41c] (00/27) No match (V2 was not tested)
05 [38726a28] (00/27) No match (V2 was not tested)
06 [407eaf99] (02/29) Accurately ripped
07 [d6fe0635] (02/29) Accurately ripped
08 [214c0d00] (02/29) Accurately ripped
09 [99c8fcf0] (02/29) Accurately ripped
10 [073526aa] (02/29) Accurately ripped
11 [d9d3d1f2] (02/29) Accurately ripped

Track Peak [ CRC32 ] [W/O NULL] [ LOG ]
– 98,5 [BCC75F91] [4CF976DB] CRC32
01 98,3 [422745BE] [60DAA421]
02 98,4 [8ED09364] [885A589C]
03 98,2 [A6975930] [49CA51F9]
04 98,3 [62041D59] [FD2CA7CA]
05 98,3 [A6A0B4FB] [82D9214F]
06 98,2 [9E4C8585] [08A37E8E]
07 98,5 [AB189CF3] [49C30D76]
08 98,2 [FE90E35C] [691DCEBA]
09 98,3 [7F48FB08] [453814B0]
10 98,3 [504B1C66] [14247D6F]
11 98,3 [4F9F9F7B] [26B2D375]


The Rolling Stones - From The Vault: No Security - San Jose '99 (2018)

Tracklist CD2:

01. Out Of Control 7:21
02. Route 66 3:14
03. Get Off Of My Cloud 3:18
04. Midnight Rambler 12:14
05. Tumbling Dice 4:38
06. It's Only Rock'n Roll (But I Like It) 5:36
07. Start Me Up 4:05
08. Brown Sugar 7:41
09. Sympathy For The Devil 8:55

Exact Audio Copy V1.3 from 2. September 2016

EAC extraction logfile from 27. August 2018, 22:32

The Rolling Stones / No Security San Jose 99 (CD2)

Used drive : ASUS SDRW-08D2S-U Adapter: 1 ID: 0

Read mode : Secure
Utilize accurate stream : Yes
Defeat audio cache : Yes
Make use of C2 pointers : No

Read offset correction : 6
Overread into Lead-In and Lead-Out : No
Fill up missing offset samples with silence : Yes
Delete leading and trailing silent blocks : No
Null samples used in CRC calculations : Yes
Used interface : Native Win32 interface for Win NT & 2000

Used output format : User Defined Encoder
Selected bitrate : 896 kBit/s
Quality : High
Add ID3 tag : No
Command line compressor : D:\Install\flac.exe
Additional command line options : -V -8 -T "Date=%year%" -T "Genre=%genre%" %source%


TOC of the extracted CD

Track | Start | Length | Start sector | End sector
––––––––––––––––––––––––––––-
1 | 0:00.00 | 7:21.23 | 0 | 33097
2 | 7:21.23 | 3:13.43 | 33098 | 47615
3 | 10:34.66 | 3:17.66 | 47616 | 62456
4 | 13:52.57 | 12:13.51 | 62457 | 117482
5 | 26:06.33 | 4:37.38 | 117483 | 138295
6 | 30:43.71 | 5:36.30 | 138296 | 163525
7 | 36:20.26 | 4:04.39 | 163526 | 181864
8 | 40:24.65 | 7:40.70 | 181865 | 216434
9 | 48:05.60 | 8:54.43 | 216435 | 256527


Range status and errors

Selected range

Filename D:\222\2018 - The Rolling Stones - No Security San Jose 99\CD2\The Rolling Stones - No Security San Jose 99 (CD2).wav

Peak level 98.5 %
Extraction speed 4.2 X
Range quality 100.0 %
Test CRC 87FBF6EC
Copy CRC 87FBF6EC
Copy OK

No errors occurred


AccurateRip summary

Track 1 not present in database
Track 2 not present in database
Track 3 not present in database
Track 4 not present in database
Track 5 not present in database
Track 6 not present in database
Track 7 not present in database
Track 8 not present in database
Track 9 not present in database

None of the tracks are present in the AccurateRip database

End of status report

–– CUETools DB Plugin V2.1.6

[CTDB TOCID: xexUGz2h4R6hobsV353PZjkIoKM-] found
Submit result: xexUGz2h4R6hobsV353PZjkIoKM- has been confirmed
Track | CTDB Status
1 | (20/20) Accurately ripped
2 | (20/20) Accurately ripped
3 | (20/20) Accurately ripped
4 | (20/20) Accurately ripped
5 | (20/20) Accurately ripped
6 | (20/20) Accurately ripped
7 | (20/20) Accurately ripped
8 | (20/20) Accurately ripped
9 | (20/20) Accurately ripped


==== Log checksum C47C778F873BEC6F633EEE3B5324F722DB8DCB47A7E7720C8FE1BAED70D76F01 ====


[CUETools log; Date: 27.12.2019 14:25:45; Version: 2.1.5]
[CTDB TOCID: xexUGz2h4R6hobsV353PZjkIoKM-] found.
Track | CTDB Status
1 | (87/87) Accurately ripped
2 | (87/87) Accurately ripped
3 | (87/87) Accurately ripped
4 | (87/87) Accurately ripped
5 | (87/87) Accurately ripped
6 | (87/87) Accurately ripped
7 | (87/87) Accurately ripped
8 | (87/87) Accurately ripped
9 | (84/87) Accurately ripped, or (2/87) differs in 4 samples @07:07:47
[AccurateRip ID: 00129318-008928bd-850d5c09] found.
Track [ CRC | V2 ] Status
01 [2efa17b7|674488d6] (00+12/24) Accurately ripped
02 [1adb0585|3314d618] (00+12/24) Accurately ripped
03 [15647072|7f22e33f] (00+12/24) Accurately ripped
04 [f35db97e|07f93104] (00+12/24) Accurately ripped
05 [f2f051ab|c4cbc43c] (00+12/24) Accurately ripped
06 [a5a80d6b|21b33179] (00+12/24) Accurately ripped
07 [f0cbef0c|b7b92047] (00+12/24) Accurately ripped
08 [5a3770df|baee3b5f] (00+12/24) Accurately ripped
09 [14d6851e|288367a5] (00+12/24) Accurately ripped
Offsetted by 12:
01 [ab95c21b] (00/24) No match (V2 was not tested)
02 [8b749a55] (00/24) No match (V2 was not tested)
03 [ea82b8a7] (00/24) No match (V2 was not tested)
04 [dac1e9c9] (00/24) No match (V2 was not tested)
05 [b9415c2c] (00/24) No match (V2 was not tested)
06 [62fa57d8] (00/24) No match (V2 was not tested)
07 [e6e47a49] (00/24) No match (V2 was not tested)
08 [dcaf518c] (00/24) No match (V2 was not tested)
09 [32a00f3a] (00/24) No match (V2 was not tested)

Track Peak [ CRC32 ] [W/O NULL] [ LOG ]
– 98,5 [87FBF6EC] [97D07037] CRC32
01 98,4 [F4D86C2B] [800E2C51]
02 98,3 [922887C4] [150FDB7D]
03 98,5 [AE81A631] [69BB37F6]
04 98,3 [484420D7] [0E634694]
05 98,3 [2270BFC6] [3B3006C8]
06 98,2 [82E90E82] [AEDD3663]
07 98,2 [13F2C3E9] [A38B86CC]
08 98,2 [A4A24706] [139EAB11]
09 98,3 [EFDC1C1E] [C684CE7B]


The Rolling Stones - From The Vault: No Security - San Jose '99 (2018)

Tracklist DVD:

1. Jumpin’ Jack Flash
2. Bitch
3. You Got Me Rocking
4. Respectable
5. Honky Tonk Women
6. I Got The Blues
7. Saint Of Me
8. Some Girls
9. Paint It Black
10. You Got The Silver
11. Before They Make Me Run
12. Out Of Control
13. Route 66
14. Get Off Of My Cloud
15. Midnight Rambler
16. Tumbling Dice
17. It’s Only Rock ‘n’ Roll (But I Like It)
18. Start Me Up
19. Brown Sugar
20. Sympathy For The Devil

Title: The Rolling Stones 2018 - From The Vault No Security
Size: 7.08 Gb ( 7 423 476,00 KBytes ) - DVD-9
Enabled regions: 1, 2, 3, 4, 5, 6, 7, 8

VTS_01 :
Play Length: 00:00:20+00:00:00
Video: NTSC 16:9 (720x480) VBR, Auto Letterboxed
Audio:
English (Dolby AC3, 2 ch)

VTS_02 :
Play Length: 00:00:26
Video: NTSC 16:9 (720x480) VBR, Auto Letterboxed

VTS_03 :
Play Length: 01:57:59
Video: NTSC 4:3 (720x480) VBR
Audio:
English (Dolby AC3, 2 ch)
English (Dolby AC3, 6 ch)
English (DTS, 6 ch)


The Rolling Stones - From The Vault: No Security - San Jose '99 (2018)

The Rolling Stones - From The Vault: No Security - San Jose '99 (2018)

The Rolling Stones - From The Vault: No Security - San Jose '99 (2018)

The Rolling Stones - From The Vault: No Security - San Jose '99 (2018)

The Rolling Stones - From The Vault: No Security - San Jose '99 (2018)

The Rolling Stones - From The Vault: No Security - San Jose '99 (2018)

All thanks go to Ironbelly & anbelk27

Rolling Stones in my Blog

Download The Rolling Stones - From The Vault: No Security - San Jose '99 (2018):