Tags
Language
Tags
March 2024
Su Mo Tu We Th Fr Sa
25 26 27 28 29 1 2
3 4 5 6 7 8 9
10 11 12 13 14 15 16
17 18 19 20 21 22 23
24 25 26 27 28 29 30
31 1 2 3 4 5 6

The Black Watch - Highs And Lows (2015) {Pop Culture Press} **[RE-UP]**

Posted By: TestTickles
The Black Watch - Highs And Lows (2015) {Pop Culture Press} **[RE-UP]**

The Black Watch - Highs And Lows (2015) {Pop Culture Press}
EAC Rip | FLAC with CUE and log | scans | 317 mb
MP3 CBR 320kbps | RAR | 127 mb
Genre: indie rock

Highs And Lows is the 2015 CD by The Black Watch. This is a Pop Culture Press release. If you would like to hear the band's previous album, you may click here.

The Black Watch - Highs And Lows (2015) {Pop Culture Press} **[RE-UP]**

1. Beautiful Sleeper
2. Quondam Redhead
3. Pershing/Harvard Square
4. There's No Fucking Way
5. A Sort Of An Overture
6. Love's Fever Dreams
7. She's A Mess
8. If Upon A Time That Never Happened
9. He Must Needs Go That The Devil Drives
10. Eleanor's Not Hiding

Rick Woodard-drums, timpani
Chris Rackard-Fender bass, taurus 3
Tyson Cornell-lead guitar, bass on "Overtude"
John Andrew Fredrick-rhythm guitar, percussion, vocals

Melltrons and shitar played by Sir Robbie Shankar

Produced and engineered by Rob Campanella for The Committee To Keep Music Evil
Recorded in Hollywood, California
All songs written by John Andrew Fredrick

Exact Audio Copy V1.1 from 23. June 2015

EAC extraction logfile from 4. June 2016, 8:42

The Black Watch / Highs And Lows

Used drive : TEAC DVD-ROM DV-28SW Adapter: 1 ID: 0

Read mode : Secure
Utilize accurate stream : Yes
Defeat audio cache : Yes
Make use of C2 pointers : No

Read offset correction : 6
Overread into Lead-In and Lead-Out : No
Fill up missing offset samples with silence : Yes
Delete leading and trailing silent blocks : No
Null samples used in CRC calculations : Yes
Used interface : Native Win32 interface for Win NT & 2000
Gap handling : Left out

Used output format : Internal WAV Routines
Sample format : 44.100 Hz; 16 Bit; Stereo


TOC of the extracted CD

Track | Start | Length | Start sector | End sector
––––––––––––––––––––––––––––-
1 | 0:00.00 | 4:47.48 | 0 | 21572
2 | 4:47.48 | 6:09.33 | 21573 | 49280
3 | 10:57.06 | 3:03.49 | 49281 | 63054
4 | 14:00.55 | 3:35.24 | 63055 | 79203
5 | 17:36.04 | 2:11.14 | 79204 | 89042
6 | 19:47.18 | 4:05.03 | 89043 | 107420
7 | 23:52.21 | 3:55.13 | 107421 | 125058
8 | 27:47.34 | 4:51.00 | 125059 | 146883
9 | 32:38.34 | 4:46.43 | 146884 | 168376
10 | 37:25.02 | 4:13.14 | 168377 | 187365


Track 1

Filename C:\My Documents\My FLAC\The Black Watch - Highs And Lows (2015) [FLAC] {Pop Culture Press}\01 - Beautiful Sleeper.wav

Pre-gap length 0:00:02.00

Peak level 96.9 %
Extraction speed 2.9 X
Track quality 100.0 %
Test CRC 7A97EAB0
Copy CRC 7A97EAB0
Track not present in AccurateRip database
Copy OK

Track 2

Filename C:\My Documents\My FLAC\The Black Watch - Highs And Lows (2015) [FLAC] {Pop Culture Press}\02 - Quondam Redhead.wav

Peak level 97.7 %
Extraction speed 3.3 X
Track quality 100.0 %
Test CRC CCAC365B
Copy CRC CCAC365B
Track not present in AccurateRip database
Copy OK

Track 3

Filename C:\My Documents\My FLAC\The Black Watch - Highs And Lows (2015) [FLAC] {Pop Culture Press}\03 - Harvard Square.wav

Peak level 97.7 %
Extraction speed 3.3 X
Track quality 100.0 %
Test CRC 784E4636
Copy CRC 784E4636
Track not present in AccurateRip database
Copy OK

Track 4

Filename C:\My Documents\My FLAC\The Black Watch - Highs And Lows (2015) [FLAC] {Pop Culture Press}\04 - There's No Fucking Way.wav

Peak level 97.7 %
Extraction speed 3.5 X
Track quality 100.0 %
Test CRC 7FD45B13
Copy CRC 7FD45B13
Track not present in AccurateRip database
Copy OK

Track 5

Filename C:\My Documents\My FLAC\The Black Watch - Highs And Lows (2015) [FLAC] {Pop Culture Press}\05 - A Sort Of An Overture.wav

Peak level 97.7 %
Extraction speed 3.3 X
Track quality 100.0 %
Test CRC F4A70BAF
Copy CRC F4A70BAF
Track not present in AccurateRip database
Copy OK

Track 6

Filename C:\My Documents\My FLAC\The Black Watch - Highs And Lows (2015) [FLAC] {Pop Culture Press}\06 - Love's Fever Dreams.wav

Peak level 97.7 %
Extraction speed 3.3 X
Track quality 99.9 %
Test CRC 0A6E60FA
Copy CRC 0A6E60FA
Track not present in AccurateRip database
Copy OK

Track 7

Filename C:\My Documents\My FLAC\The Black Watch - Highs And Lows (2015) [FLAC] {Pop Culture Press}\07 - She's A Mess.wav

Peak level 97.7 %
Extraction speed 4.0 X
Track quality 100.0 %
Test CRC 632391A1
Copy CRC 632391A1
Track not present in AccurateRip database
Copy OK

Track 8

Filename C:\My Documents\My FLAC\The Black Watch - Highs And Lows (2015) [FLAC] {Pop Culture Press}\08 - If Upon A Time That Never Happened.wav

Peak level 97.7 %
Extraction speed 4.3 X
Track quality 100.0 %
Test CRC B9038CBC
Copy CRC B9038CBC
Track not present in AccurateRip database
Copy OK

Track 9

Filename C:\My Documents\My FLAC\The Black Watch - Highs And Lows (2015) [FLAC] {Pop Culture Press}\09 - He Must Needs Go That The Devil Drives.wav

Peak level 97.7 %
Extraction speed 4.5 X
Track quality 100.0 %
Test CRC 239BA457
Copy CRC 239BA457
Track not present in AccurateRip database
Copy OK

Track 10

Filename C:\My Documents\My FLAC\The Black Watch - Highs And Lows (2015) [FLAC] {Pop Culture Press}\10 - Eleanor's Not Hiding.wav

Peak level 97.7 %
Extraction speed 4.6 X
Track quality 100.0 %
Test CRC A9C3DC71
Copy CRC A9C3DC71
Track not present in AccurateRip database
Copy OK


None of the tracks are present in the AccurateRip database

No errors occurred

End of status report

–– CUETools DB Plugin V2.1.6

[CTDB TOCID: 0JcG2rXsuDrkhJl06iZ.jQ7YQhE-] disk not present in database
Submit result: 0JcG2rXsuDrkhJl06iZ.jQ7YQhE- has been uploaded


==== Log checksum 39C06E6877BC5CC13553167BD0B56D864DA44D9620039403FFF0C15C6B58CF30 ====


The Black Watch - Highs And Lows (2015) {Pop Culture Press} **[RE-UP]**