Subcategories
Tags
Language
Tags

Steve Jablonsky - Transformers: The Last Knight (Music From The Motion Picture) (2017)

Posted By: SERTiL
Steve Jablonsky - Transformers: The Last Knight (Music From The Motion Picture) (2017)

Steve Jablonsky - Transformers: The Last Knight (Music From The Motion Picture)
EAC Rip | FLAC (tracks)+cue, log, m3u, artwork | 129:54 min | 924 MB
Label: La-La Land Records – LLLCD 1432 | Tracks: 34 | Rls.date: 2017
Soundtrack

The latest soundtrack album from American composer Steve Jablonsky will be digitally released tomorrow by La-La Land Records, with a limited edition 2-CD set to follow on July 11th, 2017. The film is the latest installment in the 'Transformers' series, which Jablonsky has scored previous films for.

Best-known for his tense, rousing orchestral scores for the Transformers film series, Steve Jablonsky is an American composer of film, television, and video game music who studied computer science before switching to music composition at the University of California, Berkeley. Obtaining an internship at Hans Zimmer's Remote Control Productions after graduating, he met established film composer Harry Gregson-Williams, a colleague of Zimmer's, and worked as his assistant. After contributing to several projects including the BBC's 2003 series Seven Wonders of the Industrial World, his first solo scoring credit for a feature film was Marcus Nispel's remake of The Texas Chainsaw Massacre, released in 2003. That was followed by 2004's Steamboy and, the same year, the beginning of a long-term stint with the full run of television's Desperate Housewives (2004-2012). He scored theatrical films released during that time including but not limited to 2005's The Island, 2006's The Texas Chainsaw Massacre: The Beginning, 2007's Transformers, 2009's Transformers: Revenge of the Fallen and Friday the 13th, 2010's A Nightmare on Elm Street, 2011's Transformers: Dark of the Moon, and 2012's Battleship. He also collaborated on several video games including 2007's Command & Conquer 3: Tiberium Wars, co-composed with Trevor Morris, and 2009's The Sims 3. With Desperate Housewives off the air in 2012, subsequent films featuring Jablonsky's scores included 2013's Gangster Squad and Ender's Game, and 2014's Transformers: Age of Extinction. More assorted scores followed; namely 2015's The Last Witch Hunter and 2016's Deepwater Horizon. ~ Marcy Donelson

Steve Jablonsky - Transformers: The Last Knight (Music From The Motion Picture) (2017)


TRACKLIST CD1
1 Sacrifice 6:47
2 The Coming Of Cybertron 4:59
3 Merlin's Staff 5:49
4 No-Go Zone 3:29
5 Stay And Fight 6:26
6 Code Red 2:13
7 Izzy 4:00
8 Purity Of Heart 3:34
9 Megatron Negotiation 3:38
10 Today We Hunt 1:47
11 Running Out Of Tomorrows 1:21
12 Drone Chase 5:08
13 You Have Been Chosen 2:18
14 Seglass Ni Tonday 6:27
15 Quintessa 6:37

Exact Audio Copy V1.0 beta 4 from 7. December 2014

EAC extraction logfile from 19. August 2017, 12:55

Steve Jablonsky / Transformers: The Last Knight (Music From The Motion Picture) (CD1)

Used drive : ASUS SDR-08B1-U A Adapter: 1 ID: 0

Read mode : Secure
Utilize accurate stream : Yes
Defeat audio cache : Yes
Make use of C2 pointers : No

Read offset correction : 6
Overread into Lead-In and Lead-Out : No
Fill up missing offset samples with silence : Yes
Delete leading and trailing silent blocks : No
Null samples used in CRC calculations : Yes
Used interface : Native Win32 interface for Win NT & 2000
Gap handling : Appended to previous track

Used output format : User Defined Encoder
Selected bitrate : 1024 kBit/s
Quality : High
Add ID3 tag : No
Command line compressor : D:\Program Files\Exact Audio Copy\FLAC\FLAC.EXE
Additional command line options : -6 -V -T "ARTIST=%artist%" -T "TITLE=%title%" -T "ALBUM=%albumtitle%" -T "DATE=%year%" -T "TRACKNUMBER=%tracknr%" -T "GENRE=%genre%" -T "COMMENT=%comment%" -T "BAND=%albuminterpret%" -T "ALBUMARTIST=%albuminterpret%" -T "COMPOSER=%composer%" %haslyrics%–tag-from-file=LYRICS="%lyricsfile%"%haslyrics% -T "DISCNUMBER=%cdnumber%" -T "TOTALDISCS=%totalcds%" -T "TOTALTRACKS=%numtracks%" %hascover%–picture="%coverfile%"%hascover% %source% -o %dest%


TOC of the extracted CD

Track | Start | Length | Start sector | End sector
––––––––––––––––––––––––––––-
1 | 0:00.00 | 6:48.19 | 0 | 30618
2 | 6:48.19 | 5:00.37 | 30619 | 53155
3 | 11:48.56 | 5:50.51 | 53156 | 79456
4 | 17:39.32 | 3:30.20 | 79457 | 95226
5 | 21:09.52 | 6:27.66 | 95227 | 124317
6 | 27:37.43 | 2:13.42 | 124318 | 134334
7 | 29:51.10 | 4:00.59 | 134335 | 152393
8 | 33:51.69 | 3:36.16 | 152394 | 168609
9 | 37:28.10 | 3:39.16 | 168610 | 185050
10 | 41:07.26 | 1:48.37 | 185051 | 193187
11 | 42:55.63 | 1:22.11 | 193188 | 199348
12 | 44:17.74 | 5:08.61 | 199349 | 222509
13 | 49:26.60 | 2:19.04 | 222510 | 232938
14 | 51:45.64 | 6:28.50 | 232939 | 262088
15 | 58:14.39 | 6:36.63 | 262089 | 291851


Track 1

Filename E:\barca008\Steve Jablonsky - Transformers The Last Knight (Music From The Motion Picture)\CD1\01 - Sacrifice.wav

Pre-gap length 0:00:02.00

Peak level 95.4 %
Extraction speed 1.2 X
Track quality 100.0 %
Test CRC FDE974EF
Copy CRC FDE974EF
Track not present in AccurateRip database
Copy OK

Track 2

Filename E:\barca008\Steve Jablonsky - Transformers The Last Knight (Music From The Motion Picture)\CD1\02 - The Coming of Cybertron.wav

Pre-gap length 0:00:01.50

Peak level 94.4 %
Extraction speed 1.4 X
Track quality 100.0 %
Test CRC 34BFB018
Copy CRC 34BFB018
Track not present in AccurateRip database
Copy OK

Track 3

Filename E:\barca008\Steve Jablonsky - Transformers The Last Knight (Music From The Motion Picture)\CD1\03 - Merlin's Staff.wav

Pre-gap length 0:00:01.50

Peak level 100.0 %
Extraction speed 1.6 X
Track quality 100.0 %
Test CRC 07CD8943
Copy CRC 07CD8943
Track not present in AccurateRip database
Copy OK

Track 4

Filename E:\barca008\Steve Jablonsky - Transformers The Last Knight (Music From The Motion Picture)\CD1\04 - No-Go Zone.wav

Pre-gap length 0:00:01.50

Peak level 94.4 %
Extraction speed 1.6 X
Track quality 100.0 %
Test CRC B0403A09
Copy CRC B0403A09
Track not present in AccurateRip database
Copy OK

Track 5

Filename E:\barca008\Steve Jablonsky - Transformers The Last Knight (Music From The Motion Picture)\CD1\05 - Stay and Fight.wav

Pre-gap length 0:00:01.50

Peak level 94.6 %
Extraction speed 1.8 X
Track quality 100.0 %
Test CRC CFF40B58
Copy CRC CFF40B58
Track not present in AccurateRip database
Copy OK

Track 6

Filename E:\barca008\Steve Jablonsky - Transformers The Last Knight (Music From The Motion Picture)\CD1\06 - Code Red.wav

Pre-gap length 0:00:01.53

Peak level 94.5 %
Extraction speed 1.6 X
Track quality 100.0 %
Test CRC D58DA4AE
Copy CRC D58DA4AE
Track not present in AccurateRip database
Copy OK

Track 7

Filename E:\barca008\Steve Jablonsky - Transformers The Last Knight (Music From The Motion Picture)\CD1\07 - Izzy.wav

Pre-gap length 0:00:00.69

Peak level 94.4 %
Extraction speed 1.9 X
Track quality 100.0 %
Test CRC 8B2F23AC
Copy CRC 8B2F23AC
Track not present in AccurateRip database
Copy OK

Track 8

Filename E:\barca008\Steve Jablonsky - Transformers The Last Knight (Music From The Motion Picture)\CD1\08 - Purity of Heart.wav

Pre-gap length 0:00:00.37

Peak level 94.4 %
Extraction speed 1.9 X
Track quality 100.0 %
Test CRC D74C6543
Copy CRC D74C6543
Track not present in AccurateRip database
Copy OK

Track 9

Filename E:\barca008\Steve Jablonsky - Transformers The Last Knight (Music From The Motion Picture)\CD1\09 - Megatron Negotiation.wav

Pre-gap length 0:00:02.20

Peak level 98.1 %
Extraction speed 2.0 X
Track quality 100.0 %
Test CRC 788E510E
Copy CRC 788E510E
Track not present in AccurateRip database
Copy OK

Track 10

Filename E:\barca008\Steve Jablonsky - Transformers The Last Knight (Music From The Motion Picture)\CD1\10 - Today We Hunt.wav

Pre-gap length 0:00:01.50

Peak level 94.4 %
Extraction speed 1.8 X
Track quality 100.0 %
Test CRC 10BEF3FE
Copy CRC 10BEF3FE
Track not present in AccurateRip database
Copy OK

Track 11

Filename E:\barca008\Steve Jablonsky - Transformers The Last Knight (Music From The Motion Picture)\CD1\11 - Running out of Tomorrows.wav

Pre-gap length 0:00:01.50

Peak level 46.6 %
Extraction speed 1.7 X
Track quality 100.0 %
Test CRC E860338E
Copy CRC E860338E
Track not present in AccurateRip database
Copy OK

Track 12

Filename E:\barca008\Steve Jablonsky - Transformers The Last Knight (Music From The Motion Picture)\CD1\12 - Drone Chase.wav

Pre-gap length 0:00:01.36

Peak level 94.4 %
Extraction speed 2.2 X
Track quality 100.0 %
Test CRC B5D10294
Copy CRC B5D10294
Track not present in AccurateRip database
Copy OK

Track 13

Filename E:\barca008\Steve Jablonsky - Transformers The Last Knight (Music From The Motion Picture)\CD1\13 - You Have Been Chosen.wav

Pre-gap length 0:00:00.92

Peak level 94.4 %
Extraction speed 2.0 X
Track quality 100.0 %
Test CRC A885F293
Copy CRC A885F293
Track not present in AccurateRip database
Copy OK

Track 14

Filename E:\barca008\Steve Jablonsky - Transformers The Last Knight (Music From The Motion Picture)\CD1\14 - Seglass Ni Tonday.wav

Pre-gap length 0:00:01.45

Peak level 94.9 %
Extraction speed 2.4 X
Track quality 100.0 %
Test CRC 2FD295F6
Copy CRC 2FD295F6
Track not present in AccurateRip database
Copy OK

Track 15

Filename E:\barca008\Steve Jablonsky - Transformers The Last Knight (Music From The Motion Picture)\CD1\15 - Quintessa.wav

Pre-gap length 0:00:01.46

Peak level 97.8 %
Extraction speed 2.5 X
Track quality 100.0 %
Test CRC 0EB38A04
Copy CRC 0EB38A04
Track not present in AccurateRip database
Copy OK


None of the tracks are present in the AccurateRip database

No errors occurred

End of status report

–– CUETools DB Plugin V2.1.4

[CTDB TOCID: g.U7FV_5.P72iQvJF5FEo.i1Qgg-] found
Submit result: g.U7FV_5.P72iQvJF5FEo.i1Qgg- has been confirmed
Track | CTDB Status
1 | (11/11) Accurately ripped
2 | (11/11) Accurately ripped
3 | (11/11) Accurately ripped
4 | (11/11) Accurately ripped
5 | (11/11) Accurately ripped
6 | (11/11) Accurately ripped
7 | (11/11) Accurately ripped
8 | (11/11) Accurately ripped
9 | (11/11) Accurately ripped
10 | (11/11) Accurately ripped
11 | (11/11) Accurately ripped
12 | (11/11) Accurately ripped
13 | (11/11) Accurately ripped
14 | (11/11) Accurately ripped
15 | (11/11) Accurately ripped


==== Log checksum 92C43EF1642FF2928DBBCDB3308ED115B075BBD2781324AD26B51825DCF5BFD6 ====


Steve Jablonsky - Transformers: The Last Knight (Music From The Motion Picture) (2017)


TRACKLIST CD2
1 Vivian 3:53
2 Abduction 3:05
3 History Of Transformers 4:24
4 Cogman Sings 2:10
5 Vivian Follows Merlin 6:41
6 The Greatest Mission Of All 2:19
7 Dive 3:16
8 Two Moons 2:03
9 Merlin's Tomb 3:18
10 Claim The Staff 3:37
11 Prime Versus Bee 2:46
12 Your Voice 4:34
13 I Had My Moment 2:29
14 Ospreys 1:49
15 Battlefield 3:44
16 Did You Forget Who I Am 1:57
17 We Have To Go 5:49
18 Calling All Autobots 2:55
19 Sir Edmund Burton 4:10

Exact Audio Copy V1.0 beta 4 from 7. December 2014

EAC extraction logfile from 19. August 2017, 14:17

Steve Jablonsky / Transformers: The Last Knight (Music From The Motion Picture) (CD2)

Used drive : ASUS SDR-08B1-U A Adapter: 1 ID: 0

Read mode : Secure
Utilize accurate stream : Yes
Defeat audio cache : Yes
Make use of C2 pointers : No

Read offset correction : 6
Overread into Lead-In and Lead-Out : No
Fill up missing offset samples with silence : Yes
Delete leading and trailing silent blocks : No
Null samples used in CRC calculations : Yes
Used interface : Native Win32 interface for Win NT & 2000
Gap handling : Appended to previous track

Used output format : User Defined Encoder
Selected bitrate : 1024 kBit/s
Quality : High
Add ID3 tag : No
Command line compressor : D:\Program Files\Exact Audio Copy\FLAC\FLAC.EXE
Additional command line options : -6 -V -T "ARTIST=%artist%" -T "TITLE=%title%" -T "ALBUM=%albumtitle%" -T "DATE=%year%" -T "TRACKNUMBER=%tracknr%" -T "GENRE=%genre%" -T "COMMENT=%comment%" -T "BAND=%albuminterpret%" -T "ALBUMARTIST=%albuminterpret%" -T "COMPOSER=%composer%" %haslyrics%–tag-from-file=LYRICS="%lyricsfile%"%haslyrics% -T "DISCNUMBER=%cdnumber%" -T "TOTALDISCS=%totalcds%" -T "TOTALTRACKS=%numtracks%" %hascover%–picture="%coverfile%"%hascover% %source% -o %dest%


TOC of the extracted CD

Track | Start | Length | Start sector | End sector
––––––––––––––––––––––––––––-
1 | 0:00.00 | 3:55.07 | 0 | 17631
2 | 3:55.07 | 3:06.23 | 17632 | 31604
3 | 7:01.30 | 4:24.65 | 31605 | 51469
4 | 11:26.20 | 2:09.57 | 51470 | 61201
5 | 13:36.02 | 6:42.42 | 61202 | 91393
6 | 20:18.44 | 2:20.62 | 91394 | 101955
7 | 22:39.31 | 3:17.32 | 101956 | 116762
8 | 25:56.63 | 2:05.06 | 116763 | 126143
9 | 28:01.69 | 3:19.33 | 126144 | 141101
10 | 31:21.27 | 3:36.71 | 141102 | 157372
11 | 34:58.23 | 2:45.56 | 157373 | 169803
12 | 37:44.04 | 4:34.29 | 169804 | 190382
13 | 42:18.33 | 2:30.72 | 190383 | 201704
14 | 44:49.30 | 1:50.45 | 201705 | 209999
15 | 46:40.00 | 3:43.73 | 210000 | 226797
16 | 50:23.73 | 1:58.08 | 226798 | 235655
17 | 52:22.06 | 5:50.36 | 235656 | 261941
18 | 58:12.42 | 2:57.69 | 261942 | 275285
19 | 61:10.36 | 4:10.30 | 275286 | 294065


Track 1

Filename E:\barca008\Steve Jablonsky - Transformers The Last Knight (Music From The Motion Picture)\CD2\01 - Vivian.wav

Pre-gap length 0:00:02.00

Peak level 48.5 %
Extraction speed 1.1 X
Track quality 100.0 %
Test CRC C6848FC8
Copy CRC C6848FC8
Track not present in AccurateRip database
Copy OK

Track 2

Filename E:\barca008\Steve Jablonsky - Transformers The Last Knight (Music From The Motion Picture)\CD2\02 - Abduction.wav

Pre-gap length 0:00:01.97

Peak level 94.4 %
Extraction speed 1.2 X
Track quality 100.0 %
Test CRC 294F61C8
Copy CRC 294F61C8
Track not present in AccurateRip database
Copy OK

Track 3

Filename E:\barca008\Steve Jablonsky - Transformers The Last Knight (Music From The Motion Picture)\CD2\03 - History of Transformers.wav

Pre-gap length 0:00:01.44

Peak level 94.4 %
Extraction speed 1.4 X
Track quality 100.0 %
Test CRC 703785B2
Copy CRC 703785B2
Track not present in AccurateRip database
Copy OK

Track 4

Filename E:\barca008\Steve Jablonsky - Transformers The Last Knight (Music From The Motion Picture)\CD2\04 - Cogman Sings.wav

Pre-gap length 0:00:01.14

Peak level 95.5 %
Extraction speed 1.3 X
Track quality 100.0 %
Test CRC 751DA8BF
Copy CRC 751DA8BF
Track not present in AccurateRip database
Copy OK

Track 5

Filename E:\barca008\Steve Jablonsky - Transformers The Last Knight (Music From The Motion Picture)\CD2\05 - Vivian Follows Merlin.wav

Pre-gap length 0:00:00.05

Peak level 98.8 %
Extraction speed 1.6 X
Track quality 100.0 %
Test CRC 6B042F87
Copy CRC 6B042F87
Track not present in AccurateRip database
Copy OK

Track 6

Filename E:\barca008\Steve Jablonsky - Transformers The Last Knight (Music From The Motion Picture)\CD2\06 - The Greatest Mission of All.wav

Pre-gap length 0:00:01.50

Peak level 95.3 %
Extraction speed 1.5 X
Track quality 100.0 %
Test CRC 886731A1
Copy CRC 886731A1
Track not present in AccurateRip database
Copy OK

Track 7

Filename E:\barca008\Steve Jablonsky - Transformers The Last Knight (Music From The Motion Picture)\CD2\07 - Dive.wav

Pre-gap length 0:00:01.46

Peak level 97.6 %
Extraction speed 1.7 X
Track quality 100.0 %
Test CRC D6E92C37
Copy CRC D6E92C37
Track not present in AccurateRip database
Copy OK

Track 8

Filename E:\barca008\Steve Jablonsky - Transformers The Last Knight (Music From The Motion Picture)\CD2\08 - Two Moons.wav

Pre-gap length 0:00:01.60

Peak level 95.0 %
Extraction speed 1.6 X
Track quality 100.0 %
Test CRC AF46D684
Copy CRC AF46D684
Track not present in AccurateRip database
Copy OK

Track 9

Filename E:\barca008\Steve Jablonsky - Transformers The Last Knight (Music From The Motion Picture)\CD2\09 - Merlin's Tomb.wav

Pre-gap length 0:00:01.96

Peak level 95.5 %
Extraction speed 1.8 X
Track quality 100.0 %
Test CRC B99D025F
Copy CRC B99D025F
Track not present in AccurateRip database
Copy OK

Track 10

Filename E:\barca008\Steve Jablonsky - Transformers The Last Knight (Music From The Motion Picture)\CD2\10 - Claim the Staff.wav

Pre-gap length 0:00:00.96

Peak level 94.4 %
Extraction speed 1.9 X
Track quality 100.0 %
Test CRC A8A37DC0
Copy CRC A8A37DC0
Track not present in AccurateRip database
Copy OK

Track 11

Filename E:\barca008\Steve Jablonsky - Transformers The Last Knight (Music From The Motion Picture)\CD2\11 - Prime Versus Bee.wav

Pre-gap length 0:00:00.01

Peak level 94.4 %
Extraction speed 1.9 X
Track quality 100.0 %
Test CRC 1B776E46
Copy CRC 1B776E46
Track not present in AccurateRip database
Copy OK

Track 12

Filename E:\barca008\Steve Jablonsky - Transformers The Last Knight (Music From The Motion Picture)\CD2\12 - Your Voice.wav

Peak level 94.4 %
Extraction speed 2.1 X
Track quality 100.0 %
Test CRC 03A8F913
Copy CRC 03A8F913
Track not present in AccurateRip database
Copy OK

Track 13

Filename E:\barca008\Steve Jablonsky - Transformers The Last Knight (Music From The Motion Picture)\CD2\13 - I Had My Moment.wav

Peak level 94.4 %
Extraction speed 2.0 X
Track quality 100.0 %
Test CRC 089AD637
Copy CRC 089AD637
Track not present in AccurateRip database
Copy OK

Track 14

Filename E:\barca008\Steve Jablonsky - Transformers The Last Knight (Music From The Motion Picture)\CD2\14 - Ospreys.wav

Pre-gap length 0:00:01.57

Peak level 94.4 %
Extraction speed 1.8 X
Track quality 100.0 %
Test CRC E82F83F5
Copy CRC E82F83F5
Track not present in AccurateRip database
Copy OK

Track 15

Filename E:\barca008\Steve Jablonsky - Transformers The Last Knight (Music From The Motion Picture)\CD2\15 - Battlefield.wav

Pre-gap length 0:00:01.57

Peak level 94.4 %
Extraction speed 2.1 X
Track quality 100.0 %
Test CRC 62A4AAD1
Copy CRC 62A4AAD1
Track not present in AccurateRip database
Copy OK

Track 16

Filename E:\barca008\Steve Jablonsky - Transformers The Last Knight (Music From The Motion Picture)\CD2\16 - Did You Forget Who I Am.wav

Pre-gap length 0:00:00.14

Peak level 94.4 %
Extraction speed 2.0 X
Track quality 100.0 %
Test CRC B7E9817F
Copy CRC B7E9817F
Track not present in AccurateRip database
Copy OK

Track 17

Filename E:\barca008\Steve Jablonsky - Transformers The Last Knight (Music From The Motion Picture)\CD2\17 - We Have to Go.wav

Pre-gap length 0:00:01.33

Peak level 97.4 %
Extraction speed 2.4 X
Track quality 100.0 %
Test CRC B8E0B16E
Copy CRC B8E0B16E
Track not present in AccurateRip database
Copy OK

Track 18

Filename E:\barca008\Steve Jablonsky - Transformers The Last Knight (Music From The Motion Picture)\CD2\18 - Calling All Autobots.wav

Pre-gap length 0:00:01.96

Peak level 94.4 %
Extraction speed 1.9 X
Track quality 99.9 %
Test CRC 7504E2B3
Copy CRC 7504E2B3
Track not present in AccurateRip database
Copy OK

Track 19

Filename E:\barca008\Steve Jablonsky - Transformers The Last Knight (Music From The Motion Picture)\CD2\19 - Sir Edmund Burton.wav

Pre-gap length 0:00:02.52

Peak level 94.4 %
Extraction speed 2.4 X
Track quality 100.0 %
Test CRC 05AA497D
Copy CRC 05AA497D
Track not present in AccurateRip database
Copy OK


None of the tracks are present in the AccurateRip database

No errors occurred

End of status report

–– CUETools DB Plugin V2.1.4

[CTDB TOCID: cBQj9bz91ORG7d1tAzwccdcws9A-] found
Submit result: cBQj9bz91ORG7d1tAzwccdcws9A- has been confirmed
Track | CTDB Status
1 | (11/11) Accurately ripped
2 | (11/11) Accurately ripped
3 | (11/11) Accurately ripped
4 | (11/11) Accurately ripped
5 | (11/11) Accurately ripped
6 | (11/11) Accurately ripped
7 | (11/11) Accurately ripped
8 | (11/11) Accurately ripped
9 | (11/11) Accurately ripped
10 | (11/11) Accurately ripped
11 | (11/11) Accurately ripped
12 | (11/11) Accurately ripped
13 | (11/11) Accurately ripped
14 | (11/11) Accurately ripped
15 | (11/11) Accurately ripped
16 | (11/11) Accurately ripped
17 | (11/11) Accurately ripped
18 | (11/11) Accurately ripped
19 | (11/11) Accurately ripped


==== Log checksum EE02CAC3778F2AC39092DAB601819AA3B3B288AC3D73B1C4E9F9D9ED1B29B6B3 ====


Steve Jablonsky - Transformers: The Last Knight (Music From The Motion Picture) (2017)


Thanks to the Original customer.