Tags
Language
Tags
July 2024
Su Mo Tu We Th Fr Sa
30 1 2 3 4 5 6
7 8 9 10 11 12 13
14 15 16 17 18 19 20
21 22 23 24 25 26 27
28 29 30 31 1 2 3

Stephen Stills - Man Alive! (2005)

Posted By: Designol
Stephen Stills - Man Alive! (2005)

Stephen Stills - Man Alive! (2005)
EAC | FLAC | Image (Cue&Log) ~ 399 Mb | Mp3 (CBR320) ~ 145 Mb | Scans included
Classic Rock, Soft Rock, Folk-Rock | Label: Titan Pyramid | # 50102-2 | Time: 00:57:57

Fourteen years after his last solo outing, STILLS ALONE, Stephen Stills unveiled 2005's MAN ALIVE!, a remarkably vital and dynamic album that features the veteran performer penning almost every song and playing many of the record's instruments. Although David Crosby is absent, Stills's other CSNY mates, Graham Nash and Neil Young, turn up separately. While Nash subtly sticks to backing-vocal duty, Young contributes his typically incendiary electric-guitar lines to the hard-rocking "'Round the Bend" and offers up vocal harmonies and acoustic-guitar work on the spare, soulful "Different Man." A more unlikely cameo comes in the form of pianist Herbie Hancock's prominent presence on the 11-minute epic "Spanish Suite," which also features Latin percussion great Willie Bobo. Of course, Stills is the main attraction on MAN ALIVE!, with his husky voice carrying every song, including the socially conscious CSN-like track "Feed the People" and the blues-tinged "Piece of Me." Those who waited years for another Stills solo outing won't be disappointed by MAN ALIVE!, an excellent addition to his formidable, decade-spanning catalogue.

Allmusic.com

While Man Alive! may not be the quintessential Stephen Stills album, the venerable singer-songwriter nevertheless enters his sixth decade with passion and fire. Stills has always done his best, most convincing work on the acoustic guitar, and the wood-and-steel material here proves no exception. On "Different Man" (with Neil Young) and "Piece of Me," he draws on his southern roots and demonstrates his uncanny knack for soulful blues. That soulfulness carries over to much of the electric material, whether the danceable, B-3-driven "Around Us," the achingly good "Ole Man Trouble," or the Zydeco-inflected "Acadienne," on which Stills sounds positively loose and unusually comfortable. Some material doesn't work as well––"Drivin' Thunder" (cowritten with Young) suffers from production that's more in tune with 1985 than 2005, and neither "Round the Bend" nor "I Don't Get It" shines with the full-blown brilliance that the artist clearly remains capable of. Still, this sometimes-flawed endeavor is a more-than-welcome return from one of rock's great, underrepresented treasures.

Review by Jedd Beaudoin, Amazon.com

Stephen Stills - Man Alive! (2005)



Tracklist:

01. Ain't It Always (03:25)
02. Feed The People (04:24)
03. Hearts Gate (03:02)
04. 'Round The Bend (05:10)
05. I don't Get It (03:36)
06. Around Us (03:48)
07. Ole Man Trouble (04:59)
08. Different Man (02:14)
09. Piece Of Me (04:06)
10. Wounded World (03:11)
11. Drivin' Thunder (04:29)
12. Acadienne (04:07)
13. Spanish Suite (11:20)


Exact Audio Copy V1.1 from 23. June 2015

Отчёт EAC об извлечении, выполненном 18. февраля 2016, 18:43

Stephen Stills / Man alive !

Дисковод: ASUS DRW-24B3ST Adapter: 0 ID: 0

Режим чтения : Достоверность
Использование точного потока : Да
Отключение кэша аудио : Да
Использование указателей C2 : Нет

Коррекция смещения при чтении : 6
Способность читать области Lead-in и Lead-out : Нет
Заполнение пропущенных сэмплов тишиной : Да
Удаление блоков с тишиной в начале и конце : Нет
При вычислениях CRC использовались нулевые сэмплы : Да
Интерфейс : Установленный внешний ASPI-интерфейс

Выходной формат : Пользовательский кодировщик
Выбранный битрейт : 1024 kBit/s
Качество : Высокий
Добавление ID3-тега : Нет
Утилита сжатия : C:\Program Files (x86)\Exact Audio Copy\FLAC\FLAC.EXE
Дополнительные параметры : -6 -V -T "ARTIST=%artist%" -T "TITLE=%title%" -T "ALBUM=%albumtitle%" -T "DATE=%year%" -T "TRACKNUMBER=%tracknr%" -T "GENRE=%genre%" -T "COMMENT=%comment%" -T "BAND=%albuminterpret%" -T "ALBUMARTIST=%albuminterpret%" -T "COMPOSER=%composer%" %haslyrics%–tag-from-file=LYRICS="%lyricsfile%"%haslyrics% -T "DISCNUMBER=%cdnumber%" -T "TOTALDISCS=%totalcds%" -T "TOTALTRACKS=%numtracks%" %hascover%–picture="%coverfile%"%hascover% %source% -o %dest%


TOC извлечённого CD

Трек | Старт | Длительность | Начальный сектор | Конечный сектор
––––––––––––––––––––––––––––––––––-
1 | 0:00.00 | 3:25.15 | 0 | 15389
2 | 3:25.15 | 4:24.67 | 15390 | 35256
3 | 7:50.07 | 3:02.11 | 35257 | 48917
4 | 10:52.18 | 5:10.15 | 48918 | 72182
5 | 16:02.33 | 3:36.45 | 72183 | 88427
6 | 19:39.03 | 3:48.63 | 88428 | 105590
7 | 23:27.66 | 4:59.49 | 105591 | 128064
8 | 28:27.40 | 2:14.52 | 128065 | 138166
9 | 30:42.17 | 4:06.45 | 138167 | 156661
10 | 34:48.62 | 3:11.56 | 156662 | 171042
11 | 38:00.43 | 4:29.22 | 171043 | 191239
12 | 42:29.65 | 4:07.14 | 191240 | 209778
13 | 46:37.04 | 11:20.07 | 209779 | 260785


Характеристики диапазона извлечения и сообщения об ошибках

Выбранный диапазон

Имя файла E:\Torrents\Stephen Stills - 2005 - Man Alive!\Stephen Stills - Man alive !.wav

Пиковый уровень 100.0 %
Скорость извлечения 9.2 X
Качество диапазона 100.0 %
CRC теста 8DA9D00E
CRC копии 8DA9D00E
Копирование… OK

Ошибок не произошло

Конец отчёта

==== Контрольная сумма отчёта CFB51BB9B80ABA8FCF39B94B9C2A9A2D350B536D0C09779B479730150EAA9BBB ====

[CUETools log; Date: 27.02.2016 20:14:01; Version: 2.1.4]
[CTDB TOCID: epj5m1UOQz_5npXDH2yTPBmi6WI-] found.
Track | CTDB Status
1 | (29/29) Accurately ripped
2 | (29/29) Accurately ripped
3 | (29/29) Accurately ripped
4 | (29/29) Accurately ripped
5 | (29/29) Accurately ripped
6 | (29/29) Accurately ripped
7 | (29/29) Accurately ripped
8 | (29/29) Accurately ripped
9 | (29/29) Accurately ripped
10 | (29/29) Accurately ripped
11 | (29/29) Accurately ripped
12 | (29/29) Accurately ripped
13 | (28/29) Accurately ripped
[AccurateRip ID: 0018be05-00f982e3-b60d950d] found.
Track [ CRC | V2 ] Status
01 [221e493d|f157fe0d] (37+40/77) Accurately ripped
02 [ab0d20f1|92ccd670] (38+40/78) Accurately ripped
03 [42c8bd3f|0e2ab1a7] (38+40/78) Accurately ripped
04 [cc17d026|8a67423f] (38+40/78) Accurately ripped
05 [f0cb03f9|e1fad7dc] (38+40/78) Accurately ripped
06 [a589afef|2ed1980f] (38+40/78) Accurately ripped
07 [c89373ae|944e1bd6] (37+40/77) Accurately ripped
08 [521b2e4a|c35495ae] (38+40/78) Accurately ripped
09 [7e184927|29fb739b] (38+40/78) Accurately ripped
10 [4f740590|6d751769] (37+40/77) Accurately ripped
11 [0644166f|da514d89] (37+40/77) Accurately ripped
12 [ede1bff0|2d6b3697] (37+40/77) Accurately ripped
13 [61342740|d2fb343f] (34+40/74) Accurately ripped

Track Peak [ CRC32 ] [W/O NULL] [ LOG ]
– 100,0 [8DA9D00E] [D405E300] CRC32
01 100,0 [EC7F8BF4] [5DA49C78]
02 98,8 [FD807E18] [6590E9EB]
03 98,8 [13A100E5] [9F20E571]
04 98,8 [FA364153] [7E9A99B3]
05 98,8 [A6B18BA6] [0C4D5C41]
06 98,8 [E2EA7D3C] [543423A4]
07 98,8 [D26E77D0] [3F821FC9]
08 98,8 [D5B540E2] [1882D0B1]
09 98,8 [349BC219] [09DE3DE3]
10 98,8 [A3492562] [E025D703]
11 98,8 [1B943A33] [B43EE406]
12 98,8 [EB62C596] [3F9BE0DC]
13 98,8 [EFD4F67F] [54609E2D]

foobar2000 1.2 / Dynamic Range Meter 1.1.1
log date: 2016-02-27 15:04:31

––––––––––––––––––––––––––––––––––––––––
Analyzed: Stephen Stills / Man alive !
––––––––––––––––––––––––––––––––––––––––

DR Peak RMS Duration Track
––––––––––––––––––––––––––––––––––––––––
DR5 0.00 dB -6.29 dB 3:25 01-Ain't It Always
DR7 -0.10 dB -7.95 dB 4:25 02-Feed The People
DR11 -0.10 dB -13.97 dB 3:02 03-Hearts Gate
DR6 -0.10 dB -7.11 dB 5:10 04-'Round The Bend
DR6 -0.10 dB -7.12 dB 3:37 05-I don't Get It
DR6 -0.10 dB -7.41 dB 3:49 06-Around Us
DR6 -0.10 dB -8.29 dB 5:00 07-Ole Man Trouble
DR8 -0.10 dB -9.44 dB 2:15 08-Different Man
DR10 -0.10 dB -12.96 dB 4:07 09-Piece Of Me
DR6 -0.10 dB -7.39 dB 3:12 10-Wounded World
DR6 -0.10 dB -7.15 dB 4:29 11-Drivin' Thunder
DR7 -0.10 dB -8.76 dB 4:07 12-Acadienne
DR6 -0.10 dB -8.87 dB 11:20 13-Spanish Suite
––––––––––––––––––––––––––––––––––––––––

Number of tracks: 13
Official DR value: DR7

Samplerate: 44100 Hz
Channels: 2
Bits per sample: 16
Bitrate: 933 kbps
Codec: FLAC
================================================================================

Stephen Stills - Man Alive! (2005)

Stephen Stills - Man Alive! (2005)

All thanks to original releaser

More interesting music in My Blog