Subcategories
Tags
Language
Tags

Simply Red - Big Love: Greatest Hits Edition, 30th Anniversary (2015) 2CDs [Re-Up]

Posted By: Designol
Simply Red - Big Love: Greatest Hits Edition, 30th Anniversary (2015) 2CDs [Re-Up]

Simply Red - Big Love: Greatest Hits Edition, 30th Anniversary (2015) 2CDs
EAC | FLAC | Tracks (Cue&Log) ~ 836 Mb | Mp3 (CBR320) ~ 268 Mb | Scans ~ 135 Mb | 01:57:31
Blue-Eyed Soul, Adult Contemporary, Sophisti-Pop | Label: simplyred.com | # 0825646015849

Limited edition two CD set celebrating the band's 30th Anniversary. Contains their 'reunion' album Big Love plus a bonus 18 song hits collection. 2015 album from the reunited British soul group fronted by Mick Hucknall. Highlights include the celebratory first single 'Shine On' driven by their trademark blue-eyed soul sound and 'The Ghost Of Love', a big soul song punctuated by wah-wah guitar and the kind of bold orchestral strokes that once powered Barry White and his Love Unlimited.

Mick Hucknall and Simply Red are rightly inseparable in the minds of most listeners – he is the frontman and the star, the one constant in the band's history – but the singer's short-lived solo career of 2008-2012 proved there was a difference between Hucknall and the group. Big Love, the album the reunited Simply Red recorded to celebrate their 30th anniversary in 2015, isn't as in thrall to the past as the vocalist's two albums of covers, nor is it as comfortable with rock as 2007's Stay. It is, as the title suggests, a record that is romantic to its very core, an album whose bones are as exquisitely smooth as its surfaces (the loungey tongue-in-cheek saloon song "The Old Man and the Beer" is the exception that proves the rule). Even when the tempo picks up a notch on Big Love – and it doesn't happen all that often – the speedier songs come in the form of a slow-burning disco tune, an aesthetic that isn't all that far removed from Simply Red's enduring allegiance to the smoothest sounds of the '70s, specifically Philly soul. At times, the overall veneer is a shade too clean, suggesting nothing so much as cocktail hour at a classy conference, but the fact that Hucknall and Simply Red choose to celebrate the softer, soulful sounds of the '70s by doubling down on the smoothness does separate them from the legions of neo-soul divas in the new millennium. Let those singers scale operatic towers: this lot prefers to take it easy and is charming for it.

Review by Stephen Thomas Erlewine, Allmusic.com

Simply Red - Big Love: Greatest Hits Edition, 30th Anniversary (2015) 2CDs [Re-Up]



Tracklist:

CD1:

01. Shine On (03:12)
02. Daydreaming (03:37)
03. Big Love (04:09)
04. The Ghost Of Love (03:12)
05. Dad (03:54)
06. Love Wonders (03:55)
07. Love Gave Me More (03:26)
08. Tight Tones (03:35)
09. Woru (04:12)
10. Coming Home (02:53)
11. The Old Man And The Beer (02:53)
12. Each Day (04:19)

CD2:

01. Sunrise (03:20)
02. Stars (04:09)
03. A New Flame (03:57)
04. Holding Back The Years (04:30)
05. Home (03:16)
06. You've Got It (03:56)
07. Your Mirror (04:05)
08. For Your Babies (04:18)
09. The Right Thing (04:20)
10. Say You Love Me (03:45)
11. So Not Over You (03:54)
12. Fake (03:59)
13. Never Never Love (04:18)
14. Thrill Me (05:05)
15. Something Got Me Started (04:00)
16. Money's Too Tight (To Mention) (04:12)
17. Fairground (05:33)
18. If You Don't Know Me By Now (03:26)


Exact Audio Copy V1.1 from 23. June 2015

EAC extraction logfile from 18. November 2015, 22:05

Simply Red / Big Love

Used drive : PLEXTOR DVDR PX-891SA Adapter: 1 ID: 1

Read mode : Secure
Utilize accurate stream : Yes
Defeat audio cache : Yes
Make use of C2 pointers : No

Read offset correction : 6
Overread into Lead-In and Lead-Out : No
Fill up missing offset samples with silence : Yes
Delete leading and trailing silent blocks : No
Null samples used in CRC calculations : Yes
Used interface : Native Win32 interface for Win NT & 2000
Gap handling : Appended to previous track

Used output format : User Defined Encoder
Selected bitrate : 1024 kBit/s
Quality : High
Add ID3 tag : No
Command line compressor : C:\Program Files (x86)\Exact Audio Copy\Flac\flac.exe
Additional command line options : -0 -V -T "ARTIST=%artist%" -T "TITLE=%title%" -T "ALBUM=%albumtitle%" -T "DATE=%year%" -T "TRACKNUMBER=%tracknr%" -T "TOTALTRACKS=%numtracks%" -T "GENRE=%genre%" -T "COMMENT=Naftamusic Release!" %source%


TOC of the extracted CD

Track | Start | Length | Start sector | End sector
––––––––––––––––––––––––––––-
1 | 0:00.00 | 3:12.03 | 0 | 14402
2 | 3:12.03 | 3:37.41 | 14403 | 30718
3 | 6:49.44 | 4:09.17 | 30719 | 49410
4 | 10:58.61 | 3:12.70 | 49411 | 63880
5 | 14:11.56 | 3:54.15 | 63881 | 81445
6 | 18:05.71 | 3:55.35 | 81446 | 99105
7 | 22:01.31 | 3:26.56 | 99106 | 114611
8 | 25:28.12 | 3:35.18 | 114612 | 130754
9 | 29:03.30 | 4:12.37 | 130755 | 149691
10 | 33:15.67 | 2:53.04 | 149692 | 162670
11 | 36:08.71 | 2:53.35 | 162671 | 175680
12 | 39:02.31 | 4:19.19 | 175681 | 195124


Track 1

Filename E:\Nafta Releases\Simply Red - Big Love & Greatest Hits Edition (30th Anniversary 2 CD 2015)[FLAC] - Naftamusic\CD 1 Big Love\01 - Shine On.wav

Pre-gap length 0:00:02.00

Peak level 98.9 %
Extraction speed 1.7 X
Track quality 100.0 %
Test CRC 6501441F
Copy CRC 6501441F
Track not present in AccurateRip database
Copy OK

Track 2

Filename E:\Nafta Releases\Simply Red - Big Love & Greatest Hits Edition (30th Anniversary 2 CD 2015)[FLAC] - Naftamusic\CD 1 Big Love\02 - Daydreaming.wav

Peak level 98.9 %
Extraction speed 2.0 X
Track quality 100.0 %
Test CRC 8D8AC79E
Copy CRC 8D8AC79E
Track not present in AccurateRip database
Copy OK

Track 3

Filename E:\Nafta Releases\Simply Red - Big Love & Greatest Hits Edition (30th Anniversary 2 CD 2015)[FLAC] - Naftamusic\CD 1 Big Love\03 - Big Love.wav

Peak level 98.9 %
Extraction speed 2.2 X
Track quality 100.0 %
Test CRC C615781A
Copy CRC C615781A
Track not present in AccurateRip database
Copy OK

Track 4

Filename E:\Nafta Releases\Simply Red - Big Love & Greatest Hits Edition (30th Anniversary 2 CD 2015)[FLAC] - Naftamusic\CD 1 Big Love\04 - The Ghost Of Love.wav

Peak level 98.9 %
Extraction speed 2.3 X
Track quality 100.0 %
Test CRC 36735B20
Copy CRC 36735B20
Track not present in AccurateRip database
Copy OK

Track 5

Filename E:\Nafta Releases\Simply Red - Big Love & Greatest Hits Edition (30th Anniversary 2 CD 2015)[FLAC] - Naftamusic\CD 1 Big Love\05 - Dad.wav

Peak level 98.9 %
Extraction speed 2.5 X
Track quality 100.0 %
Test CRC CA9ED928
Copy CRC CA9ED928
Track not present in AccurateRip database
Copy OK

Track 6

Filename E:\Nafta Releases\Simply Red - Big Love & Greatest Hits Edition (30th Anniversary 2 CD 2015)[FLAC] - Naftamusic\CD 1 Big Love\06 - Love Wonders.wav

Peak level 98.9 %
Extraction speed 2.6 X
Track quality 100.0 %
Test CRC A967C53E
Copy CRC A967C53E
Track not present in AccurateRip database
Copy OK

Track 7

Filename E:\Nafta Releases\Simply Red - Big Love & Greatest Hits Edition (30th Anniversary 2 CD 2015)[FLAC] - Naftamusic\CD 1 Big Love\07 - Love Gave Me More.wav

Peak level 98.9 %
Extraction speed 2.7 X
Track quality 100.0 %
Test CRC F4E912D6
Copy CRC F4E912D6
Track not present in AccurateRip database
Copy OK

Track 8

Filename E:\Nafta Releases\Simply Red - Big Love & Greatest Hits Edition (30th Anniversary 2 CD 2015)[FLAC] - Naftamusic\CD 1 Big Love\08 - Tight Tones.wav

Peak level 98.9 %
Extraction speed 2.8 X
Track quality 100.0 %
Test CRC 7FB88F97
Copy CRC 7FB88F97
Track not present in AccurateRip database
Copy OK

Track 9

Filename E:\Nafta Releases\Simply Red - Big Love & Greatest Hits Edition (30th Anniversary 2 CD 2015)[FLAC] - Naftamusic\CD 1 Big Love\09 - Woru.wav

Peak level 98.9 %
Extraction speed 3.1 X
Track quality 100.0 %
Test CRC 6A6754A4
Copy CRC 6A6754A4
Track not present in AccurateRip database
Copy OK

Track 10

Filename E:\Nafta Releases\Simply Red - Big Love & Greatest Hits Edition (30th Anniversary 2 CD 2015)[FLAC] - Naftamusic\CD 1 Big Love\10 - Coming Home.wav

Peak level 98.9 %
Extraction speed 2.9 X
Track quality 100.0 %
Test CRC 7FD1B7B6
Copy CRC 7FD1B7B6
Track not present in AccurateRip database
Copy OK

Track 11

Filename E:\Nafta Releases\Simply Red - Big Love & Greatest Hits Edition (30th Anniversary 2 CD 2015)[FLAC] - Naftamusic\CD 1 Big Love\11 - The Old Man And The Beer.wav

Peak level 98.9 %
Extraction speed 3.0 X
Track quality 100.0 %
Test CRC 5DC2053F
Copy CRC 5DC2053F
Track not present in AccurateRip database
Copy OK

Track 12

Filename E:\Nafta Releases\Simply Red - Big Love & Greatest Hits Edition (30th Anniversary 2 CD 2015)[FLAC] - Naftamusic\CD 1 Big Love\12 - Each Day.wav

Peak level 98.9 %
Extraction speed 3.4 X
Track quality 100.0 %
Test CRC A92ACC59
Copy CRC A92ACC59
Track not present in AccurateRip database
Copy OK


None of the tracks are present in the AccurateRip database

No errors occurred

End of status report

==== Log checksum D1671AB44DAFA90FFCC38BD4E04D90BED88FC51BE22F0522215DDBBA4E9ED197 ====

foobar2000 1.3.8 / Dynamic Range Meter 1.1.1
log date: 2015-11-19 18:56:05

––––––––––––––––––––––––––––––––––––––––
Analyzed: Simply Red / Big Love
––––––––––––––––––––––––––––––––––––––––

DR Peak RMS Duration Track
––––––––––––––––––––––––––––––––––––––––
DR8 -0.09 dB -9.96 dB 3:12 01-Shine On
DR7 -0.09 dB -9.18 dB 3:38 02-Daydreaming
DR8 -0.09 dB -10.52 dB 4:09 03-Big Love
DR6 -0.09 dB -8.02 dB 3:13 04-The Ghost Of Love
DR7 -0.09 dB -10.06 dB 3:54 05-Dad
DR8 -0.09 dB -9.80 dB 3:55 06-Love Wonders
DR7 -0.09 dB -8.66 dB 3:27 07-Love Gave Me More
DR8 -0.09 dB -9.60 dB 3:35 08-Tight Tones
DR7 -0.09 dB -8.58 dB 4:12 09-Woru
DR8 -0.09 dB -9.41 dB 2:53 10-Coming Home
DR10 -0.10 dB -10.84 dB 2:53 11-The Old Man And The Beer
DR7 -0.09 dB -9.89 dB 4:19 12-Each Day
––––––––––––––––––––––––––––––––––––––––

Number of tracks: 12
Official DR value: DR8

Samplerate: 44100 Hz
Channels: 2
Bits per sample: 16
Bitrate: 878 kbps
Codec: FLAC
================================================================================


Exact Audio Copy V1.1 from 23. June 2015

EAC extraction logfile from 18. November 2015, 23:13

Simply Red / Greatest Hits Edition

Used drive : PLEXTOR DVDR PX-891SA Adapter: 1 ID: 1

Read mode : Secure
Utilize accurate stream : Yes
Defeat audio cache : Yes
Make use of C2 pointers : No

Read offset correction : 6
Overread into Lead-In and Lead-Out : No
Fill up missing offset samples with silence : Yes
Delete leading and trailing silent blocks : No
Null samples used in CRC calculations : Yes
Used interface : Native Win32 interface for Win NT & 2000
Gap handling : Appended to previous track

Used output format : User Defined Encoder
Selected bitrate : 1024 kBit/s
Quality : High
Add ID3 tag : No
Command line compressor : C:\Program Files (x86)\Exact Audio Copy\Flac\flac.exe
Additional command line options : -0 -V -T "ARTIST=%artist%" -T "TITLE=%title%" -T "ALBUM=%albumtitle%" -T "DATE=%year%" -T "TRACKNUMBER=%tracknr%" -T "TOTALTRACKS=%numtracks%" -T "GENRE=%genre%" -T "COMMENT=Naftamusic Release!" %source%


TOC of the extracted CD

Track | Start | Length | Start sector | End sector
––––––––––––––––––––––––––––-
1 | 0:00.00 | 3:20.21 | 0 | 15020
2 | 3:20.21 | 4:09.21 | 15021 | 33716
3 | 7:29.42 | 3:57.51 | 33717 | 51542
4 | 11:27.18 | 4:30.70 | 51543 | 71862
5 | 15:58.13 | 3:16.06 | 71863 | 86568
6 | 19:14.19 | 3:56.47 | 86569 | 104315
7 | 23:10.66 | 4:05.05 | 104316 | 122695
8 | 27:15.71 | 4:18.06 | 122696 | 142051
9 | 31:34.02 | 4:20.59 | 142052 | 161610
10 | 35:54.61 | 3:45.63 | 161611 | 178548
11 | 39:40.49 | 3:54.18 | 178549 | 196116
12 | 43:34.67 | 3:59.13 | 196117 | 214054
13 | 47:34.05 | 4:18.03 | 214055 | 233407
14 | 51:52.08 | 5:05.16 | 233408 | 256298
15 | 56:57.24 | 4:00.23 | 256299 | 274321
16 | 60:57.47 | 4:12.69 | 274322 | 293290
17 | 65:10.41 | 5:33.16 | 293291 | 318281
18 | 70:43.57 | 3:26.08 | 318282 | 333739


Track 1

Filename E:\Nafta Releases\Simply Red - Big Love & Greatest Hits Edition (30th Anniversary 2 CD 2015)[FLAC] - Naftamusic\CD 2 Greatest Hits Edition\01 - Sunrise.wav

Pre-gap length 0:00:02.00

Peak level 99.4 %
Extraction speed 2.0 X
Track quality 100.0 %
Test CRC 845E3F46
Copy CRC 845E3F46
Track not present in AccurateRip database
Copy OK

Track 2

Filename E:\Nafta Releases\Simply Red - Big Love & Greatest Hits Edition (30th Anniversary 2 CD 2015)[FLAC] - Naftamusic\CD 2 Greatest Hits Edition\02 - Stars.wav

Peak level 98.8 %
Extraction speed 2.3 X
Track quality 100.0 %
Test CRC 574EFBBE
Copy CRC 574EFBBE
Track not present in AccurateRip database
Copy OK

Track 3

Filename E:\Nafta Releases\Simply Red - Big Love & Greatest Hits Edition (30th Anniversary 2 CD 2015)[FLAC] - Naftamusic\CD 2 Greatest Hits Edition\03 - A New Flame.wav

Peak level 99.4 %
Extraction speed 1.8 X
Track quality 99.9 %
Test CRC 8F2EDFDF
Copy CRC 8F2EDFDF
Track not present in AccurateRip database
Copy OK

Track 4

Filename E:\Nafta Releases\Simply Red - Big Love & Greatest Hits Edition (30th Anniversary 2 CD 2015)[FLAC] - Naftamusic\CD 2 Greatest Hits Edition\04 - Holding Back The Years.wav

Peak level 95.5 %
Extraction speed 2.1 X
Track quality 99.9 %
Test CRC 228A1DD5
Copy CRC 228A1DD5
Track not present in AccurateRip database
Copy OK

Track 5

Filename E:\Nafta Releases\Simply Red - Big Love & Greatest Hits Edition (30th Anniversary 2 CD 2015)[FLAC] - Naftamusic\CD 2 Greatest Hits Edition\05 - Home.wav

Peak level 89.3 %
Extraction speed 2.7 X
Track quality 100.0 %
Test CRC 6EA38B3E
Copy CRC 6EA38B3E
Track not present in AccurateRip database
Copy OK

Track 6

Filename E:\Nafta Releases\Simply Red - Big Love & Greatest Hits Edition (30th Anniversary 2 CD 2015)[FLAC] - Naftamusic\CD 2 Greatest Hits Edition\06 - You've Got It.wav

Peak level 99.5 %
Extraction speed 2.9 X
Track quality 100.0 %
Test CRC 126B0A33
Copy CRC 126B0A33
Track not present in AccurateRip database
Copy OK

Track 7

Filename E:\Nafta Releases\Simply Red - Big Love & Greatest Hits Edition (30th Anniversary 2 CD 2015)[FLAC] - Naftamusic\CD 2 Greatest Hits Edition\07 - Your Mirror.wav

Peak level 100.0 %
Extraction speed 3.1 X
Track quality 100.0 %
Test CRC 91B6DC5A
Copy CRC 91B6DC5A
Track not present in AccurateRip database
Copy OK

Track 8

Filename E:\Nafta Releases\Simply Red - Big Love & Greatest Hits Edition (30th Anniversary 2 CD 2015)[FLAC] - Naftamusic\CD 2 Greatest Hits Edition\08 - For Your Babies.wav

Peak level 99.4 %
Extraction speed 3.3 X
Track quality 100.0 %
Test CRC 2BE2E824
Copy CRC 2BE2E824
Track not present in AccurateRip database
Copy OK

Track 9

Filename E:\Nafta Releases\Simply Red - Big Love & Greatest Hits Edition (30th Anniversary 2 CD 2015)[FLAC] - Naftamusic\CD 2 Greatest Hits Edition\09 - The Right Thing.wav

Peak level 99.4 %
Extraction speed 3.4 X
Track quality 100.0 %
Test CRC 7D162190
Copy CRC 7D162190
Track not present in AccurateRip database
Copy OK

Track 10

Filename E:\Nafta Releases\Simply Red - Big Love & Greatest Hits Edition (30th Anniversary 2 CD 2015)[FLAC] - Naftamusic\CD 2 Greatest Hits Edition\10 - Say You Love Me.wav

Peak level 99.4 %
Extraction speed 3.5 X
Track quality 100.0 %
Test CRC 2CCB8ADB
Copy CRC 2CCB8ADB
Track not present in AccurateRip database
Copy OK

Track 11

Filename E:\Nafta Releases\Simply Red - Big Love & Greatest Hits Edition (30th Anniversary 2 CD 2015)[FLAC] - Naftamusic\CD 2 Greatest Hits Edition\11 - So Not Over You.wav

Peak level 99.3 %
Extraction speed 3.6 X
Track quality 100.0 %
Test CRC 96C50E73
Copy CRC 96C50E73
Track not present in AccurateRip database
Copy OK

Track 12

Filename E:\Nafta Releases\Simply Red - Big Love & Greatest Hits Edition (30th Anniversary 2 CD 2015)[FLAC] - Naftamusic\CD 2 Greatest Hits Edition\12 - Fake.wav

Peak level 99.5 %
Extraction speed 3.7 X
Track quality 100.0 %
Test CRC CE1CC82B
Copy CRC CE1CC82B
Track not present in AccurateRip database
Copy OK

Track 13

Filename E:\Nafta Releases\Simply Red - Big Love & Greatest Hits Edition (30th Anniversary 2 CD 2015)[FLAC] - Naftamusic\CD 2 Greatest Hits Edition\13 - Never Never Love.wav

Peak level 98.8 %
Extraction speed 3.9 X
Track quality 100.0 %
Test CRC CAB136D3
Copy CRC CAB136D3
Track not present in AccurateRip database
Copy OK

Track 14

Filename E:\Nafta Releases\Simply Red - Big Love & Greatest Hits Edition (30th Anniversary 2 CD 2015)[FLAC] - Naftamusic\CD 2 Greatest Hits Edition\14 - Thrill Me.wav

Peak level 99.5 %
Extraction speed 4.1 X
Track quality 100.0 %
Test CRC FD04EC65
Copy CRC FD04EC65
Track not present in AccurateRip database
Copy OK

Track 15

Filename E:\Nafta Releases\Simply Red - Big Love & Greatest Hits Edition (30th Anniversary 2 CD 2015)[FLAC] - Naftamusic\CD 2 Greatest Hits Edition\15 - Something Got Me Started.wav

Peak level 99.4 %
Extraction speed 4.1 X
Track quality 100.0 %
Test CRC C54C1712
Copy CRC C54C1712
Track not present in AccurateRip database
Copy OK

Track 16

Filename E:\Nafta Releases\Simply Red - Big Love & Greatest Hits Edition (30th Anniversary 2 CD 2015)[FLAC] - Naftamusic\CD 2 Greatest Hits Edition\16 - Money's Too Tight (To Mention).wav

Peak level 100.0 %
Extraction speed 4.2 X
Track quality 100.0 %
Test CRC B799D884
Copy CRC B799D884
Track not present in AccurateRip database
Copy OK

Track 17

Filename E:\Nafta Releases\Simply Red - Big Love & Greatest Hits Edition (30th Anniversary 2 CD 2015)[FLAC] - Naftamusic\CD 2 Greatest Hits Edition\17 - Fairground.wav

Peak level 99.4 %
Extraction speed 4.4 X
Track quality 100.0 %
Test CRC 592C017F
Copy CRC 592C017F
Track not present in AccurateRip database
Copy OK

Track 18

Filename E:\Nafta Releases\Simply Red - Big Love & Greatest Hits Edition (30th Anniversary 2 CD 2015)[FLAC] - Naftamusic\CD 2 Greatest Hits Edition\18 - If You Don't Know Me By Now.wav

Peak level 99.4 %
Extraction speed 4.3 X
Track quality 100.0 %
Test CRC 9792F86C
Copy CRC 9792F86C
Track not present in AccurateRip database
Copy OK


None of the tracks are present in the AccurateRip database

No errors occurred

End of status report

==== Log checksum C4A99EF132A037A23BEB32D3E9B0F429C84AC1B511E9499AB706654C81F7DD00 ====

foobar2000 1.3.8 / Dynamic Range Meter 1.1.1
log date: 2015-11-19 18:57:17

––––––––––––––––––––––––––––––––––––––––
Analyzed: Simply Red / Greatest Hits Edition
––––––––––––––––––––––––––––––––––––––––

DR Peak RMS Duration Track
––––––––––––––––––––––––––––––––––––––––
DR7 -0.05 dB -8.64 dB 3:20 01-Sunrise
DR7 -0.10 dB -8.63 dB 4:09 02-Stars
DR7 -0.04 dB -8.28 dB 3:58 03-A New Flame
DR9 -0.40 dB -12.43 dB 4:31 04-Holding Back The Years
DR7 -0.98 dB -9.58 dB 3:16 05-Home
DR7 -0.04 dB -9.81 dB 3:57 06-You've Got It
DR8 0.00 dB -9.25 dB 4:05 07-Your Mirror
DR9 -0.05 dB -10.40 dB 4:18 08-For Your Babies
DR6 -0.05 dB -8.00 dB 4:21 09-The Right Thing
DR8 -0.05 dB -8.94 dB 3:46 10-Say You Love Me
DR6 -0.05 dB -8.40 dB 3:54 11-So Not Over You
DR6 -0.04 dB -7.58 dB 3:59 12-Fake
DR8 -0.10 dB -9.65 dB 4:18 13-Never Never Love
DR8 -0.04 dB -9.43 dB 5:05 14-Thrill Me
DR8 -0.05 dB -9.48 dB 4:00 15-Something Got Me Started
DR7 0.00 dB -8.81 dB 4:13 16-Money's Too Tight (To Mention)
DR7 -0.05 dB -8.71 dB 5:33 17-Fairground
DR9 -0.05 dB -11.05 dB 3:26 18-If You Don't Know Me By Now
––––––––––––––––––––––––––––––––––––––––

Number of tracks: 18
Official DR value: DR8

Samplerate: 44100 Hz
Channels: 2
Bits per sample: 16
Bitrate: 960 kbps
Codec: FLAC
================================================================================

Simply Red - Big Love: Greatest Hits Edition, 30th Anniversary (2015) 2CDs [Re-Up]

Simply Red - Big Love: Greatest Hits Edition, 30th Anniversary (2015) 2CDs [Re-Up]

All thanks to original releaser - thoms01

More interesting music in My Blog